Ticket #2501: hataraku.valgrind.log

File hataraku.valgrind.log, 8.2 KB (added by klaxa, 3 years ago)

valgrind log

Line 
1[klaxa@workstation test]$ LD_LIBRARY_PATH="/home/klaxa/ffmpeg/build/lib" valgrind /home/klaxa/ffmpeg/build/bin/ffmpeg -i hataraku.mkv -c:a libmp3lame -c:v mpeg4 -sn -y -vf "subtitles=hataraku.mkv" -t 60 hataraku_hardsub.mkv
2==14059== Memcheck, a memory error detector
3==14059== Copyright (C) 2002-2012, and GNU GPL'd, by Julian Seward et al.
4==14059== Using Valgrind-3.8.1 and LibVEX; rerun with -h for copyright info
5==14059== Command: /home/klaxa/ffmpeg/build/bin/ffmpeg -i hataraku.mkv -c:a libmp3lame -c:v mpeg4 -sn -y -vf subtitles=hataraku.mkv -t 60 hataraku_hardsub.mkv
6==14059==
7ffmpeg version N-52453-g12e3c1b Copyright (c) 2000-2013 the FFmpeg developers
8  built on Apr 25 2013 00:02:29 with gcc 4.8.0 (GCC)
9  configuration: --prefix=/home/klaxa/ffmpeg/build --disable-debug --disable-static --enable-avresample --enable-dxva2 --enable-fontconfig --enable-gpl --enable-libass --enable-libbluray --enable-libfreetype --enable-libgsm --enable-libmodplug --enable-libmp3lame --enable-libopencore_amrnb --enable-libopencore_amrwb --enable-libopenjpeg --enable-libopus --enable-libpulse --enable-librtmp --enable-libschroedinger --enable-libspeex --enable-libtheora --enable-libv4l2 --enable-libvorbis --enable-libvpx --enable-libx264 --enable-libxvid --enable-postproc --enable-runtime-cpudetect --enable-shared --enable-vdpau --enable-version3 --enable-x11grab
10  libavutil      52. 27.100 / 52. 27.100
11  libavcodec     55.  6.100 / 55.  6.100
12  libavformat    55.  3.100 / 55.  3.100
13  libavdevice    55.  0.100 / 55.  0.100
14  libavfilter     3. 60.101 /  3. 60.101
15  libavresample   1.  1.  0 /  1.  1.  0
16  libswscale      2.  2.100 /  2.  2.100
17  libswresample   0. 17.102 /  0. 17.102
18  libpostproc    52.  3.100 / 52.  3.100
19Input #0, matroska,webm, from 'hataraku.mkv':
20  Metadata:
21    creation_time   : 2013-04-05 00:17:48
22  Duration: 00:23:39.63, start: 0.000000, bitrate: 1926 kb/s
23    Chapter #0.0: start 0.000000, end 123.373000
24    Metadata:
25      title           : Prologue
26    Chapter #0.1: start 123.373000, end 812.770000
27    Metadata:
28      title           : Part A
29    Chapter #0.2: start 812.770000, end 1319.610000
30    Metadata:
31      title           : Part B
32    Chapter #0.3: start 1319.610000, end 1409.742000
33    Metadata:
34      title           : Ending
35    Chapter #0.4: start 1409.742000, end 1419.627000
36    Metadata:
37      title           : Preview
38    Stream #0:0(jpn): Video: h264 (High 10), yuv420p10le, 1280x720, SAR 1:1 DAR 16:9, 23.98 fps, 23.98 tbr, 1k tbn, 47.95 tbc (default)
39    Metadata:
40      title           : 10bit H.264 - 720p
41    Stream #0:1(jpn): Audio: aac, 48000 Hz, stereo, fltp (default)
42    Metadata:
43      title           : 2.0 AAC
44    Stream #0:2(eng): Subtitle: ssa (default)
45    Metadata:
46      title           : FFF
47Codec 0x18000 is not in the full list.
48    Stream #0:3: Attachment: unknown_codec
49    Metadata:
50      filename        : A-OTF-TakaHandStd-H.ttf
51      mimetype        : application/x-truetype-font
52Codec 0x18000 is not in the full list.
53    Stream #0:4: Attachment: unknown_codec
54    Metadata:
55      filename        : DFGHSMaruGothic-W4.ttf
56      mimetype        : application/x-truetype-font
57Codec 0x18000 is not in the full list.
58    Stream #0:5: Attachment: unknown_codec
59    Metadata:
60      filename        : HeiseiMaruGoStd-W4-NakaImo.ttf
61      mimetype        : application/x-truetype-font
62Codec 0x18000 is not in the full list.
63    Stream #0:6: Attachment: unknown_codec
64    Metadata:
65      filename        : KozGoPr6n-M.ttf
66      mimetype        : application/x-truetype-font
67Codec 0x18000 is not in the full list.
68    Stream #0:7: Attachment: unknown_codec
69    Metadata:
70      filename        : ScalaSans-Bold.ttf
71      mimetype        : application/x-truetype-font
72Codec 0x18000 is not in the full list.
73    Stream #0:8: Attachment: unknown_codec
74    Metadata:
75      filename        : A-OTF-KakuminPro-Bold-En.otf
76      mimetype        : application/x-truetype-font
77==14059== Conditional jump or move depends on uninitialised value(s)
78==14059==    at 0x5CD62A3: avsubtitle_free (in /home/klaxa/ffmpeg/build/lib/libavcodec.so.55.6.100)
79==14059==    by 0x5074011: ??? (in /home/klaxa/ffmpeg/build/lib/libavfilter.so.3.60.101)
80==14059==    by 0x508752D: avfilter_init_str (in /home/klaxa/ffmpeg/build/lib/libavfilter.so.3.60.101)
81==14059==    by 0x509479D: ??? (in /home/klaxa/ffmpeg/build/lib/libavfilter.so.3.60.101)
82==14059==    by 0x509519F: avfilter_graph_parse2 (in /home/klaxa/ffmpeg/build/lib/libavfilter.so.3.60.101)
83==14059==    by 0x413CE6: ??? (in /home/klaxa/ffmpeg/build/bin/ffmpeg)
84==14059==    by 0x41A40C: ??? (in /home/klaxa/ffmpeg/build/bin/ffmpeg)
85==14059==    by 0x407531: main (in /home/klaxa/ffmpeg/build/bin/ffmpeg)
86==14059==
87==14059== Conditional jump or move depends on uninitialised value(s)
88==14059==    at 0x4C2ACF2: free (in /usr/lib/valgrind/vgpreload_memcheck-amd64-linux.so)
89==14059==    by 0x6DC6D8B: av_freep (in /home/klaxa/ffmpeg/build/lib/libavutil.so.52.27.100)
90==14059==    by 0x5CD633F: avsubtitle_free (in /home/klaxa/ffmpeg/build/lib/libavcodec.so.55.6.100)
91==14059==    by 0x5074011: ??? (in /home/klaxa/ffmpeg/build/lib/libavfilter.so.3.60.101)
92==14059==    by 0x508752D: avfilter_init_str (in /home/klaxa/ffmpeg/build/lib/libavfilter.so.3.60.101)
93==14059==    by 0x509479D: ??? (in /home/klaxa/ffmpeg/build/lib/libavfilter.so.3.60.101)
94==14059==    by 0x509519F: avfilter_graph_parse2 (in /home/klaxa/ffmpeg/build/lib/libavfilter.so.3.60.101)
95==14059==    by 0x413CE6: ??? (in /home/klaxa/ffmpeg/build/bin/ffmpeg)
96==14059==    by 0x41A40C: ??? (in /home/klaxa/ffmpeg/build/bin/ffmpeg)
97==14059==    by 0x407531: main (in /home/klaxa/ffmpeg/build/bin/ffmpeg)
98==14059==
99==14059== Invalid free() / delete / delete[] / realloc()
100==14059==    at 0x4C2AD3C: free (in /usr/lib/valgrind/vgpreload_memcheck-amd64-linux.so)
101==14059==    by 0x6DC6D8B: av_freep (in /home/klaxa/ffmpeg/build/lib/libavutil.so.52.27.100)
102==14059==    by 0x5CD633F: avsubtitle_free (in /home/klaxa/ffmpeg/build/lib/libavcodec.so.55.6.100)
103==14059==    by 0x5074011: ??? (in /home/klaxa/ffmpeg/build/lib/libavfilter.so.3.60.101)
104==14059==    by 0x508752D: avfilter_init_str (in /home/klaxa/ffmpeg/build/lib/libavfilter.so.3.60.101)
105==14059==    by 0x509479D: ??? (in /home/klaxa/ffmpeg/build/lib/libavfilter.so.3.60.101)
106==14059==    by 0x509519F: avfilter_graph_parse2 (in /home/klaxa/ffmpeg/build/lib/libavfilter.so.3.60.101)
107==14059==    by 0x413CE6: ??? (in /home/klaxa/ffmpeg/build/bin/ffmpeg)
108==14059==    by 0x41A40C: ??? (in /home/klaxa/ffmpeg/build/bin/ffmpeg)
109==14059==    by 0x407531: main (in /home/klaxa/ffmpeg/build/bin/ffmpeg)
110==14059==  Address 0xd is not stack'd, malloc'd or (recently) free'd
111==14059==
112Output #0, matroska, to 'hataraku_hardsub.mkv':
113  Metadata:
114    encoder         : Lavf55.3.100
115    Chapter #0.0: start 0.000000, end 60.000000
116    Metadata:
117      title           : Prologue
118    Stream #0:0(jpn): Video: mpeg4 (FMP4 / 0x34504D46), yuv420p, 1280x720 [SAR 1:1 DAR 16:9], q=2-31, 200 kb/s, 1k tbn, 23.98 tbc (default)
119    Metadata:
120      title           : 10bit H.264 - 720p
121    Stream #0:1(jpn): Audio: mp3 (U[0][0][0] / 0x0055), 48000 Hz, stereo, fltp (default)
122    Metadata:
123      title           : 2.0 AAC
124Stream mapping:
125  Stream #0:0 -> #0:0 (h264 -> mpeg4)
126  Stream #0:1 -> #0:1 (aac -> libmp3lame)
127Press [q] to stop, [?] for help
128fontconfig: Selected font is not the requested one: 'DejaVu Sans Bold' != 'ScalaSans'
129frame=  191 fps=0.8 q=31.0 Lsize=    1068kB time=00:00:08.18 bitrate=1069.0kbits/s   
130video:935kB audio:128kB subtitle:0 global headers:0kB muxing overhead 0.477502%
131==14059==
132==14059== HEAP SUMMARY:
133==14059==     in use at exit: 4,776 bytes in 44 blocks
134==14059==   total heap usage: 758,156 allocs, 758,113 frees, 1,497,957,462 bytes allocated
135==14059==
136==14059== LEAK SUMMARY:
137==14059==    definitely lost: 0 bytes in 0 blocks
138==14059==    indirectly lost: 0 bytes in 0 blocks
139==14059==      possibly lost: 4,080 bytes in 1 blocks
140==14059==    still reachable: 696 bytes in 43 blocks
141==14059==         suppressed: 0 bytes in 0 blocks
142==14059== Rerun with --leak-check=full to see details of leaked memory
143==14059==
144==14059== For counts of detected and suppressed errors, rerun with: -v
145==14059== Use --track-origins=yes to see where uninitialised values come from
146==14059== ERROR SUMMARY: 3 errors from 3 contexts (suppressed: 2 from 2)
147