Ticket #2453: dump.txt

File dump.txt, 58.2 KB (added by vihai, 3 years ago)

Dump with transport stream debugging enabled

Line 
1vihai@stfu:/opt/acaocam$ /home/vihai/ffmpeg/ffmpeg -y -rtsp_transport tcp -i "rtsp://195.72.223.6:555/axis-media/media.amp?streamprofile=streaming_720&camera=1" -fdebug ts -debug_ts -vcodec copy -acodec copy -vbsf h264_mp4toannexb a.ts
2ffmpeg version N-51696-gb4eb06d Copyright (c) 2000-2013 the FFmpeg developers
3  built on Apr  9 2013 17:52:58 with gcc 4.7 (Ubuntu/Linaro 4.7.2-2ubuntu1)
4  configuration: --enable-gpl --enable-libx264
5  libavutil      52. 25.100 / 52. 25.100
6  libavcodec     55.  2.100 / 55.  2.100
7  libavformat    55.  1.100 / 55.  1.100
8  libavdevice    55.  0.100 / 55.  0.100
9  libavfilter     3. 49.101 /  3. 49.101
10  libswscale      2.  2.100 /  2.  2.100
11  libswresample   0. 17.102 /  0. 17.102
12  libpostproc    52.  2.100 / 52.  2.100
13 matched as AVOption 'fdebug' with argument 'ts'.
14Reading option '-debug_ts' ... matched as option 'debug_ts' (print timestamp debugging info) with argument '1'.                     
15Reading option '-vcodec' ... matched as option 'vcodec' (force video codec ('copy' to copy stream)) with argument 'copy'.           
16Reading option '-acodec' ... matched as option 'acodec' (force audio codec ('copy' to copy stream)) with argument 'copy'.           
17Reading option '-vbsf' ... matched as option 'vbsf' (deprecated) with argument 'h264_mp4toannexb'.                                 
18Reading option 'a.ts' ... matched as output file.                                                                                   
19Finished splitting the commandline.                                                                                                 
20Parsing a group of options: global .                                                                                               
21Applying option y (overwrite output files) with argument 1.                                                                         
22Applying option debug_ts (print timestamp debugging info) with argument 1.                                                         
23Successfully parsed a group of options.                                                                                             
24Parsing a group of options: input file rtsp://195.72.223.6:555/axis-media/media.amp?streamprofile=streaming_720&camera=1.           
25Successfully parsed a group of options.                                                                                             
26Opening an input file: rtsp://195.72.223.6:555/axis-media/media.amp?streamprofile=streaming_720&camera=1.                           
27[rtsp @ 0x2962220] SDP:                                                                                                             
28v=0                                                                                                                                 
29o=- 1365527934162697 1365527934162697 IN IP4 195.72.223.6                                                                           
30s=Media Presentation                                                                                                               
31e=NONE                                                                                                                             
32b=AS:50032                                                                                                                         
33t=0 0                                                                                                                               
34a=control:rtsp://195.72.223.6:555/axis-media/media.amp?streamprofile=streaming_720&camera=1                                         
35a=range:npt=0.000000-                                                                                                               
36m=video 0 RTP/AVP 96                                                                                                               
37c=IN IP4 0.0.0.0                                                                                                                   
38b=AS:50000                                                                                                                         
39a=framerate:30.0                                                                                                                   
40a=transform:-1,0,0;0,-1,0;0,0,1                                                                                                     
41a=control:rtsp://195.72.223.6:555/axis-media/media.amp/trackID=1?streamprofile=streaming_720&camera=1                               
42a=rtpmap:96 H264/90000                                                                                                             
43a=fmtp:96 packetization-mode=1; profile-level-id=420029; sprop-parameter-sets=Z0IAKeKQCgC3YC3AQEBpB4kRUA==,aM48gA==                 
44m=audio 0 RTP/AVP 97                                                                                                               
45c=IN IP4 0.0.0.0                                                                                                                   
46b=AS:32                                                                                                                             
47a=control:rtsp://195.72.223.6:555/axis-media/media.amp/trackID=2?streamprofile=streaming_720&camera=1                               
48a=rtpmap:97 mpeg4-generic/16000/1                                                                                                   
49a=fmtp:97 streamtype=5; profile-level-id=15; mode=AAC-hbr; config=1408; sizeLength=13; indexLength=3; indexDeltaLength=3; profile=1; bitrate=32000;                                                                                                                     
50
51[rtsp @ 0x2962220] video codec set to: h264                                                                                         
52[NULL @ 0x2964dc0] RTP Packetization Mode: 1                                                                                       
53[NULL @ 0x2964dc0] RTP Profile IDC: 42 Profile IOP: 0 Level: 29                                                                     
54[NULL @ 0x2964dc0] Extradata set to 0x2962880 (size: 31)!                                                                           
55[rtsp @ 0x2962220] audio codec set to: aac                                                                                         
56[rtsp @ 0x2962220] audio samplerate set to: 16000                                                                                   
57[rtsp @ 0x2962220] audio channels set to: 1                                                                                         
58[rtsp @ 0x2962220] hello state=0                                                                                                   
59[rtsp @ 0x2962220] All info found                                                                                                   
60rfps: 29.333333 0.016989                                                                                                           
61rfps: 29.416667 0.013071                                                                                                           
62rfps: 29.500000 0.009667                                                                                                           
63    Last message repeated 1 times
64rfps: 29.583333 0.006775
65    Last message repeated 1 times
66rfps: 29.666667 0.004395
67    Last message repeated 1 times
68rfps: 29.750000 0.002529
69    Last message repeated 1 times
70rfps: 29.833333 0.001175
71    Last message repeated 1 times
72rfps: 29.916667 0.000334
73    Last message repeated 1 times
74rfps: 30.000000 0.000005
75    Last message repeated 1 times
76rfps: 30.083333 0.000189
77    Last message repeated 1 times
78rfps: 30.166667 0.000886
79    Last message repeated 1 times
80rfps: 30.250000 0.002096
81    Last message repeated 1 times
82rfps: 30.333333 0.003818
83    Last message repeated 1 times
84rfps: 30.416667 0.006054
85    Last message repeated 1 times
86rfps: 30.500000 0.008801
87    Last message repeated 1 times
88rfps: 30.583333 0.012062
89rfps: 30.666667 0.015835                                                                                                           
90rfps: 59.333333 0.017581                                                                                                           
91rfps: 59.416667 0.013591                                                                                                           
92rfps: 59.500000 0.010114                                                                                                           
93    Last message repeated 1 times
94rfps: 59.583333 0.007150
95    Last message repeated 1 times
96rfps: 59.666667 0.004699
97    Last message repeated 1 times
98rfps: 59.750000 0.002760
99    Last message repeated 1 times
100rfps: 59.833333 0.001334
101    Last message repeated 1 times
102rfps: 59.916667 0.000421
103    Last message repeated 1 times
104rfps: 60.000000 0.000020
105    Last message repeated 1 times
106rfps: 29.970030 0.000064
107    Last message repeated 1 times
108rfps: 59.940060 0.000257
109    Last message repeated 1 times
110Input #0, rtsp, from 'rtsp://195.72.223.6:555/axis-media/media.amp?streamprofile=streaming_720&camera=1':
111  Metadata:
112    title           : Media Presentation
113  Duration: N/A, start: 0.035875, bitrate: N/A
114    Stream #0:0, 28, 1/90000: Video: h264 (Baseline), yuvj420p, 1280x720 [SAR 1:1 DAR 16:9], 1/180000, 30 tbr, 90k tbn, 180k tbc
115    Stream #0:1, 14, 1/16000: Audio: aac, 16000 Hz, mono, fltp
116Successfully opened the file.
117Parsing a group of options: output file a.ts.                                                                                       
118Applying option vcodec (force video codec ('copy' to copy stream)) with argument copy.                                             
119Applying option acodec (force audio codec ('copy' to copy stream)) with argument copy.                                             
120Applying option vbsf (deprecated) with argument h264_mp4toannexb.                                                                   
121Successfully parsed a group of options.                                                                                             
122Opening an output file: a.ts.                                                                                                       
123Successfully opened the file.                                                                                                       
124[mpegts @ 0x2968940] muxrate VBR, pcr every 9000 pkts, sdt every 200, pat/pmt every 40 pkts                                         
125Output #0, mpegts, to 'a.ts':
126  Metadata:
127    title           : Media Presentation
128    encoder         : Lavf55.1.100
129    Stream #0:0, 0, 1/90000: Video: h264, yuvj420p, 1280x720 [SAR 1:1 DAR 16:9], 1/90000, q=2-31, 90k tbn, 90k tbc
130    Stream #0:1, 0, 1/90000: Audio: aac, 16000 Hz, mono
131Stream mapping:
132  Stream #0:0 -> #0:0 (copy)
133  Stream #0:1 -> #0:1 (copy)
134Press [q] to stop, [?] for help
135demuxer -> ist_index:1 type:audio next_dts:NOPTS next_dts_time:NOPTS next_pts:NOPTS next_pts_time:NOPTS pkt_pts:574 pkt_pts_time:0.035875 pkt_dts:574 pkt_dts_time:0.035875 off:-35875 off_time:-0.035875
136demuxer+ffmpeg -> ist_index:1 type:audio pkt_pts:0 pkt_pts_time:0 pkt_dts:0 pkt_dts_time:0 off:-35875 off_time:-0.035875
137muxer <- type:audio pkt_pts:0 pkt_pts_time:0 pkt_dts:0 pkt_dts_time:0 size:251
138demuxer -> ist_index:0 type:video next_dts:NOPTS next_dts_time:NOPTS next_pts:NOPTS next_pts_time:NOPTS pkt_pts:NOPTS pkt_pts_time:NOPTS pkt_dts:NOPTS pkt_dts_time:NOPTS off:-35875 off_time:-0.035875
139demuxer+ffmpeg -> ist_index:0 type:video pkt_pts:NOPTS pkt_pts_time:NOPTS pkt_dts:NOPTS pkt_dts_time:NOPTS off:-35875 off_time:-0.035875
140Failed to open bitstream filter h264_mp4toannexb for stream 0 with codec copy: Invalid argument
141muxer <- type:video pkt_pts:NOPTS pkt_pts_time:NOPTS pkt_dts:0 pkt_dts_time:0 size:24986
142demuxer -> ist_index:0 type:video next_dts:11 next_dts_time:1.1e-05 next_pts:11 next_pts_time:1.1e-05 pkt_pts:5998 pkt_pts_time:0.0666444 pkt_dts:5998 pkt_dts_time:0.0666444 off:-35875 off_time:-0.035875
143demuxer+ffmpeg -> ist_index:0 type:video pkt_pts:2769 pkt_pts_time:0.0307667 pkt_dts:2769 pkt_dts_time:0.0307667 off:-35875 off_time:-0.035875
144Failed to open bitstream filter h264_mp4toannexb for stream 0 with codec copy: Invalid argument
145muxer <- type:video pkt_pts:2769 pkt_pts_time:0.0307667 pkt_dts:2769 pkt_dts_time:0.0307667 size:955
146[adts @ 0x2986b80] Encoder did not produce proper pts, making some up.
147demuxer -> ist_index:0 type:video next_dts:30778 next_dts_time:0.030778 next_pts:30778 next_pts_time:0.030778 pkt_pts:8997 pkt_pts_time:0.0999667 pkt_dts:8997 pkt_dts_time:0.0999667 off:-35875 off_time:-0.035875
148demuxer+ffmpeg -> ist_index:0 type:video pkt_pts:5768 pkt_pts_time:0.0640889 pkt_dts:5768 pkt_dts_time:0.0640889 off:-35875 off_time:-0.035875
149Failed to open bitstream filter h264_mp4toannexb for stream 0 with codec copy: Invalid argument
150muxer <- type:video pkt_pts:5768 pkt_pts_time:0.0640889 pkt_dts:5768 pkt_dts_time:0.0640889 size:294
151demuxer -> ist_index:1 type:audio next_dts:64000 next_dts_time:0.064 next_pts:64000 next_pts_time:0.064 pkt_pts:1598 pkt_pts_time:0.099875 pkt_dts:1598 pkt_dts_time:0.099875 off:-35875 off_time:-0.035875
152demuxer+ffmpeg -> ist_index:1 type:audio pkt_pts:1024 pkt_pts_time:0.064 pkt_dts:1024 pkt_dts_time:0.064 off:-35875 off_time:-0.035875
153muxer <- type:audio pkt_pts:5760 pkt_pts_time:0.064 pkt_dts:5760 pkt_dts_time:0.064 size:247
154demuxer -> ist_index:1 type:audio next_dts:128000 next_dts_time:0.128 next_pts:128000 next_pts_time:0.128 pkt_pts:2622 pkt_pts_time:0.163875 pkt_dts:2622 pkt_dts_time:0.163875 off:-35875 off_time:-0.035875
155demuxer+ffmpeg -> ist_index:1 type:audio pkt_pts:2048 pkt_pts_time:0.128 pkt_dts:2048 pkt_dts_time:0.128 off:-35875 off_time:-0.035875
156muxer <- type:audio pkt_pts:11520 pkt_pts_time:0.128 pkt_dts:11520 pkt_dts_time:0.128 size:249
157demuxer -> ist_index:0 type:video next_dts:64100 next_dts_time:0.0641 next_pts:64100 next_pts_time:0.0641 pkt_pts:11996 pkt_pts_time:0.133289 pkt_dts:11996 pkt_dts_time:0.133289 off:-35875 off_time:-0.035875
158demuxer+ffmpeg -> ist_index:0 type:video pkt_pts:8767 pkt_pts_time:0.0974111 pkt_dts:8767 pkt_dts_time:0.0974111 off:-35875 off_time:-0.035875
159Failed to open bitstream filter h264_mp4toannexb for stream 0 with codec copy: Invalid argument
160muxer <- type:video pkt_pts:8767 pkt_pts_time:0.0974111 pkt_dts:8767 pkt_dts_time:0.0974111 size:171
161demuxer -> ist_index:0 type:video next_dts:97422 next_dts_time:0.097422 next_pts:97422 next_pts_time:0.097422 pkt_pts:14995 pkt_pts_time:0.166611 pkt_dts:14995 pkt_dts_time:0.166611 off:-35875 off_time:-0.035875
162demuxer+ffmpeg -> ist_index:0 type:video pkt_pts:11766 pkt_pts_time:0.130733 pkt_dts:11766 pkt_dts_time:0.130733 off:-35875 off_time:-0.035875
163Failed to open bitstream filter h264_mp4toannexb for stream 0 with codec copy: Invalid argument
164muxer <- type:video pkt_pts:11766 pkt_pts_time:0.130733 pkt_dts:11766 pkt_dts_time:0.130733 size:159
165demuxer -> ist_index:0 type:video next_dts:130744 next_dts_time:0.130744 next_pts:130744 next_pts_time:0.130744 pkt_pts:17993 pkt_pts_time:0.199922 pkt_dts:17993 pkt_dts_time:0.199922 off:-35875 off_time:-0.035875
166demuxer+ffmpeg -> ist_index:0 type:video pkt_pts:14764 pkt_pts_time:0.164044 pkt_dts:14764 pkt_dts_time:0.164044 off:-35875 off_time:-0.035875
167Failed to open bitstream filter h264_mp4toannexb for stream 0 with codec copy: Invalid argument
168muxer <- type:video pkt_pts:14764 pkt_pts_time:0.164044 pkt_dts:14764 pkt_dts_time:0.164044 size:178
169demuxer -> ist_index:0 type:video next_dts:164055 next_dts_time:0.164055 next_pts:164055 next_pts_time:0.164055 pkt_pts:20992 pkt_pts_time:0.233244 pkt_dts:20992 pkt_dts_time:0.233244 off:-35875 off_time:-0.035875
170demuxer+ffmpeg -> ist_index:0 type:video pkt_pts:17763 pkt_pts_time:0.197367 pkt_dts:17763 pkt_dts_time:0.197367 off:-35875 off_time:-0.035875
171Failed to open bitstream filter h264_mp4toannexb for stream 0 with codec copy: Invalid argument
172muxer <- type:video pkt_pts:17763 pkt_pts_time:0.197367 pkt_dts:17763 pkt_dts_time:0.197367 size:143
173demuxer -> ist_index:1 type:audio next_dts:192000 next_dts_time:0.192 next_pts:192000 next_pts_time:0.192 pkt_pts:3646 pkt_pts_time:0.227875 pkt_dts:3646 pkt_dts_time:0.227875 off:-35875 off_time:-0.035875
174demuxer+ffmpeg -> ist_index:1 type:audio pkt_pts:3072 pkt_pts_time:0.192 pkt_dts:3072 pkt_dts_time:0.192 off:-35875 off_time:-0.035875
175muxer <- type:audio pkt_pts:17280 pkt_pts_time:0.192 pkt_dts:17280 pkt_dts_time:0.192 size:249
176demuxer -> ist_index:0 type:video next_dts:197378 next_dts_time:0.197378 next_pts:197378 next_pts_time:0.197378 pkt_pts:23991 pkt_pts_time:0.266567 pkt_dts:23991 pkt_dts_time:0.266567 off:-35875 off_time:-0.035875
177demuxer+ffmpeg -> ist_index:0 type:video pkt_pts:20762 pkt_pts_time:0.230689 pkt_dts:20762 pkt_dts_time:0.230689 off:-35875 off_time:-0.035875
178Failed to open bitstream filter h264_mp4toannexb for stream 0 with codec copy: Invalid argument
179muxer <- type:video pkt_pts:20762 pkt_pts_time:0.230689 pkt_dts:20762 pkt_dts_time:0.230689 size:135
180demuxer -> ist_index:0 type:video next_dts:230700 next_dts_time:0.2307 next_pts:230700 next_pts_time:0.2307 pkt_pts:26991 pkt_pts_time:0.2999 pkt_dts:26991 pkt_dts_time:0.2999 off:-35875 off_time:-0.035875
181demuxer+ffmpeg -> ist_index:0 type:video pkt_pts:23762 pkt_pts_time:0.264022 pkt_dts:23762 pkt_dts_time:0.264022 off:-35875 off_time:-0.035875
182Failed to open bitstream filter h264_mp4toannexb for stream 0 with codec copy: Invalid argument
183muxer <- type:video pkt_pts:23762 pkt_pts_time:0.264022 pkt_dts:23762 pkt_dts_time:0.264022 size:131
184demuxer -> ist_index:1 type:audio next_dts:256000 next_dts_time:0.256 next_pts:256000 next_pts_time:0.256 pkt_pts:4545 pkt_pts_time:0.284062 pkt_dts:4545 pkt_dts_time:0.284062 off:-35875 off_time:-0.035875
185demuxer+ffmpeg -> ist_index:1 type:audio pkt_pts:3971 pkt_pts_time:0.248188 pkt_dts:3971 pkt_dts_time:0.248188 off:-35875 off_time:-0.035875
186muxer <- type:audio pkt_pts:22337 pkt_pts_time:0.248189 pkt_dts:22337 pkt_dts_time:0.248189 size:250
187demuxer -> ist_index:0 type:video next_dts:264033 next_dts_time:0.264033 next_pts:264033 next_pts_time:0.264033 pkt_pts:29989 pkt_pts_time:0.333211 pkt_dts:29989 pkt_dts_time:0.333211 off:-35875 off_time:-0.035875
188demuxer+ffmpeg -> ist_index:0 type:video pkt_pts:26760 pkt_pts_time:0.297333 pkt_dts:26760 pkt_dts_time:0.297333 off:-35875 off_time:-0.035875
189Failed to open bitstream filter h264_mp4toannexb for stream 0 with codec copy: Invalid argument
190muxer <- type:video pkt_pts:26760 pkt_pts_time:0.297333 pkt_dts:26760 pkt_dts_time:0.297333 size:114
191demuxer -> ist_index:0 type:video next_dts:297344 next_dts_time:0.297344 next_pts:297344 next_pts_time:0.297344 pkt_pts:32987 pkt_pts_time:0.366522 pkt_dts:32987 pkt_dts_time:0.366522 off:-35875 off_time:-0.035875
192demuxer+ffmpeg -> ist_index:0 type:video pkt_pts:29758 pkt_pts_time:0.330644 pkt_dts:29758 pkt_dts_time:0.330644 off:-35875 off_time:-0.035875
193Failed to open bitstream filter h264_mp4toannexb for stream 0 with codec copy: Invalid argument
194muxer <- type:video pkt_pts:29758 pkt_pts_time:0.330644 pkt_dts:29758 pkt_dts_time:0.330644 size:122
195demuxer -> ist_index:1 type:audio next_dts:312188 next_dts_time:0.312188 next_pts:312188 next_pts_time:0.312188 pkt_pts:5694 pkt_pts_time:0.355875 pkt_dts:5694 pkt_dts_time:0.355875 off:-35875 off_time:-0.035875
196demuxer+ffmpeg -> ist_index:1 type:audio pkt_pts:5120 pkt_pts_time:0.32 pkt_dts:5120 pkt_dts_time:0.32 off:-35875 off_time:-0.035875
197muxer <- type:audio pkt_pts:28800 pkt_pts_time:0.32 pkt_dts:28800 pkt_dts_time:0.32 size:248
198demuxer -> ist_index:0 type:video next_dts:330655 next_dts_time:0.330655 next_pts:330655 next_pts_time:0.330655 pkt_pts:35986 pkt_pts_time:0.399844 pkt_dts:35986 pkt_dts_time:0.399844 off:-35875 off_time:-0.035875
199demuxer+ffmpeg -> ist_index:0 type:video pkt_pts:32757 pkt_pts_time:0.363967 pkt_dts:32757 pkt_dts_time:0.363967 off:-35875 off_time:-0.035875
200Failed to open bitstream filter h264_mp4toannexb for stream 0 with codec copy: Invalid argument
201muxer <- type:video pkt_pts:32757 pkt_pts_time:0.363967 pkt_dts:32757 pkt_dts_time:0.363967 size:134
202demuxer -> ist_index:0 type:video next_dts:363978 next_dts_time:0.363978 next_pts:363978 next_pts_time:0.363978 pkt_pts:38986 pkt_pts_time:0.433178 pkt_dts:38986 pkt_dts_time:0.433178 off:-35875 off_time:-0.035875
203demuxer+ffmpeg -> ist_index:0 type:video pkt_pts:35757 pkt_pts_time:0.3973 pkt_dts:35757 pkt_dts_time:0.3973 off:-35875 off_time:-0.035875
204Failed to open bitstream filter h264_mp4toannexb for stream 0 with codec copy: Invalid argument
205muxer <- type:video pkt_pts:35757 pkt_pts_time:0.3973 pkt_dts:35757 pkt_dts_time:0.3973 size:105
206demuxer -> ist_index:1 type:audio next_dts:384000 next_dts_time:0.384 next_pts:384000 next_pts_time:0.384 pkt_pts:6718 pkt_pts_time:0.419875 pkt_dts:6718 pkt_dts_time:0.419875 off:-35875 off_time:-0.035875
207demuxer+ffmpeg -> ist_index:1 type:audio pkt_pts:6144 pkt_pts_time:0.384 pkt_dts:6144 pkt_dts_time:0.384 off:-35875 off_time:-0.035875
208muxer <- type:audio pkt_pts:34560 pkt_pts_time:0.384 pkt_dts:34560 pkt_dts_time:0.384 size:249
209demuxer -> ist_index:0 type:video next_dts:397311 next_dts_time:0.397311 next_pts:397311 next_pts_time:0.397311 pkt_pts:41984 pkt_pts_time:0.466489 pkt_dts:41984 pkt_dts_time:0.466489 off:-35875 off_time:-0.035875
210demuxer+ffmpeg -> ist_index:0 type:video pkt_pts:38755 pkt_pts_time:0.430611 pkt_dts:38755 pkt_dts_time:0.430611 off:-35875 off_time:-0.035875
211Failed to open bitstream filter h264_mp4toannexb for stream 0 with codec copy: Invalid argument
212muxer <- type:video pkt_pts:38755 pkt_pts_time:0.430611 pkt_dts:38755 pkt_dts_time:0.430611 size:99
213demuxer -> ist_index:0 type:video next_dts:430622 next_dts_time:0.430622 next_pts:430622 next_pts_time:0.430622 pkt_pts:44983 pkt_pts_time:0.499811 pkt_dts:44983 pkt_dts_time:0.499811 off:-35875 off_time:-0.035875
214demuxer+ffmpeg -> ist_index:0 type:video pkt_pts:41754 pkt_pts_time:0.463933 pkt_dts:41754 pkt_dts_time:0.463933 off:-35875 off_time:-0.035875
215Failed to open bitstream filter h264_mp4toannexb for stream 0 with codec copy: Invalid argument
216muxer <- type:video pkt_pts:41754 pkt_pts_time:0.463933 pkt_dts:41754 pkt_dts_time:0.463933 size:115
217demuxer -> ist_index:1 type:audio next_dts:448000 next_dts_time:0.448 next_pts:448000 next_pts_time:0.448 pkt_pts:7742 pkt_pts_time:0.483875 pkt_dts:7742 pkt_dts_time:0.483875 off:-35875 off_time:-0.035875
218demuxer+ffmpeg -> ist_index:1 type:audio pkt_pts:7168 pkt_pts_time:0.448 pkt_dts:7168 pkt_dts_time:0.448 off:-35875 off_time:-0.035875
219muxer <- type:audio pkt_pts:40320 pkt_pts_time:0.448 pkt_dts:40320 pkt_dts_time:0.448 size:252
220demuxer -> ist_index:0 type:video next_dts:463944 next_dts_time:0.463944 next_pts:463944 next_pts_time:0.463944 pkt_pts:47982 pkt_pts_time:0.533133 pkt_dts:47982 pkt_dts_time:0.533133 off:-35875 off_time:-0.035875
221demuxer+ffmpeg -> ist_index:0 type:video pkt_pts:44753 pkt_pts_time:0.497256 pkt_dts:44753 pkt_dts_time:0.497256 off:-35875 off_time:-0.035875
222Failed to open bitstream filter h264_mp4toannexb for stream 0 with codec copy: Invalid argument
223muxer <- type:video pkt_pts:44753 pkt_pts_time:0.497256 pkt_dts:44753 pkt_dts_time:0.497256 size:103
224demuxer -> ist_index:0 type:video next_dts:497267 next_dts_time:0.497267 next_pts:497267 next_pts_time:0.497267 pkt_pts:50981 pkt_pts_time:0.566456 pkt_dts:50981 pkt_dts_time:0.566456 off:-35875 off_time:-0.035875
225demuxer+ffmpeg -> ist_index:0 type:video pkt_pts:47752 pkt_pts_time:0.530578 pkt_dts:47752 pkt_dts_time:0.530578 off:-35875 off_time:-0.035875
226Failed to open bitstream filter h264_mp4toannexb for stream 0 with codec copy: Invalid argument
227muxer <- type:video pkt_pts:47752 pkt_pts_time:0.530578 pkt_dts:47752 pkt_dts_time:0.530578 size:109
228demuxer -> ist_index:1 type:audio next_dts:512000 next_dts_time:0.512 next_pts:512000 next_pts_time:0.512 pkt_pts:8638 pkt_pts_time:0.539875 pkt_dts:8638 pkt_dts_time:0.539875 off:-35875 off_time:-0.035875
229demuxer+ffmpeg -> ist_index:1 type:audio pkt_pts:8064 pkt_pts_time:0.504 pkt_dts:8064 pkt_dts_time:0.504 off:-35875 off_time:-0.035875
230muxer <- type:audio pkt_pts:45360 pkt_pts_time:0.504 pkt_dts:45360 pkt_dts_time:0.504 size:246
231demuxer -> ist_index:0 type:video next_dts:530589 next_dts_time:0.530589 next_pts:530589 next_pts_time:0.530589 pkt_pts:53980 pkt_pts_time:0.599778 pkt_dts:53980 pkt_dts_time:0.599778 off:-35875 off_time:-0.035875
232demuxer+ffmpeg -> ist_index:0 type:video pkt_pts:50751 pkt_pts_time:0.5639 pkt_dts:50751 pkt_dts_time:0.5639 off:-35875 off_time:-0.035875
233Failed to open bitstream filter h264_mp4toannexb for stream 0 with codec copy: Invalid argument
234muxer <- type:video pkt_pts:50751 pkt_pts_time:0.5639 pkt_dts:50751 pkt_dts_time:0.5639 size:96
235demuxer -> ist_index:0 type:video next_dts:563911 next_dts_time:0.563911 next_pts:563911 next_pts_time:0.563911 pkt_pts:56978 pkt_pts_time:0.633089 pkt_dts:56978 pkt_dts_time:0.633089 off:-35875 off_time:-0.035875
236demuxer+ffmpeg -> ist_index:0 type:video pkt_pts:53749 pkt_pts_time:0.597211 pkt_dts:53749 pkt_dts_time:0.597211 off:-35875 off_time:-0.035875
237Failed to open bitstream filter h264_mp4toannexb for stream 0 with codec copy: Invalid argument
238muxer <- type:video pkt_pts:53749 pkt_pts_time:0.597211 pkt_dts:53749 pkt_dts_time:0.597211 size:100
239demuxer -> ist_index:1 type:audio next_dts:568000 next_dts_time:0.568 next_pts:568000 next_pts_time:0.568 pkt_pts:9790 pkt_pts_time:0.611875 pkt_dts:9790 pkt_dts_time:0.611875 off:-35875 off_time:-0.035875
240demuxer+ffmpeg -> ist_index:1 type:audio pkt_pts:9216 pkt_pts_time:0.576 pkt_dts:9216 pkt_dts_time:0.576 off:-35875 off_time:-0.035875
241muxer <- type:audio pkt_pts:51840 pkt_pts_time:0.576 pkt_dts:51840 pkt_dts_time:0.576 size:250
242demuxer -> ist_index:0 type:video next_dts:597222 next_dts_time:0.597222 next_pts:597222 next_pts_time:0.597222 pkt_pts:59977 pkt_pts_time:0.666411 pkt_dts:59977 pkt_dts_time:0.666411 off:-35875 off_time:-0.035875
243demuxer+ffmpeg -> ist_index:0 type:video pkt_pts:56748 pkt_pts_time:0.630533 pkt_dts:56748 pkt_dts_time:0.630533 off:-35875 off_time:-0.035875
244Failed to open bitstream filter h264_mp4toannexb for stream 0 with codec copy: Invalid argument
245muxer <- type:video pkt_pts:56748 pkt_pts_time:0.630533 pkt_dts:56748 pkt_dts_time:0.630533 size:112
246demuxer -> ist_index:1 type:audio next_dts:640000 next_dts_time:0.64 next_pts:640000 next_pts_time:0.64 pkt_pts:10814 pkt_pts_time:0.675875 pkt_dts:10814 pkt_dts_time:0.675875 off:-35875 off_time:-0.035875
247demuxer+ffmpeg -> ist_index:1 type:audio pkt_pts:10240 pkt_pts_time:0.64 pkt_dts:10240 pkt_dts_time:0.64 off:-35875 off_time:-0.035875
248muxer <- type:audio pkt_pts:57600 pkt_pts_time:0.64 pkt_dts:57600 pkt_dts_time:0.64 size:248
249demuxer -> ist_index:0 type:video next_dts:630544 next_dts_time:0.630544 next_pts:630544 next_pts_time:0.630544 pkt_pts:62976 pkt_pts_time:0.699733 pkt_dts:62976 pkt_dts_time:0.699733 off:-35875 off_time:-0.035875
250demuxer+ffmpeg -> ist_index:0 type:video pkt_pts:59747 pkt_pts_time:0.663856 pkt_dts:59747 pkt_dts_time:0.663856 off:-35875 off_time:-0.035875
251Failed to open bitstream filter h264_mp4toannexb for stream 0 with codec copy: Invalid argument
252muxer <- type:video pkt_pts:59747 pkt_pts_time:0.663856 pkt_dts:59747 pkt_dts_time:0.663856 size:110
253demuxer -> ist_index:0 type:video next_dts:663867 next_dts_time:0.663867 next_pts:663867 next_pts_time:0.663867 pkt_pts:65975 pkt_pts_time:0.733056 pkt_dts:65975 pkt_dts_time:0.733056 off:-35875 off_time:-0.035875
254demuxer+ffmpeg -> ist_index:0 type:video pkt_pts:62746 pkt_pts_time:0.697178 pkt_dts:62746 pkt_dts_time:0.697178 off:-35875 off_time:-0.035875
255Failed to open bitstream filter h264_mp4toannexb for stream 0 with codec copy: Invalid argument
256muxer <- type:video pkt_pts:62746 pkt_pts_time:0.697178 pkt_dts:62746 pkt_dts_time:0.697178 size:76
257demuxer -> ist_index:1 type:audio next_dts:704000 next_dts_time:0.704 next_pts:704000 next_pts_time:0.704 pkt_pts:11838 pkt_pts_time:0.739875 pkt_dts:11838 pkt_dts_time:0.739875 off:-35875 off_time:-0.035875
258demuxer+ffmpeg -> ist_index:1 type:audio pkt_pts:11264 pkt_pts_time:0.704 pkt_dts:11264 pkt_dts_time:0.704 off:-35875 off_time:-0.035875
259muxer <- type:audio pkt_pts:63360 pkt_pts_time:0.704 pkt_dts:63360 pkt_dts_time:0.704 size:249
260demuxer -> ist_index:0 type:video next_dts:697189 next_dts_time:0.697189 next_pts:697189 next_pts_time:0.697189 pkt_pts:68974 pkt_pts_time:0.766378 pkt_dts:68974 pkt_dts_time:0.766378 off:-35875 off_time:-0.035875
261demuxer+ffmpeg -> ist_index:0 type:video pkt_pts:65745 pkt_pts_time:0.7305 pkt_dts:65745 pkt_dts_time:0.7305 off:-35875 off_time:-0.035875
262Failed to open bitstream filter h264_mp4toannexb for stream 0 with codec copy: Invalid argument
263muxer <- type:video pkt_pts:65745 pkt_pts_time:0.7305 pkt_dts:65745 pkt_dts_time:0.7305 size:96
264demuxer -> ist_index:0 type:video next_dts:730511 next_dts_time:0.730511 next_pts:730511 next_pts_time:0.730511 pkt_pts:71972 pkt_pts_time:0.799689 pkt_dts:71972 pkt_dts_time:0.799689 off:-35875 off_time:-0.035875
265demuxer+ffmpeg -> ist_index:0 type:video pkt_pts:68743 pkt_pts_time:0.763811 pkt_dts:68743 pkt_dts_time:0.763811 off:-35875 off_time:-0.035875
266Failed to open bitstream filter h264_mp4toannexb for stream 0 with codec copy: Invalid argument
267muxer <- type:video pkt_pts:68743 pkt_pts_time:0.763811 pkt_dts:68743 pkt_dts_time:0.763811 size:81
268demuxer -> ist_index:1 type:audio next_dts:768000 next_dts_time:0.768 next_pts:768000 next_pts_time:0.768 pkt_pts:12862 pkt_pts_time:0.803875 pkt_dts:12862 pkt_dts_time:0.803875 off:-35875 off_time:-0.035875
269demuxer+ffmpeg -> ist_index:1 type:audio pkt_pts:12288 pkt_pts_time:0.768 pkt_dts:12288 pkt_dts_time:0.768 off:-35875 off_time:-0.035875
270muxer <- type:audio pkt_pts:69120 pkt_pts_time:0.768 pkt_dts:69120 pkt_dts_time:0.768 size:249
271demuxer -> ist_index:0 type:video next_dts:763822 next_dts_time:0.763822 next_pts:763822 next_pts_time:0.763822 pkt_pts:74972 pkt_pts_time:0.833022 pkt_dts:74972 pkt_dts_time:0.833022 off:-35875 off_time:-0.035875
272demuxer+ffmpeg -> ist_index:0 type:video pkt_pts:71743 pkt_pts_time:0.797144 pkt_dts:71743 pkt_dts_time:0.797144 off:-35875 off_time:-0.035875
273Failed to open bitstream filter h264_mp4toannexb for stream 0 with codec copy: Invalid argument
274muxer <- type:video pkt_pts:71743 pkt_pts_time:0.797144 pkt_dts:71743 pkt_dts_time:0.797144 size:72
275demuxer -> ist_index:0 type:video next_dts:797155 next_dts_time:0.797155 next_pts:797155 next_pts_time:0.797155 pkt_pts:77970 pkt_pts_time:0.866333 pkt_dts:77970 pkt_dts_time:0.866333 off:-35875 off_time:-0.035875
276demuxer+ffmpeg -> ist_index:0 type:video pkt_pts:74741 pkt_pts_time:0.830456 pkt_dts:74741 pkt_dts_time:0.830456 off:-35875 off_time:-0.035875
277Failed to open bitstream filter h264_mp4toannexb for stream 0 with codec copy: Invalid argument
278muxer <- type:video pkt_pts:74741 pkt_pts_time:0.830456 pkt_dts:74741 pkt_dts_time:0.830456 size:71
279demuxer -> ist_index:1 type:audio next_dts:832000 next_dts_time:0.832 next_pts:832000 next_pts_time:0.832 pkt_pts:13886 pkt_pts_time:0.867875 pkt_dts:13886 pkt_dts_time:0.867875 off:-35875 off_time:-0.035875
280demuxer+ffmpeg -> ist_index:1 type:audio pkt_pts:13312 pkt_pts_time:0.832 pkt_dts:13312 pkt_dts_time:0.832 off:-35875 off_time:-0.035875
281muxer <- type:audio pkt_pts:74880 pkt_pts_time:0.832 pkt_dts:74880 pkt_dts_time:0.832 size:250
282demuxer -> ist_index:0 type:video next_dts:830467 next_dts_time:0.830467 next_pts:830467 next_pts_time:0.830467 pkt_pts:80969 pkt_pts_time:0.899656 pkt_dts:80969 pkt_dts_time:0.899656 off:-35875 off_time:-0.035875
283demuxer+ffmpeg -> ist_index:0 type:video pkt_pts:77740 pkt_pts_time:0.863778 pkt_dts:77740 pkt_dts_time:0.863778 off:-35875 off_time:-0.035875
284Failed to open bitstream filter h264_mp4toannexb for stream 0 with codec copy: Invalid argument
285muxer <- type:video pkt_pts:77740 pkt_pts_time:0.863778 pkt_dts:77740 pkt_dts_time:0.863778 size:84
286demuxer -> ist_index:0 type:video next_dts:863789 next_dts_time:0.863789 next_pts:863789 next_pts_time:0.863789 pkt_pts:83968 pkt_pts_time:0.932978 pkt_dts:83968 pkt_dts_time:0.932978 off:-35875 off_time:-0.035875
287demuxer+ffmpeg -> ist_index:0 type:video pkt_pts:80739 pkt_pts_time:0.8971 pkt_dts:80739 pkt_dts_time:0.8971 off:-35875 off_time:-0.035875
288Failed to open bitstream filter h264_mp4toannexb for stream 0 with codec copy: Invalid argument
289muxer <- type:video pkt_pts:80739 pkt_pts_time:0.8971 pkt_dts:80739 pkt_dts_time:0.8971 size:95
290demuxer -> ist_index:1 type:audio next_dts:896000 next_dts_time:0.896 next_pts:896000 next_pts_time:0.896 pkt_pts:14910 pkt_pts_time:0.931875 pkt_dts:14910 pkt_dts_time:0.931875 off:-35875 off_time:-0.035875
291demuxer+ffmpeg -> ist_index:1 type:audio pkt_pts:14336 pkt_pts_time:0.896 pkt_dts:14336 pkt_dts_time:0.896 off:-35875 off_time:-0.035875
292muxer <- type:audio pkt_pts:80640 pkt_pts_time:0.896 pkt_dts:80640 pkt_dts_time:0.896 size:249
293demuxer -> ist_index:0 type:video next_dts:897111 next_dts_time:0.897111 next_pts:897111 next_pts_time:0.897111 pkt_pts:86967 pkt_pts_time:0.9663 pkt_dts:86967 pkt_dts_time:0.9663 off:-35875 off_time:-0.035875
294demuxer+ffmpeg -> ist_index:0 type:video pkt_pts:83738 pkt_pts_time:0.930422 pkt_dts:83738 pkt_dts_time:0.930422 off:-35875 off_time:-0.035875
295Failed to open bitstream filter h264_mp4toannexb for stream 0 with codec copy: Invalid argument
296muxer <- type:video pkt_pts:83738 pkt_pts_time:0.930422 pkt_dts:83738 pkt_dts_time:0.930422 size:79
297demuxer -> ist_index:0 type:video next_dts:930433 next_dts_time:0.930433 next_pts:930433 next_pts_time:0.930433 pkt_pts:89966 pkt_pts_time:0.999622 pkt_dts:89966 pkt_dts_time:0.999622 off:-35875 off_time:-0.035875
298demuxer+ffmpeg -> ist_index:0 type:video pkt_pts:86737 pkt_pts_time:0.963744 pkt_dts:86737 pkt_dts_time:0.963744 off:-35875 off_time:-0.035875
299Failed to open bitstream filter h264_mp4toannexb for stream 0 with codec copy: Invalid argument
300muxer <- type:video pkt_pts:86737 pkt_pts_time:0.963744 pkt_dts:86737 pkt_dts_time:0.963744 size:70
301demuxer -> ist_index:1 type:audio next_dts:960000 next_dts_time:0.96 next_pts:960000 next_pts_time:0.96 pkt_pts:15934 pkt_pts_time:0.995875 pkt_dts:15934 pkt_dts_time:0.995875 off:-35875 off_time:-0.035875
302demuxer+ffmpeg -> ist_index:1 type:audio pkt_pts:15360 pkt_pts_time:0.96 pkt_dts:15360 pkt_dts_time:0.96 off:-35875 off_time:-0.035875
303muxer <- type:audio pkt_pts:86400 pkt_pts_time:0.96 pkt_dts:86400 pkt_dts_time:0.96 size:249
304demuxer -> ist_index:0 type:video next_dts:963755 next_dts_time:0.963755 next_pts:963755 next_pts_time:0.963755 pkt_pts:92964 pkt_pts_time:1.03293 pkt_dts:92964 pkt_dts_time:1.03293 off:-35875 off_time:-0.035875
305demuxer+ffmpeg -> ist_index:0 type:video pkt_pts:89735 pkt_pts_time:0.997056 pkt_dts:89735 pkt_dts_time:0.997056 off:-35875 off_time:-0.035875
306Failed to open bitstream filter h264_mp4toannexb for stream 0 with codec copy: Invalid argument
307muxer <- type:video pkt_pts:89735 pkt_pts_time:0.997056 pkt_dts:89735 pkt_dts_time:0.997056 size:74
308demuxer -> ist_index:0 type:video next_dts:997067 next_dts_time:0.997067 next_pts:997067 next_pts_time:0.997067 pkt_pts:95964 pkt_pts_time:1.06627 pkt_dts:95964 pkt_dts_time:1.06627 off:-35875 off_time:-0.035875
309demuxer+ffmpeg -> ist_index:0 type:video pkt_pts:92735 pkt_pts_time:1.03039 pkt_dts:92735 pkt_dts_time:1.03039 off:-35875 off_time:-0.035875
310Failed to open bitstream filter h264_mp4toannexb for stream 0 with codec copy: Invalid argument
311muxer <- type:video pkt_pts:92735 pkt_pts_time:1.03039 pkt_dts:92735 pkt_dts_time:1.03039 size:74
312demuxer -> ist_index:0 type:video next_dts:1030400 next_dts_time:1.0304 next_pts:1030400 next_pts_time:1.0304 pkt_pts:98962 pkt_pts_time:1.09958 pkt_dts:98962 pkt_dts_time:1.09958 off:-35875 off_time:-0.035875
313demuxer+ffmpeg -> ist_index:0 type:video pkt_pts:95733 pkt_pts_time:1.0637 pkt_dts:95733 pkt_dts_time:1.0637 off:-35875 off_time:-0.035875
314Failed to open bitstream filter h264_mp4toannexb for stream 0 with codec copy: Invalid argument
315muxer <- type:video pkt_pts:95733 pkt_pts_time:1.0637 pkt_dts:95733 pkt_dts_time:1.0637 size:24992
316demuxer -> ist_index:1 type:audio next_dts:1024000 next_dts_time:1.024 next_pts:1024000 next_pts_time:1.024 pkt_pts:16958 pkt_pts_time:1.05988 pkt_dts:16958 pkt_dts_time:1.05988 off:-35875 off_time:-0.035875
317demuxer+ffmpeg -> ist_index:1 type:audio pkt_pts:16384 pkt_pts_time:1.024 pkt_dts:16384 pkt_dts_time:1.024 off:-35875 off_time:-0.035875
318muxer <- type:audio pkt_pts:92160 pkt_pts_time:1.024 pkt_dts:92160 pkt_dts_time:1.024 size:248
319demuxer -> ist_index:0 type:video next_dts:1063711 next_dts_time:1.06371 next_pts:1063711 next_pts_time:1.06371 pkt_pts:101961 pkt_pts_time:1.1329 pkt_dts:101961 pkt_dts_time:1.1329 off:-35875 off_time:-0.035875
320demuxer+ffmpeg -> ist_index:0 type:video pkt_pts:98732 pkt_pts_time:1.09702 pkt_dts:98732 pkt_dts_time:1.09702 off:-35875 off_time:-0.035875
321Failed to open bitstream filter h264_mp4toannexb for stream 0 with codec copy: Invalid argument
322muxer <- type:video pkt_pts:98732 pkt_pts_time:1.09702 pkt_dts:98732 pkt_dts_time:1.09702 size:906
323demuxer -> ist_index:1 type:audio next_dts:1088000 next_dts_time:1.088 next_pts:1088000 next_pts_time:1.088 pkt_pts:17982 pkt_pts_time:1.12387 pkt_dts:17982 pkt_dts_time:1.12387 off:-35875 off_time:-0.035875
324demuxer+ffmpeg -> ist_index:1 type:audio pkt_pts:17408 pkt_pts_time:1.088 pkt_dts:17408 pkt_dts_time:1.088 off:-35875 off_time:-0.035875
325muxer <- type:audio pkt_pts:97920 pkt_pts_time:1.088 pkt_dts:97920 pkt_dts_time:1.088 size:251
326demuxer -> ist_index:0 type:video next_dts:1097033 next_dts_time:1.09703 next_pts:1097033 next_pts_time:1.09703 pkt_pts:104960 pkt_pts_time:1.16622 pkt_dts:104960 pkt_dts_time:1.16622 off:-35875 off_time:-0.035875
327demuxer+ffmpeg -> ist_index:0 type:video pkt_pts:101731 pkt_pts_time:1.13034 pkt_dts:101731 pkt_dts_time:1.13034 off:-35875 off_time:-0.035875
328Failed to open bitstream filter h264_mp4toannexb for stream 0 with codec copy: Invalid argument
329muxer <- type:video pkt_pts:101731 pkt_pts_time:1.13034 pkt_dts:101731 pkt_dts_time:1.13034 size:303
330demuxer -> ist_index:0 type:video next_dts:1130355 next_dts_time:1.13035 next_pts:1130355 next_pts_time:1.13035 pkt_pts:107959 pkt_pts_time:1.19954 pkt_dts:107959 pkt_dts_time:1.19954 off:-35875 off_time:-0.035875
331demuxer+ffmpeg -> ist_index:0 type:video pkt_pts:104730 pkt_pts_time:1.16367 pkt_dts:104730 pkt_dts_time:1.16367 off:-35875 off_time:-0.035875
332Failed to open bitstream filter h264_mp4toannexb for stream 0 with codec copy: Invalid argument
333muxer <- type:video pkt_pts:104730 pkt_pts_time:1.16367 pkt_dts:104730 pkt_dts_time:1.16367 size:213
334demuxer -> ist_index:1 type:audio next_dts:1152000 next_dts_time:1.152 next_pts:1152000 next_pts_time:1.152 pkt_pts:19006 pkt_pts_time:1.18788 pkt_dts:19006 pkt_dts_time:1.18788 off:-35875 off_time:-0.035875
335demuxer+ffmpeg -> ist_index:1 type:audio pkt_pts:18432 pkt_pts_time:1.152 pkt_dts:18432 pkt_dts_time:1.152 off:-35875 off_time:-0.035875
336muxer <- type:audio pkt_pts:103680 pkt_pts_time:1.152 pkt_dts:103680 pkt_dts_time:1.152 size:248
337demuxer -> ist_index:0 type:video next_dts:1163678 next_dts_time:1.16368 next_pts:1163678 next_pts_time:1.16368 pkt_pts:110958 pkt_pts_time:1.23287 pkt_dts:110958 pkt_dts_time:1.23287 off:-35875 off_time:-0.035875
338demuxer+ffmpeg -> ist_index:0 type:video pkt_pts:107729 pkt_pts_time:1.19699 pkt_dts:107729 pkt_dts_time:1.19699 off:-35875 off_time:-0.035875
339Failed to open bitstream filter h264_mp4toannexb for stream 0 with codec copy: Invalid argument
340muxer <- type:video pkt_pts:107729 pkt_pts_time:1.19699 pkt_dts:107729 pkt_dts_time:1.19699 size:193
341demuxer -> ist_index:0 type:video next_dts:1197000 next_dts_time:1.197 next_pts:1197000 next_pts_time:1.197 pkt_pts:113956 pkt_pts_time:1.26618 pkt_dts:113956 pkt_dts_time:1.26618 off:-35875 off_time:-0.035875
342demuxer+ffmpeg -> ist_index:0 type:video pkt_pts:110727 pkt_pts_time:1.2303 pkt_dts:110727 pkt_dts_time:1.2303 off:-35875 off_time:-0.035875
343Failed to open bitstream filter h264_mp4toannexb for stream 0 with codec copy: Invalid argument
344muxer <- type:video pkt_pts:110727 pkt_pts_time:1.2303 pkt_dts:110727 pkt_dts_time:1.2303 size:160
345demuxer -> ist_index:1 type:audio next_dts:1216000 next_dts_time:1.216 next_pts:1216000 next_pts_time:1.216 pkt_pts:20030 pkt_pts_time:1.25188 pkt_dts:20030 pkt_dts_time:1.25188 off:-35875 off_time:-0.035875
346demuxer+ffmpeg -> ist_index:1 type:audio pkt_pts:19456 pkt_pts_time:1.216 pkt_dts:19456 pkt_dts_time:1.216 off:-35875 off_time:-0.035875
347muxer <- type:audio pkt_pts:109440 pkt_pts_time:1.216 pkt_dts:109440 pkt_dts_time:1.216 size:251
348demuxer -> ist_index:0 type:video next_dts:1230311 next_dts_time:1.23031 next_pts:1230311 next_pts_time:1.23031 pkt_pts:116955 pkt_pts_time:1.2995 pkt_dts:116955 pkt_dts_time:1.2995 off:-35875 off_time:-0.035875
349demuxer+ffmpeg -> ist_index:0 type:video pkt_pts:113726 pkt_pts_time:1.26362 pkt_dts:113726 pkt_dts_time:1.26362 off:-35875 off_time:-0.035875
350Failed to open bitstream filter h264_mp4toannexb for stream 0 with codec copy: Invalid argument
351muxer <- type:video pkt_pts:113726 pkt_pts_time:1.26362 pkt_dts:113726 pkt_dts_time:1.26362 size:168
352demuxer -> ist_index:0 type:video next_dts:1263633 next_dts_time:1.26363 next_pts:1263633 next_pts_time:1.26363 pkt_pts:119954 pkt_pts_time:1.33282 pkt_dts:119954 pkt_dts_time:1.33282 off:-35875 off_time:-0.035875
353demuxer+ffmpeg -> ist_index:0 type:video pkt_pts:116725 pkt_pts_time:1.29694 pkt_dts:116725 pkt_dts_time:1.29694 off:-35875 off_time:-0.035875
354Failed to open bitstream filter h264_mp4toannexb for stream 0 with codec copy: Invalid argument
355muxer <- type:video pkt_pts:116725 pkt_pts_time:1.29694 pkt_dts:116725 pkt_dts_time:1.29694 size:154
356demuxer -> ist_index:1 type:audio next_dts:1280000 next_dts_time:1.28 next_pts:1280000 next_pts_time:1.28 pkt_pts:21054 pkt_pts_time:1.31588 pkt_dts:21054 pkt_dts_time:1.31588 off:-35875 off_time:-0.035875
357demuxer+ffmpeg -> ist_index:1 type:audio pkt_pts:20480 pkt_pts_time:1.28 pkt_dts:20480 pkt_dts_time:1.28 off:-35875 off_time:-0.035875
358muxer <- type:audio pkt_pts:115200 pkt_pts_time:1.28 pkt_dts:115200 pkt_dts_time:1.28 size:247
359demuxer -> ist_index:0 type:video next_dts:1296955 next_dts_time:1.29695 next_pts:1296955 next_pts_time:1.29695 pkt_pts:122953 pkt_pts_time:1.36614 pkt_dts:122953 pkt_dts_time:1.36614 off:-35875 off_time:-0.035875
360demuxer+ffmpeg -> ist_index:0 type:video pkt_pts:119724 pkt_pts_time:1.33027 pkt_dts:119724 pkt_dts_time:1.33027 off:-35875 off_time:-0.035875
361Failed to open bitstream filter h264_mp4toannexb for stream 0 with codec copy: Invalid argument
362muxer <- type:video pkt_pts:119724 pkt_pts_time:1.33027 pkt_dts:119724 pkt_dts_time:1.33027 size:135
363demuxer -> ist_index:0 type:video next_dts:1330278 next_dts_time:1.33028 next_pts:1330278 next_pts_time:1.33028 pkt_pts:125952 pkt_pts_time:1.39947 pkt_dts:125952 pkt_dts_time:1.39947 off:-35875 off_time:-0.035875
364demuxer+ffmpeg -> ist_index:0 type:video pkt_pts:122723 pkt_pts_time:1.36359 pkt_dts:122723 pkt_dts_time:1.36359 off:-35875 off_time:-0.035875
365Failed to open bitstream filter h264_mp4toannexb for stream 0 with codec copy: Invalid argument
366muxer <- type:video pkt_pts:122723 pkt_pts_time:1.36359 pkt_dts:122723 pkt_dts_time:1.36359 size:145
367demuxer -> ist_index:1 type:audio next_dts:1344000 next_dts_time:1.344 next_pts:1344000 next_pts_time:1.344 pkt_pts:22078 pkt_pts_time:1.37987 pkt_dts:22078 pkt_dts_time:1.37987 off:-35875 off_time:-0.035875
368demuxer+ffmpeg -> ist_index:1 type:audio pkt_pts:21504 pkt_pts_time:1.344 pkt_dts:21504 pkt_dts_time:1.344 off:-35875 off_time:-0.035875
369muxer <- type:audio pkt_pts:120960 pkt_pts_time:1.344 pkt_dts:120960 pkt_dts_time:1.344 size:248
370demuxer -> ist_index:0 type:video next_dts:1363600 next_dts_time:1.3636 next_pts:1363600 next_pts_time:1.3636 pkt_pts:128950 pkt_pts_time:1.43278 pkt_dts:128950 pkt_dts_time:1.43278 off:-35875 off_time:-0.035875
371demuxer+ffmpeg -> ist_index:0 type:video pkt_pts:125721 pkt_pts_time:1.3969 pkt_dts:125721 pkt_dts_time:1.3969 off:-35875 off_time:-0.035875
372Failed to open bitstream filter h264_mp4toannexb for stream 0 with codec copy: Invalid argument
373muxer <- type:video pkt_pts:125721 pkt_pts_time:1.3969 pkt_dts:125721 pkt_dts_time:1.3969 size:108
374demuxer -> ist_index:1 type:audio next_dts:1408000 next_dts_time:1.408 next_pts:1408000 next_pts_time:1.408 pkt_pts:23102 pkt_pts_time:1.44388 pkt_dts:23102 pkt_dts_time:1.44388 off:-35875 off_time:-0.035875
375demuxer+ffmpeg -> ist_index:1 type:audio pkt_pts:22528 pkt_pts_time:1.408 pkt_dts:22528 pkt_dts_time:1.408 off:-35875 off_time:-0.035875
376muxer <- type:audio pkt_pts:126720 pkt_pts_time:1.408 pkt_dts:126720 pkt_dts_time:1.408 size:249
377demuxer -> ist_index:0 type:video next_dts:1396911 next_dts_time:1.39691 next_pts:1396911 next_pts_time:1.39691 pkt_pts:131949 pkt_pts_time:1.4661 pkt_dts:131949 pkt_dts_time:1.4661 off:-35875 off_time:-0.035875
378demuxer+ffmpeg -> ist_index:0 type:video pkt_pts:128720 pkt_pts_time:1.43022 pkt_dts:128720 pkt_dts_time:1.43022 off:-35875 off_time:-0.035875
379Failed to open bitstream filter h264_mp4toannexb for stream 0 with codec copy: Invalid argument
380muxer <- type:video pkt_pts:128720 pkt_pts_time:1.43022 pkt_dts:128720 pkt_dts_time:1.43022 size:115
381demuxer -> ist_index:0 type:video next_dts:1430233 next_dts_time:1.43023 next_pts:1430233 next_pts_time:1.43023 pkt_pts:134949 pkt_pts_time:1.49943 pkt_dts:134949 pkt_dts_time:1.49943 off:-35875 off_time:-0.035875
382demuxer+ffmpeg -> ist_index:0 type:video pkt_pts:131720 pkt_pts_time:1.46356 pkt_dts:131720 pkt_dts_time:1.46356 off:-35875 off_time:-0.035875
383Failed to open bitstream filter h264_mp4toannexb for stream 0 with codec copy: Invalid argument
384muxer <- type:video pkt_pts:131720 pkt_pts_time:1.46356 pkt_dts:131720 pkt_dts_time:1.46356 size:110
385demuxer -> ist_index:1 type:audio next_dts:1472000 next_dts_time:1.472 next_pts:1472000 next_pts_time:1.472 pkt_pts:24126 pkt_pts_time:1.50788 pkt_dts:24126 pkt_dts_time:1.50788 off:-35875 off_time:-0.035875
386demuxer+ffmpeg -> ist_index:1 type:audio pkt_pts:23552 pkt_pts_time:1.472 pkt_dts:23552 pkt_dts_time:1.472 off:-35875 off_time:-0.035875
387muxer <- type:audio pkt_pts:132480 pkt_pts_time:1.472 pkt_dts:132480 pkt_dts_time:1.472 size:249
388demuxer -> ist_index:0 type:video next_dts:1463567 next_dts_time:1.46357 next_pts:1463567 next_pts_time:1.46357 pkt_pts:137947 pkt_pts_time:1.53274 pkt_dts:137947 pkt_dts_time:1.53274 off:-35875 off_time:-0.035875
389demuxer+ffmpeg -> ist_index:0 type:video pkt_pts:134718 pkt_pts_time:1.49687 pkt_dts:134718 pkt_dts_time:1.49687 off:-35875 off_time:-0.035875
390Failed to open bitstream filter h264_mp4toannexb for stream 0 with codec copy: Invalid argument
391muxer <- type:video pkt_pts:134718 pkt_pts_time:1.49687 pkt_dts:134718 pkt_dts_time:1.49687 size:110
392demuxer -> ist_index:0 type:video next_dts:1496878 next_dts_time:1.49688 next_pts:1496878 next_pts_time:1.49688 pkt_pts:140946 pkt_pts_time:1.56607 pkt_dts:140946 pkt_dts_time:1.56607 off:-35875 off_time:-0.035875
393demuxer+ffmpeg -> ist_index:0 type:video pkt_pts:137717 pkt_pts_time:1.53019 pkt_dts:137717 pkt_dts_time:1.53019 off:-35875 off_time:-0.035875
394Failed to open bitstream filter h264_mp4toannexb for stream 0 with codec copy: Invalid argument
395muxer <- type:video pkt_pts:137717 pkt_pts_time:1.53019 pkt_dts:137717 pkt_dts_time:1.53019 size:104
396demuxer -> ist_index:1 type:audio next_dts:1536000 next_dts_time:1.536 next_pts:1536000 next_pts_time:1.536 pkt_pts:25150 pkt_pts_time:1.57188 pkt_dts:25150 pkt_dts_time:1.57188 off:-35875 off_time:-0.035875
397demuxer+ffmpeg -> ist_index:1 type:audio pkt_pts:24576 pkt_pts_time:1.536 pkt_dts:24576 pkt_dts_time:1.536 off:-35875 off_time:-0.035875
398muxer <- type:audio pkt_pts:138240 pkt_pts_time:1.536 pkt_dts:138240 pkt_dts_time:1.536 size:249
399demuxer -> ist_index:0 type:video next_dts:1530200 next_dts_time:1.5302 next_pts:1530200 next_pts_time:1.5302 pkt_pts:143945 pkt_pts_time:1.59939 pkt_dts:143945 pkt_dts_time:1.59939 off:-35875 off_time:-0.035875
400demuxer+ffmpeg -> ist_index:0 type:video pkt_pts:140716 pkt_pts_time:1.56351 pkt_dts:140716 pkt_dts_time:1.56351 off:-35875 off_time:-0.035875
401Failed to open bitstream filter h264_mp4toannexb for stream 0 with codec copy: Invalid argument
402muxer <- type:video pkt_pts:140716 pkt_pts_time:1.56351 pkt_dts:140716 pkt_dts_time:1.56351 size:109
403demuxer -> ist_index:0 type:video next_dts:1563522 next_dts_time:1.56352 next_pts:1563522 next_pts_time:1.56352 pkt_pts:146944 pkt_pts_time:1.63271 pkt_dts:146944 pkt_dts_time:1.63271 off:-35875 off_time:-0.035875
404demuxer+ffmpeg -> ist_index:0 type:video pkt_pts:143715 pkt_pts_time:1.59683 pkt_dts:143715 pkt_dts_time:1.59683 off:-35875 off_time:-0.035875
405Failed to open bitstream filter h264_mp4toannexb for stream 0 with codec copy: Invalid argument
406muxer <- type:video pkt_pts:143715 pkt_pts_time:1.59683 pkt_dts:143715 pkt_dts_time:1.59683 size:93
407demuxer -> ist_index:1 type:audio next_dts:1600000 next_dts_time:1.6 next_pts:1600000 next_pts_time:1.6 pkt_pts:26174 pkt_pts_time:1.63587 pkt_dts:26174 pkt_dts_time:1.63587 off:-35875 off_time:-0.035875
408demuxer+ffmpeg -> ist_index:1 type:audio pkt_pts:25600 pkt_pts_time:1.6 pkt_dts:25600 pkt_dts_time:1.6 off:-35875 off_time:-0.035875
409muxer <- type:audio pkt_pts:144000 pkt_pts_time:1.6 pkt_dts:144000 pkt_dts_time:1.6 size:249
410demuxer -> ist_index:0 type:video next_dts:1596844 next_dts_time:1.59684 next_pts:1596844 next_pts_time:1.59684 pkt_pts:149942 pkt_pts_time:1.66602 pkt_dts:149942 pkt_dts_time:1.66602 off:-35875 off_time:-0.035875
411demuxer+ffmpeg -> ist_index:0 type:video pkt_pts:146713 pkt_pts_time:1.63014 pkt_dts:146713 pkt_dts_time:1.63014 off:-35875 off_time:-0.035875
412Failed to open bitstream filter h264_mp4toannexb for stream 0 with codec copy: Invalid argument
413muxer <- type:video pkt_pts:146713 pkt_pts_time:1.63014 pkt_dts:146713 pkt_dts_time:1.63014 size:86
414demuxer -> ist_index:0 type:video next_dts:1630155 next_dts_time:1.63016 next_pts:1630155 next_pts_time:1.63016 pkt_pts:152941 pkt_pts_time:1.69934 pkt_dts:152941 pkt_dts_time:1.69934 off:-35875 off_time:-0.035875
415demuxer+ffmpeg -> ist_index:0 type:video pkt_pts:149712 pkt_pts_time:1.66347 pkt_dts:149712 pkt_dts_time:1.66347 off:-35875 off_time:-0.035875
416Failed to open bitstream filter h264_mp4toannexb for stream 0 with codec copy: Invalid argument
417muxer <- type:video pkt_pts:149712 pkt_pts_time:1.66347 pkt_dts:149712 pkt_dts_time:1.66347 size:117
418demuxer -> ist_index:1 type:audio next_dts:1664000 next_dts_time:1.664 next_pts:1664000 next_pts_time:1.664 pkt_pts:27198 pkt_pts_time:1.69988 pkt_dts:27198 pkt_dts_time:1.69988 off:-35875 off_time:-0.035875
419demuxer+ffmpeg -> ist_index:1 type:audio pkt_pts:26624 pkt_pts_time:1.664 pkt_dts:26624 pkt_dts_time:1.664 off:-35875 off_time:-0.035875
420muxer <- type:audio pkt_pts:149760 pkt_pts_time:1.664 pkt_dts:149760 pkt_dts_time:1.664 size:250
421demuxer -> ist_index:0 type:video next_dts:1663478 next_dts_time:1.66348 next_pts:1663478 next_pts_time:1.66348 pkt_pts:155940 pkt_pts_time:1.73267 pkt_dts:155940 pkt_dts_time:1.73267 off:-35875 off_time:-0.035875
422demuxer+ffmpeg -> ist_index:0 type:video pkt_pts:152711 pkt_pts_time:1.69679 pkt_dts:152711 pkt_dts_time:1.69679 off:-35875 off_time:-0.035875
423Failed to open bitstream filter h264_mp4toannexb for stream 0 with codec copy: Invalid argument
424muxer <- type:video pkt_pts:152711 pkt_pts_time:1.69679 pkt_dts:152711 pkt_dts_time:1.69679 size:115
425demuxer -> ist_index:0 type:video next_dts:1696800 next_dts_time:1.6968 next_pts:1696800 next_pts_time:1.6968 pkt_pts:158939 pkt_pts_time:1.76599 pkt_dts:158939 pkt_dts_time:1.76599 off:-35875 off_time:-0.035875
426demuxer+ffmpeg -> ist_index:0 type:video pkt_pts:155710 pkt_pts_time:1.73011 pkt_dts:155710 pkt_dts_time:1.73011 off:-35875 off_time:-0.035875
427Failed to open bitstream filter h264_mp4toannexb for stream 0 with codec copy: Invalid argument
428muxer <- type:video pkt_pts:155710 pkt_pts_time:1.73011 pkt_dts:155710 pkt_dts_time:1.73011 size:114
429demuxer -> ist_index:1 type:audio next_dts:1728000 next_dts_time:1.728 next_pts:1728000 next_pts_time:1.728 pkt_pts:28222 pkt_pts_time:1.76388 pkt_dts:28222 pkt_dts_time:1.76388 off:-35875 off_time:-0.035875
430demuxer+ffmpeg -> ist_index:1 type:audio pkt_pts:27648 pkt_pts_time:1.728 pkt_dts:27648 pkt_dts_time:1.728 off:-35875 off_time:-0.035875
431muxer <- type:audio pkt_pts:155520 pkt_pts_time:1.728 pkt_dts:155520 pkt_dts_time:1.728 size:248
432demuxer -> ist_index:0 type:video next_dts:1730122 next_dts_time:1.73012 next_pts:1730122 next_pts_time:1.73012 pkt_pts:161938 pkt_pts_time:1.79931 pkt_dts:161938 pkt_dts_time:1.79931 off:-35875 off_time:-0.035875
433demuxer+ffmpeg -> ist_index:0 type:video pkt_pts:158709 pkt_pts_time:1.76343 pkt_dts:158709 pkt_dts_time:1.76343 off:-35875 off_time:-0.035875
434Failed to open bitstream filter h264_mp4toannexb for stream 0 with codec copy: Invalid argument
435muxer <- type:video pkt_pts:158709 pkt_pts_time:1.76343 pkt_dts:158709 pkt_dts_time:1.76343 size:121
436demuxer -> ist_index:0 type:video next_dts:1763444 next_dts_time:1.76344 next_pts:1763444 next_pts_time:1.76344 pkt_pts:164936 pkt_pts_time:1.83262 pkt_dts:164936 pkt_dts_time:1.83262 off:-35875 off_time:-0.035875
437demuxer+ffmpeg -> ist_index:0 type:video pkt_pts:161707 pkt_pts_time:1.79674 pkt_dts:161707 pkt_dts_time:1.79674 off:-35875 off_time:-0.035875
438Failed to open bitstream filter h264_mp4toannexb for stream 0 with codec copy: Invalid argument
439muxer <- type:video pkt_pts:161707 pkt_pts_time:1.79674 pkt_dts:161707 pkt_dts_time:1.79674 size:103
440demuxer -> ist_index:1 type:audio next_dts:1792000 next_dts_time:1.792 next_pts:1792000 next_pts_time:1.792 pkt_pts:29246 pkt_pts_time:1.82788 pkt_dts:29246 pkt_dts_time:1.82788 off:-35875 off_time:-0.035875
441demuxer+ffmpeg -> ist_index:1 type:audio pkt_pts:28672 pkt_pts_time:1.792 pkt_dts:28672 pkt_dts_time:1.792 off:-35875 off_time:-0.035875
442muxer <- type:audio pkt_pts:161280 pkt_pts_time:1.792 pkt_dts:161280 pkt_dts_time:1.792 size:249
443demuxer -> ist_index:0 type:video next_dts:1796755 next_dts_time:1.79675 next_pts:1796755 next_pts_time:1.79675 pkt_pts:167935 pkt_pts_time:1.86594 pkt_dts:167935 pkt_dts_time:1.86594 off:-35875 off_time:-0.035875
444demuxer+ffmpeg -> ist_index:0 type:video pkt_pts:164706 pkt_pts_time:1.83007 pkt_dts:164706 pkt_dts_time:1.83007 off:-35875 off_time:-0.035875
445Failed to open bitstream filter h264_mp4toannexb for stream 0 with codec copy: Invalid argument
446muxer <- type:video pkt_pts:164706 pkt_pts_time:1.83007 pkt_dts:164706 pkt_dts_time:1.83007 size:96
447demuxer -> ist_index:0 type:video next_dts:1830078 next_dts_time:1.83008 next_pts:1830078 next_pts_time:1.83008 pkt_pts:170935 pkt_pts_time:1.89928 pkt_dts:170935 pkt_dts_time:1.89928 off:-35875 off_time:-0.035875
448demuxer+ffmpeg -> ist_index:0 type:video pkt_pts:167706 pkt_pts_time:1.8634 pkt_dts:167706 pkt_dts_time:1.8634 off:-35875 off_time:-0.035875
449Failed to open bitstream filter h264_mp4toannexb for stream 0 with codec copy: Invalid argument
450muxer <- type:video pkt_pts:167706 pkt_pts_time:1.8634 pkt_dts:167706 pkt_dts_time:1.8634 size:117
451demuxer -> ist_index:1 type:audio next_dts:1856000 next_dts_time:1.856 next_pts:1856000 next_pts_time:1.856 pkt_pts:30142 pkt_pts_time:1.88387 pkt_dts:30142 pkt_dts_time:1.88387 off:-35875 off_time:-0.035875
452demuxer+ffmpeg -> ist_index:1 type:audio pkt_pts:29568 pkt_pts_time:1.848 pkt_dts:29568 pkt_dts_time:1.848 off:-35875 off_time:-0.035875
453muxer <- type:audio pkt_pts:166320 pkt_pts_time:1.848 pkt_dts:166320 pkt_dts_time:1.848 size:250
454demuxer -> ist_index:0 type:video next_dts:1863411 next_dts_time:1.86341 next_pts:1863411 next_pts_time:1.86341 pkt_pts:173933 pkt_pts_time:1.93259 pkt_dts:173933 pkt_dts_time:1.93259 off:-35875 off_time:-0.035875
455demuxer+ffmpeg -> ist_index:0 type:video pkt_pts:170704 pkt_pts_time:1.89671 pkt_dts:170704 pkt_dts_time:1.89671 off:-35875 off_time:-0.035875
456Failed to open bitstream filter h264_mp4toannexb for stream 0 with codec copy: Invalid argument
457muxer <- type:video pkt_pts:170704 pkt_pts_time:1.89671 pkt_dts:170704 pkt_dts_time:1.89671 size:111
458demuxer -> ist_index:0 type:video next_dts:1896722 next_dts_time:1.89672 next_pts:1896722 next_pts_time:1.89672 pkt_pts:176932 pkt_pts_time:1.96591 pkt_dts:176932 pkt_dts_time:1.96591 off:-35875 off_time:-0.035875
459demuxer+ffmpeg -> ist_index:0 type:video pkt_pts:173703 pkt_pts_time:1.93003 pkt_dts:173703 pkt_dts_time:1.93003 off:-35875 off_time:-0.035875
460Failed to open bitstream filter h264_mp4toannexb for stream 0 with codec copy: Invalid argument
461muxer <- type:video pkt_pts:173703 pkt_pts_time:1.93003 pkt_dts:173703 pkt_dts_time:1.93003 size:111
462demuxer -> ist_index:1 type:audio next_dts:1912000 next_dts_time:1.912 next_pts:1912000 next_pts_time:1.912 pkt_pts:31294 pkt_pts_time:1.95588 pkt_dts:31294 pkt_dts_time:1.95588 off:-35875 off_time:-0.035875
463demuxer+ffmpeg -> ist_index:1 type:audio pkt_pts:30720 pkt_pts_time:1.92 pkt_dts:30720 pkt_dts_time:1.92 off:-35875 off_time:-0.035875
464muxer <- type:audio pkt_pts:172800 pkt_pts_time:1.92 pkt_dts:172800 pkt_dts_time:1.92 size:250
465demuxer -> ist_index:0 type:video next_dts:1930044 next_dts_time:1.93004 next_pts:1930044 next_pts_time:1.93004 pkt_pts:179930 pkt_pts_time:1.99922 pkt_dts:179930 pkt_dts_time:1.99922 off:-35875 off_time:-0.035875
466demuxer+ffmpeg -> ist_index:0 type:video pkt_pts:176701 pkt_pts_time:1.96334 pkt_dts:176701 pkt_dts_time:1.96334 off:-35875 off_time:-0.035875
467Failed to open bitstream filter h264_mp4toannexb for stream 0 with codec copy: Invalid argument
468muxer <- type:video pkt_pts:176701 pkt_pts_time:1.96334 pkt_dts:176701 pkt_dts_time:1.96334 size:118
469demuxer -> ist_index:0 type:video next_dts:1963355 next_dts_time:1.96335 next_pts:1963355 next_pts_time:1.96335 pkt_pts:182930 pkt_pts_time:2.03256 pkt_dts:182930 pkt_dts_time:2.03256 off:-35875 off_time:-0.035875
470demuxer+ffmpeg -> ist_index:0 type:video pkt_pts:179701 pkt_pts_time:1.99668 pkt_dts:179701 pkt_dts_time:1.99668 off:-35875 off_time:-0.035875
471Failed to open bitstream filter h264_mp4toannexb for stream 0 with codec copy: Invalid argument
472muxer <- type:video pkt_pts:179701 pkt_pts_time:1.99668 pkt_dts:179701 pkt_dts_time:1.99668 size:112
473demuxer -> ist_index:1 type:audio next_dts:1984000 next_dts_time:1.984 next_pts:1984000 next_pts_time:1.984 pkt_pts:32318 pkt_pts_time:2.01987 pkt_dts:32318 pkt_dts_time:2.01987 off:-35875 off_time:-0.035875
474demuxer+ffmpeg -> ist_index:1 type:audio pkt_pts:31744 pkt_pts_time:1.984 pkt_dts:31744 pkt_dts_time:1.984 off:-35875 off_time:-0.035875
475muxer <- type:audio pkt_pts:178560 pkt_pts_time:1.984 pkt_dts:178560 pkt_dts_time:1.984 size:250
476demuxer -> ist_index:0 type:video next_dts:1996689 next_dts_time:1.99669 next_pts:1996689 next_pts_time:1.99669 pkt_pts:185928 pkt_pts_time:2.06587 pkt_dts:185928 pkt_dts_time:2.06587 off:-35875 off_time:-0.035875
477demuxer+ffmpeg -> ist_index:0 type:video pkt_pts:182699 pkt_pts_time:2.02999 pkt_dts:182699 pkt_dts_time:2.02999 off:-35875 off_time:-0.035875
478Failed to open bitstream filter h264_mp4toannexb for stream 0 with codec copy: Invalid argument
479muxer <- type:video pkt_pts:182699 pkt_pts_time:2.02999 pkt_dts:182699 pkt_dts_time:2.02999 size:132
480frame=   62 fps= 55 q=-1.0 Lsize=      77kB time=00:00:02.04 bitrate= 308.4kbits/s   
481video:58kB audio:8kB subtitle:0 global headers:0kB muxing overhead 18.053375%
482Statistics: 0 seeks, 65 writeouts
483Received signal 2: terminating.
484vihai@stfu:/opt/acaocam$
485