Ticket #2392: command-report.log

File command-report.log, 4.5 KB (added by heinz0r, 3 years ago)

ffmpeg -i infile.dpx outfile.jpg -report

Line 
1ffmpeg started on 2013-03-21 at 16:32:51
2Report written to "ffmpeg-20130321-163251.log"
3Command line:
4ffmpeg -y -i converted_image_gets_skewed.dpx skewed_output.jpg -report
5ffmpeg version N-51106-g17c1881 Copyright (c) 2000-2013 the FFmpeg developers
6  built on Mar 19 2013 13:49:37 with gcc 4.7.2 (GCC)
7  configuration: --enable-gpl --enable-version3 --disable-w32threads --enable-avisynth --enable-bzlib --enable-fontconfig --enable-frei0r --enable-gnutls --enable-libass --enable-libbluray --enable-libcaca --enable-libfreetype --enable-libgsm --enable-libilbc --enable-libmp3lame --enable-libopencore-amrnb --enable-libopencore-amrwb --enable-libopenjpeg --enable-libopus --enable-librtmp --enable-libschroedinger --enable-libsoxr --enable-libspeex --enable-libtheora --enable-libtwolame --enable-libvo-aacenc --enable-libvo-amrwbenc --enable-libvorbis --enable-libvpx --enable-libx264 --enable-libxavs --enable-libxvid --enable-zlib
8  libavutil      52. 19.101 / 52. 19.101
9  libavcodec     55.  1.100 / 55.  1.100
10  libavformat    55.  0.100 / 55.  0.100
11  libavdevice    55.  0.100 / 55.  0.100
12  libavfilter     3. 47.104 /  3. 47.104
13  libswscale      2.  2.100 /  2.  2.100
14  libswresample   0. 17.102 /  0. 17.102
15  libpostproc    52.  2.100 / 52.  2.100
16Splitting the commandline.
17Reading option '-y' ... matched as option 'y' (overwrite output files) with argument '1'.
18Reading option '-i' ... matched as input file with argument 'converted_image_gets_skewed.dpx'.
19Reading option 'skewed_output.jpg' ... matched as output file.
20Reading option '-report' ... matched as option 'report' (generate a report) with argument '1'.
21Finished splitting the commandline.
22Parsing a group of options: global .
23Applying option y (overwrite output files) with argument 1.
24Applying option report (generate a report) with argument 1.
25Successfully parsed a group of options.
26Parsing a group of options: input file converted_image_gets_skewed.dpx.
27Successfully parsed a group of options.
28Opening an input file: converted_image_gets_skewed.dpx.
29[AVIOContext @ 024bcec0] Statistics: 16999792 bytes read, 0 seeks
30[image2 @ 024b8d60] Probe buffer size limit of 5000000 bytes reached
31[image2 @ 024b8d60] Stream #0: not enough frames to estimate rate; consider increasing probesize
32Input #0, image2, from 'converted_image_gets_skewed.dpx':
33  Duration: 00:00:00.04, start: 0.000000, bitrate: N/A
34    Stream #0:0, 1, 1/25: Video: dpx, gbrp10le, 2048x1556 [SAR 1:1 DAR 512:389], 25 tbr, 25 tbn, 25 tbc
35Successfully opened the file.
36Parsing a group of options: output file skewed_output.jpg.
37Successfully parsed a group of options.
38Opening an output file: skewed_output.jpg.
39Successfully opened the file.
40[buffer @ 02639200] Setting entry with key 'video_size' to value '2048x1556'
41[buffer @ 02639200] Setting entry with key 'pix_fmt' to value '86'
42[buffer @ 02639200] Setting entry with key 'time_base' to value '1/25'
43[buffer @ 02639200] Setting entry with key 'pixel_aspect' to value '1/1'
44[buffer @ 02639200] Setting entry with key 'sws_param' to value 'flags=2'
45[buffer @ 02639200] Setting entry with key 'frame_rate' to value '25/1'
46[graph 0 input from stream 0:0 @ 0263b120] w:2048 h:1556 pixfmt:gbrp10le tb:1/25 fr:25/1 sar:1/1 sws_param:flags=2
47[scale @ 0263a680] Setting 'w' to value '0'
48[scale @ 0263a680] Setting 'h' to value '0'
49[scale @ 0263a680] Setting 'flags' to value '0x4'
50[auto-inserted scaler 0 @ 0263a820] w:0 h:0 flags:'0x4' interl:0
51[format @ 0263a8a0] auto-inserting filter 'auto-inserted scaler 0' between the filter 'Parsed_null_0' and the filter 'format'
52[auto-inserted scaler 0 @ 0263a820] picking yuvj444p out of 3 ref:gbrp10le alpha:0
53[auto-inserted scaler 0 @ 0263a820] w:2048 h:1556 fmt:gbrp10le sar:1/1 -> w:2048 h:1556 fmt:yuvj444p sar:1/1 flags:0x4
54[mjpeg @ 02638540] detected 2 logical cores
55[mjpeg @ 0267d8c0] intra_quant_bias = 96 inter_quant_bias = 0
56[mjpeg @ 0264e0c0] intra_quant_bias = 96 inter_quant_bias = 0
57[mjpeg @ 02638540] intra_quant_bias = 96 inter_quant_bias = 0
58Output #0, image2, to 'skewed_output.jpg':
59  Metadata:
60    encoder         : Lavf55.0.100
61    Stream #0:0, 0, 1/90000: Video: mjpeg, yuvj444p, 2048x1556 [SAR 1:1 DAR 512:389], q=2-31, 200 kb/s, 90k tbn, 25 tbc
62Stream mapping:
63  Stream #0:0 -> #0:0 (dpx -> mjpeg)
64Press [q] to stop, [?] for help
65[output stream 0:0 @ 0263b0a0] EOF on sink link output stream 0:0:default.
66No more output streams to write to, finishing.
67frame=    1 fps=0.0 q=0.0 Lsize=N/A time=00:00:00.04 bitrate=N/A   
68
69video:1475kB audio:0kB subtitle:0 global headers:0kB muxing overhead -100.001457%