Ticket #2320: frames

File frames, 38.4 KB (added by Berbe, 4 years ago)

Frames of the mjpeg/pcm_u8 video file

Line 
1ffprobe version 1.0.4 Copyright (c) 2007-2012 the FFmpeg developers
2  built on Feb  8 2013 13:28:51 with gcc 4.7 (Debian 4.7.2-5)
3  configuration: --prefix=/usr --extra-cflags='-g -O2 -fstack-protector --param=ssp-buffer-size=4 -Wformat -Werror=format-security ' --extra-ldflags='-Wl,-z,relro' --cc='ccache cc' --enable-shared --enable-libmp3lame --enable-gpl --enable-nonfree --enable-libvorbis --enable-pthreads --enable-libfaac --enable-libxvid --enable-postproc --enable-x11grab --enable-libgsm --enable-libtheora --enable-libopencore-amrnb --enable-libopencore-amrwb --enable-libx264 --enable-libspeex --enable-nonfree --disable-stripping --enable-libvpx --enable-libschroedinger --disable-encoder=libschroedinger --enable-version3 --enable-libopenjpeg --enable-librtmp --enable-avfilter --enable-libfreetype --enable-libvo-aacenc --disable-decoder=amrnb --enable-libvo-amrwbenc --enable-libaacplus --libdir=/usr/lib/x86_64-linux-gnu --disable-vda --enable-libbluray --enable-libcdio --enable-gnutls --enable-frei0r --enable-openssl --enable-libass --enable-libopus --enable-fontconfig --enable-libdc1394 --disable-altivec --disable-armv5te --disab  libavutil      51. 73.101 / 51. 73.101
4  libavcodec     54. 59.100 / 54. 59.100
5  libavformat    54. 29.104 / 54. 29.104
6  libavdevice    54.  2.101 / 54.  2.101
7  libavfilter     3. 17.100 /  3. 17.100
8  libswscale      2.  1.101 /  2.  1.101
9  libswresample   0. 15.100 /  0. 15.100
10  libpostproc    52.  0.100 / 52.  0.100
11Input #0, avi, from '2012-11-23_21-02-59.avi':
12  Metadata:
13    creation_time   : 2012-11-23 21:02:59
14    encoder         : OLYMPUS u1030SW/S1030SW
15  Duration: 00:00:06.73, start: 0.000000, bitrate: 2741 kb/s
16    Stream #0:0: Video: mjpeg (MJPG / 0x47504A4D), yuvj422p, 320x240, 15 tbr, 15 tbn, 15 tbc
17    Stream #0:1: Audio: pcm_u8 ([1][0][0][0] / 0x0001), 8000 Hz, 1 channels, u8, 64 kb/s
18[FRAME]
19media_type=audio
20key_frame=1
21pkt_pts=0
22pkt_pts_time=0.000000
23pkt_dts=0
24pkt_dts_time=0.000000
25pkt_duration=8000
26pkt_duration_time=1.000000
27pkt_pos=16392
28sample_fmt=u8
29nb_samples=8000
30channels=1
31channel_layout=unknown
32[/FRAME]
33[FRAME]
34media_type=video
35key_frame=1
36pkt_pts=0
37pkt_pts_time=0.000000
38pkt_dts=0
39pkt_dts_time=0.000000
40pkt_duration=1
41pkt_duration_time=0.066666
42pkt_pos=24400
43width=320
44height=240
45pix_fmt=yuvj422p
46sample_aspect_ratio=N/A
47pict_type=I
48coded_picture_number=0
49display_picture_number=0
50interlaced_frame=0
51top_field_first=0
52repeat_pict=0
53reference=0
54[/FRAME]
55[FRAME]
56media_type=video
57key_frame=1
58pkt_pts=1
59pkt_pts_time=0.066666
60pkt_dts=1
61pkt_dts_time=0.066666
62pkt_duration=1
63pkt_duration_time=0.066666
64pkt_pos=46048
65width=320
66height=240
67pix_fmt=yuvj422p
68sample_aspect_ratio=N/A
69pict_type=I
70coded_picture_number=0
71display_picture_number=0
72interlaced_frame=0
73top_field_first=0
74repeat_pict=0
75reference=0
76[/FRAME]
77[FRAME]
78media_type=video
79key_frame=1
80pkt_pts=2
81pkt_pts_time=0.133332
82pkt_dts=2
83pkt_dts_time=0.133332
84pkt_duration=1
85pkt_duration_time=0.066666
86pkt_pos=67616
87width=320
88height=240
89pix_fmt=yuvj422p
90sample_aspect_ratio=N/A
91pict_type=I
92coded_picture_number=0
93display_picture_number=0
94interlaced_frame=0
95top_field_first=0
96repeat_pict=0
97reference=0
98[/FRAME]
99[FRAME]
100media_type=video
101key_frame=1
102pkt_pts=3
103pkt_pts_time=0.199998
104pkt_dts=3
105pkt_dts_time=0.199998
106pkt_duration=1
107pkt_duration_time=0.066666
108pkt_pos=87232
109width=320
110height=240
111pix_fmt=yuvj422p
112sample_aspect_ratio=N/A
113pict_type=I
114coded_picture_number=0
115display_picture_number=0
116interlaced_frame=0
117top_field_first=0
118repeat_pict=0
119reference=0
120[/FRAME]
121[FRAME]
122media_type=video
123key_frame=1
124pkt_pts=4
125pkt_pts_time=0.266664
126pkt_dts=4
127pkt_dts_time=0.266664
128pkt_duration=1
129pkt_duration_time=0.066666
130pkt_pos=108032
131width=320
132height=240
133pix_fmt=yuvj422p
134sample_aspect_ratio=N/A
135pict_type=I
136coded_picture_number=0
137display_picture_number=0
138interlaced_frame=0
139top_field_first=0
140repeat_pict=0
141reference=0
142[/FRAME]
143[FRAME]
144media_type=video
145key_frame=1
146pkt_pts=5
147pkt_pts_time=0.333330
148pkt_dts=5
149pkt_dts_time=0.333330
150pkt_duration=1
151pkt_duration_time=0.066666
152pkt_pos=129856
153width=320
154height=240
155pix_fmt=yuvj422p
156sample_aspect_ratio=N/A
157pict_type=I
158coded_picture_number=0
159display_picture_number=0
160interlaced_frame=0
161top_field_first=0
162repeat_pict=0
163reference=0
164[/FRAME]
165[FRAME]
166media_type=video
167key_frame=1
168pkt_pts=6
169pkt_pts_time=0.399996
170pkt_dts=6
171pkt_dts_time=0.399996
172pkt_duration=1
173pkt_duration_time=0.066666
174pkt_pos=151744
175width=320
176height=240
177pix_fmt=yuvj422p
178sample_aspect_ratio=N/A
179pict_type=I
180coded_picture_number=0
181display_picture_number=0
182interlaced_frame=0
183top_field_first=0
184repeat_pict=0
185reference=0
186[/FRAME]
187[FRAME]
188media_type=video
189key_frame=1
190pkt_pts=7
191pkt_pts_time=0.466662
192pkt_dts=7
193pkt_dts_time=0.466662
194pkt_duration=1
195pkt_duration_time=0.066666
196pkt_pos=173632
197width=320
198height=240
199pix_fmt=yuvj422p
200sample_aspect_ratio=N/A
201pict_type=I
202coded_picture_number=0
203display_picture_number=0
204interlaced_frame=0
205top_field_first=0
206repeat_pict=0
207reference=0
208[/FRAME]
209[FRAME]
210media_type=video
211key_frame=1
212pkt_pts=8
213pkt_pts_time=0.533328
214pkt_dts=8
215pkt_dts_time=0.533328
216pkt_duration=1
217pkt_duration_time=0.066666
218pkt_pos=195776
219width=320
220height=240
221pix_fmt=yuvj422p
222sample_aspect_ratio=N/A
223pict_type=I
224coded_picture_number=0
225display_picture_number=0
226interlaced_frame=0
227top_field_first=0
228repeat_pict=0
229reference=0
230[/FRAME]
231[FRAME]
232media_type=video
233key_frame=1
234pkt_pts=9
235pkt_pts_time=0.599994
236pkt_dts=9
237pkt_dts_time=0.599994
238pkt_duration=1
239pkt_duration_time=0.066666
240pkt_pos=218080
241width=320
242height=240
243pix_fmt=yuvj422p
244sample_aspect_ratio=N/A
245pict_type=I
246coded_picture_number=0
247display_picture_number=0
248interlaced_frame=0
249top_field_first=0
250repeat_pict=0
251reference=0
252[/FRAME]
253[FRAME]
254media_type=video
255key_frame=1
256pkt_pts=10
257pkt_pts_time=0.666660
258pkt_dts=10
259pkt_dts_time=0.666660
260pkt_duration=1
261pkt_duration_time=0.066666
262pkt_pos=240384
263width=320
264height=240
265pix_fmt=yuvj422p
266sample_aspect_ratio=N/A
267pict_type=I
268coded_picture_number=0
269display_picture_number=0
270interlaced_frame=0
271top_field_first=0
272repeat_pict=0
273reference=0
274[/FRAME]
275[FRAME]
276media_type=video
277key_frame=1
278pkt_pts=11
279pkt_pts_time=0.733326
280pkt_dts=11
281pkt_dts_time=0.733326
282pkt_duration=1
283pkt_duration_time=0.066666
284pkt_pos=262656
285width=320
286height=240
287pix_fmt=yuvj422p
288sample_aspect_ratio=N/A
289pict_type=I
290coded_picture_number=0
291display_picture_number=0
292interlaced_frame=0
293top_field_first=0
294repeat_pict=0
295reference=0
296[/FRAME]
297[FRAME]
298media_type=video
299key_frame=1
300pkt_pts=12
301pkt_pts_time=0.799992
302pkt_dts=12
303pkt_dts_time=0.799992
304pkt_duration=1
305pkt_duration_time=0.066666
306pkt_pos=284992
307width=320
308height=240
309pix_fmt=yuvj422p
310sample_aspect_ratio=N/A
311pict_type=I
312coded_picture_number=0
313display_picture_number=0
314interlaced_frame=0
315top_field_first=0
316repeat_pict=0
317reference=0
318[/FRAME]
319[FRAME]
320media_type=video
321key_frame=1
322pkt_pts=13
323pkt_pts_time=0.866658
324pkt_dts=13
325pkt_dts_time=0.866658
326pkt_duration=1
327pkt_duration_time=0.066666
328pkt_pos=307232
329width=320
330height=240
331pix_fmt=yuvj422p
332sample_aspect_ratio=N/A
333pict_type=I
334coded_picture_number=0
335display_picture_number=0
336interlaced_frame=0
337top_field_first=0
338repeat_pict=0
339reference=0
340[/FRAME]
341[FRAME]
342media_type=video
343key_frame=1
344pkt_pts=14
345pkt_pts_time=0.933324
346pkt_dts=14
347pkt_dts_time=0.933324
348pkt_duration=1
349pkt_duration_time=0.066666
350pkt_pos=329952
351width=320
352height=240
353pix_fmt=yuvj422p
354sample_aspect_ratio=N/A
355pict_type=I
356coded_picture_number=0
357display_picture_number=0
358interlaced_frame=0
359top_field_first=0
360repeat_pict=0
361reference=0
362[/FRAME]
363[FRAME]
364media_type=audio
365key_frame=1
366pkt_pts=8000
367pkt_pts_time=1.000000
368pkt_dts=8000
369pkt_dts_time=1.000000
370pkt_duration=8000
371pkt_duration_time=1.000000
372pkt_pos=352776
373sample_fmt=u8
374nb_samples=8000
375channels=1
376channel_layout=unknown
377[/FRAME]
378[FRAME]
379media_type=video
380key_frame=1
381pkt_pts=15
382pkt_pts_time=0.999990
383pkt_dts=15
384pkt_dts_time=0.999990
385pkt_duration=1
386pkt_duration_time=0.066666
387pkt_pos=360784
388width=320
389height=240
390pix_fmt=yuvj422p
391sample_aspect_ratio=N/A
392pict_type=I
393coded_picture_number=0
394display_picture_number=0
395interlaced_frame=0
396top_field_first=0
397repeat_pict=0
398reference=0
399[/FRAME]
400[FRAME]
401media_type=video
402key_frame=1
403pkt_pts=16
404pkt_pts_time=1.066656
405pkt_dts=16
406pkt_dts_time=1.066656
407pkt_duration=1
408pkt_duration_time=0.066666
409pkt_pos=383040
410width=320
411height=240
412pix_fmt=yuvj422p
413sample_aspect_ratio=N/A
414pict_type=I
415coded_picture_number=0
416display_picture_number=0
417interlaced_frame=0
418top_field_first=0
419repeat_pict=0
420reference=0
421[/FRAME]
422[FRAME]
423media_type=video
424key_frame=1
425pkt_pts=17
426pkt_pts_time=1.133322
427pkt_dts=17
428pkt_dts_time=1.133322
429pkt_duration=1
430pkt_duration_time=0.066666
431pkt_pos=404544
432width=320
433height=240
434pix_fmt=yuvj422p
435sample_aspect_ratio=N/A
436pict_type=I
437coded_picture_number=0
438display_picture_number=0
439interlaced_frame=0
440top_field_first=0
441repeat_pict=0
442reference=0
443[/FRAME]
444[FRAME]
445media_type=video
446key_frame=1
447pkt_pts=18
448pkt_pts_time=1.199988
449pkt_dts=18
450pkt_dts_time=1.199988
451pkt_duration=1
452pkt_duration_time=0.066666
453pkt_pos=424800
454width=320
455height=240
456pix_fmt=yuvj422p
457sample_aspect_ratio=N/A
458pict_type=I
459coded_picture_number=0
460display_picture_number=0
461interlaced_frame=0
462top_field_first=0
463repeat_pict=0
464reference=0
465[/FRAME]
466[FRAME]
467media_type=video
468key_frame=1
469pkt_pts=19
470pkt_pts_time=1.266654
471pkt_dts=19
472pkt_dts_time=1.266654
473pkt_duration=1
474pkt_duration_time=0.066666
475pkt_pos=446528
476width=320
477height=240
478pix_fmt=yuvj422p
479sample_aspect_ratio=N/A
480pict_type=I
481coded_picture_number=0
482display_picture_number=0
483interlaced_frame=0
484top_field_first=0
485repeat_pict=0
486reference=0
487[/FRAME]
488[FRAME]
489media_type=video
490key_frame=1
491pkt_pts=20
492pkt_pts_time=1.333320
493pkt_dts=20
494pkt_dts_time=1.333320
495pkt_duration=1
496pkt_duration_time=0.066666
497pkt_pos=468640
498width=320
499height=240
500pix_fmt=yuvj422p
501sample_aspect_ratio=N/A
502pict_type=I
503coded_picture_number=0
504display_picture_number=0
505interlaced_frame=0
506top_field_first=0
507repeat_pict=0
508reference=0
509[/FRAME]
510[FRAME]
511media_type=video
512key_frame=1
513pkt_pts=21
514pkt_pts_time=1.399986
515pkt_dts=21
516pkt_dts_time=1.399986
517pkt_duration=1
518pkt_duration_time=0.066666
519pkt_pos=491104
520width=320
521height=240
522pix_fmt=yuvj422p
523sample_aspect_ratio=N/A
524pict_type=I
525coded_picture_number=0
526display_picture_number=0
527interlaced_frame=0
528top_field_first=0
529repeat_pict=0
530reference=0
531[/FRAME]
532[FRAME]
533media_type=video
534key_frame=1
535pkt_pts=22
536pkt_pts_time=1.466652
537pkt_dts=22
538pkt_dts_time=1.466652
539pkt_duration=1
540pkt_duration_time=0.066666
541pkt_pos=513536
542width=320
543height=240
544pix_fmt=yuvj422p
545sample_aspect_ratio=N/A
546pict_type=I
547coded_picture_number=0
548display_picture_number=0
549interlaced_frame=0
550top_field_first=0
551repeat_pict=0
552reference=0
553[/FRAME]
554[FRAME]
555media_type=video
556key_frame=1
557pkt_pts=23
558pkt_pts_time=1.533318
559pkt_dts=23
560pkt_dts_time=1.533318
561pkt_duration=1
562pkt_duration_time=0.066666
563pkt_pos=535904
564width=320
565height=240
566pix_fmt=yuvj422p
567sample_aspect_ratio=N/A
568pict_type=I
569coded_picture_number=0
570display_picture_number=0
571interlaced_frame=0
572top_field_first=0
573repeat_pict=0
574reference=0
575[/FRAME]
576[FRAME]
577media_type=video
578key_frame=1
579pkt_pts=24
580pkt_pts_time=1.599984
581pkt_dts=24
582pkt_dts_time=1.599984
583pkt_duration=1
584pkt_duration_time=0.066666
585pkt_pos=558336
586width=320
587height=240
588pix_fmt=yuvj422p
589sample_aspect_ratio=N/A
590pict_type=I
591coded_picture_number=0
592display_picture_number=0
593interlaced_frame=0
594top_field_first=0
595repeat_pict=0
596reference=0
597[/FRAME]
598[FRAME]
599media_type=video
600key_frame=1
601pkt_pts=25
602pkt_pts_time=1.666650
603pkt_dts=25
604pkt_dts_time=1.666650
605pkt_duration=1
606pkt_duration_time=0.066666
607pkt_pos=581152
608width=320
609height=240
610pix_fmt=yuvj422p
611sample_aspect_ratio=N/A
612pict_type=I
613coded_picture_number=0
614display_picture_number=0
615interlaced_frame=0
616top_field_first=0
617repeat_pict=0
618reference=0
619[/FRAME]
620[FRAME]
621media_type=video
622key_frame=1
623pkt_pts=26
624pkt_pts_time=1.733316
625pkt_dts=26
626pkt_dts_time=1.733316
627pkt_duration=1
628pkt_duration_time=0.066666
629pkt_pos=604288
630width=320
631height=240
632pix_fmt=yuvj422p
633sample_aspect_ratio=N/A
634pict_type=I
635coded_picture_number=0
636display_picture_number=0
637interlaced_frame=0
638top_field_first=0
639repeat_pict=0
640reference=0
641[/FRAME]
642[FRAME]
643media_type=video
644key_frame=1
645pkt_pts=27
646pkt_pts_time=1.799982
647pkt_dts=27
648pkt_dts_time=1.799982
649pkt_duration=1
650pkt_duration_time=0.066666
651pkt_pos=627552
652width=320
653height=240
654pix_fmt=yuvj422p
655sample_aspect_ratio=N/A
656pict_type=I
657coded_picture_number=0
658display_picture_number=0
659interlaced_frame=0
660top_field_first=0
661repeat_pict=0
662reference=0
663[/FRAME]
664[FRAME]
665media_type=video
666key_frame=1
667pkt_pts=28
668pkt_pts_time=1.866648
669pkt_dts=28
670pkt_dts_time=1.866648
671pkt_duration=1
672pkt_duration_time=0.066666
673pkt_pos=650496
674width=320
675height=240
676pix_fmt=yuvj422p
677sample_aspect_ratio=N/A
678pict_type=I
679coded_picture_number=0
680display_picture_number=0
681interlaced_frame=0
682top_field_first=0
683repeat_pict=0
684reference=0
685[/FRAME]
686[FRAME]
687media_type=video
688key_frame=1
689pkt_pts=29
690pkt_pts_time=1.933314
691pkt_dts=29
692pkt_dts_time=1.933314
693pkt_duration=1
694pkt_duration_time=0.066666
695pkt_pos=673600
696width=320
697height=240
698pix_fmt=yuvj422p
699sample_aspect_ratio=N/A
700pict_type=I
701coded_picture_number=0
702display_picture_number=0
703interlaced_frame=0
704top_field_first=0
705repeat_pict=0
706reference=0
707[/FRAME]
708[FRAME]
709media_type=audio
710key_frame=1
711pkt_pts=16000
712pkt_pts_time=2.000000
713pkt_dts=16000
714pkt_dts_time=2.000000
715pkt_duration=8000
716pkt_duration_time=1.000000
717pkt_pos=696840
718sample_fmt=u8
719nb_samples=8000
720channels=1
721channel_layout=unknown
722[/FRAME]
723[FRAME]
724media_type=video
725key_frame=1
726pkt_pts=30
727pkt_pts_time=1.999980
728pkt_dts=30
729pkt_dts_time=1.999980
730pkt_duration=1
731pkt_duration_time=0.066666
732pkt_pos=704848
733width=320
734height=240
735pix_fmt=yuvj422p
736sample_aspect_ratio=N/A
737pict_type=I
738coded_picture_number=0
739display_picture_number=0
740interlaced_frame=0
741top_field_first=0
742repeat_pict=0
743reference=0
744[/FRAME]
745[FRAME]
746media_type=video
747key_frame=1
748pkt_pts=31
749pkt_pts_time=2.066646
750pkt_dts=31
751pkt_dts_time=2.066646
752pkt_duration=1
753pkt_duration_time=0.066666
754pkt_pos=727520
755width=320
756height=240
757pix_fmt=yuvj422p
758sample_aspect_ratio=N/A
759pict_type=I
760coded_picture_number=0
761display_picture_number=0
762interlaced_frame=0
763top_field_first=0
764repeat_pict=0
765reference=0
766[/FRAME]
767[FRAME]
768media_type=video
769key_frame=1
770pkt_pts=32
771pkt_pts_time=2.133312
772pkt_dts=32
773pkt_dts_time=2.133312
774pkt_duration=1
775pkt_duration_time=0.066666
776pkt_pos=749632
777width=320
778height=240
779pix_fmt=yuvj422p
780sample_aspect_ratio=N/A
781pict_type=I
782coded_picture_number=0
783display_picture_number=0
784interlaced_frame=0
785top_field_first=0
786repeat_pict=0
787reference=0
788[/FRAME]
789[FRAME]
790media_type=video
791key_frame=1
792pkt_pts=33
793pkt_pts_time=2.199978
794pkt_dts=33
795pkt_dts_time=2.199978
796pkt_duration=1
797pkt_duration_time=0.066666
798pkt_pos=771488
799width=320
800height=240
801pix_fmt=yuvj422p
802sample_aspect_ratio=N/A
803pict_type=I
804coded_picture_number=0
805display_picture_number=0
806interlaced_frame=0
807top_field_first=0
808repeat_pict=0
809reference=0
810[/FRAME]
811[FRAME]
812media_type=video
813key_frame=1
814pkt_pts=34
815pkt_pts_time=2.266644
816pkt_dts=34
817pkt_dts_time=2.266644
818pkt_duration=1
819pkt_duration_time=0.066666
820pkt_pos=793312
821width=320
822height=240
823pix_fmt=yuvj422p
824sample_aspect_ratio=N/A
825pict_type=I
826coded_picture_number=0
827display_picture_number=0
828interlaced_frame=0
829top_field_first=0
830repeat_pict=0
831reference=0
832[/FRAME]
833[FRAME]
834media_type=video
835key_frame=1
836pkt_pts=35
837pkt_pts_time=2.333310
838pkt_dts=35
839pkt_dts_time=2.333310
840pkt_duration=1
841pkt_duration_time=0.066666
842pkt_pos=815040
843width=320
844height=240
845pix_fmt=yuvj422p
846sample_aspect_ratio=N/A
847pict_type=I
848coded_picture_number=0
849display_picture_number=0
850interlaced_frame=0
851top_field_first=0
852repeat_pict=0
853reference=0
854[/FRAME]
855[FRAME]
856media_type=video
857key_frame=1
858pkt_pts=36
859pkt_pts_time=2.399976
860pkt_dts=36
861pkt_dts_time=2.399976
862pkt_duration=1
863pkt_duration_time=0.066666
864pkt_pos=836992
865width=320
866height=240
867pix_fmt=yuvj422p
868sample_aspect_ratio=N/A
869pict_type=I
870coded_picture_number=0
871display_picture_number=0
872interlaced_frame=0
873top_field_first=0
874repeat_pict=0
875reference=0
876[/FRAME]
877[FRAME]
878media_type=video
879key_frame=1
880pkt_pts=37
881pkt_pts_time=2.466642
882pkt_dts=37
883pkt_dts_time=2.466642
884pkt_duration=1
885pkt_duration_time=0.066666
886pkt_pos=859200
887width=320
888height=240
889pix_fmt=yuvj422p
890sample_aspect_ratio=N/A
891pict_type=I
892coded_picture_number=0
893display_picture_number=0
894interlaced_frame=0
895top_field_first=0
896repeat_pict=0
897reference=0
898[/FRAME]
899[FRAME]
900media_type=video
901key_frame=1
902pkt_pts=38
903pkt_pts_time=2.533308
904pkt_dts=38
905pkt_dts_time=2.533308
906pkt_duration=1
907pkt_duration_time=0.066666
908pkt_pos=881536
909width=320
910height=240
911pix_fmt=yuvj422p
912sample_aspect_ratio=N/A
913pict_type=I
914coded_picture_number=0
915display_picture_number=0
916interlaced_frame=0
917top_field_first=0
918repeat_pict=0
919reference=0
920[/FRAME]
921[FRAME]
922media_type=video
923key_frame=1
924pkt_pts=39
925pkt_pts_time=2.599974
926pkt_dts=39
927pkt_dts_time=2.599974
928pkt_duration=1
929pkt_duration_time=0.066666
930pkt_pos=903680
931width=320
932height=240
933pix_fmt=yuvj422p
934sample_aspect_ratio=N/A
935pict_type=I
936coded_picture_number=0
937display_picture_number=0
938interlaced_frame=0
939top_field_first=0
940repeat_pict=0
941reference=0
942[/FRAME]
943[FRAME]
944media_type=video
945key_frame=1
946pkt_pts=40
947pkt_pts_time=2.666640
948pkt_dts=40
949pkt_dts_time=2.666640
950pkt_duration=1
951pkt_duration_time=0.066666
952pkt_pos=925824
953width=320
954height=240
955pix_fmt=yuvj422p
956sample_aspect_ratio=N/A
957pict_type=I
958coded_picture_number=0
959display_picture_number=0
960interlaced_frame=0
961top_field_first=0
962repeat_pict=0
963reference=0
964[/FRAME]
965[FRAME]
966media_type=video
967key_frame=1
968pkt_pts=41
969pkt_pts_time=2.733306
970pkt_dts=41
971pkt_dts_time=2.733306
972pkt_duration=1
973pkt_duration_time=0.066666
974pkt_pos=948160
975width=320
976height=240
977pix_fmt=yuvj422p
978sample_aspect_ratio=N/A
979pict_type=I
980coded_picture_number=0
981display_picture_number=0
982interlaced_frame=0
983top_field_first=0
984repeat_pict=0
985reference=0
986[/FRAME]
987[FRAME]
988media_type=video
989key_frame=1
990pkt_pts=42
991pkt_pts_time=2.799972
992pkt_dts=42
993pkt_dts_time=2.799972
994pkt_duration=1
995pkt_duration_time=0.066666
996pkt_pos=970176
997width=320
998height=240
999pix_fmt=yuvj422p
1000sample_aspect_ratio=N/A
1001pict_type=I
1002coded_picture_number=0
1003display_picture_number=0
1004interlaced_frame=0
1005top_field_first=0
1006repeat_pict=0
1007reference=0
1008[/FRAME]
1009[FRAME]
1010media_type=video
1011key_frame=1
1012pkt_pts=43
1013pkt_pts_time=2.866638
1014pkt_dts=43
1015pkt_dts_time=2.866638
1016pkt_duration=1
1017pkt_duration_time=0.066666
1018pkt_pos=991840
1019width=320
1020height=240
1021pix_fmt=yuvj422p
1022sample_aspect_ratio=N/A
1023pict_type=I
1024coded_picture_number=0
1025display_picture_number=0
1026interlaced_frame=0
1027top_field_first=0
1028repeat_pict=0
1029reference=0
1030[/FRAME]
1031[FRAME]
1032media_type=video
1033key_frame=1
1034pkt_pts=44
1035pkt_pts_time=2.933304
1036pkt_dts=44
1037pkt_dts_time=2.933304
1038pkt_duration=1
1039pkt_duration_time=0.066666
1040pkt_pos=1013632
1041width=320
1042height=240
1043pix_fmt=yuvj422p
1044sample_aspect_ratio=N/A
1045pict_type=I
1046coded_picture_number=0
1047display_picture_number=0
1048interlaced_frame=0
1049top_field_first=0
1050repeat_pict=0
1051reference=0
1052[/FRAME]
1053[FRAME]
1054media_type=audio
1055key_frame=1
1056pkt_pts=24000
1057pkt_pts_time=3.000000
1058pkt_dts=24000
1059pkt_dts_time=3.000000
1060pkt_duration=8000
1061pkt_duration_time=1.000000
1062pkt_pos=1035784
1063sample_fmt=u8
1064nb_samples=8000
1065channels=1
1066channel_layout=unknown
1067[/FRAME]
1068[FRAME]
1069media_type=video
1070key_frame=1
1071pkt_pts=45
1072pkt_pts_time=2.999970
1073pkt_dts=45
1074pkt_dts_time=2.999970
1075pkt_duration=1
1076pkt_duration_time=0.066666
1077pkt_pos=1043792
1078width=320
1079height=240
1080pix_fmt=yuvj422p
1081sample_aspect_ratio=N/A
1082pict_type=I
1083coded_picture_number=0
1084display_picture_number=0
1085interlaced_frame=0
1086top_field_first=0
1087repeat_pict=0
1088reference=0
1089[/FRAME]
1090[FRAME]
1091media_type=video
1092key_frame=1
1093pkt_pts=46
1094pkt_pts_time=3.066636
1095pkt_dts=46
1096pkt_dts_time=3.066636
1097pkt_duration=1
1098pkt_duration_time=0.066666
1099pkt_pos=1065696
1100width=320
1101height=240
1102pix_fmt=yuvj422p
1103sample_aspect_ratio=N/A
1104pict_type=I
1105coded_picture_number=0
1106display_picture_number=0
1107interlaced_frame=0
1108top_field_first=0
1109repeat_pict=0
1110reference=0
1111[/FRAME]
1112[FRAME]
1113media_type=video
1114key_frame=1
1115pkt_pts=47
1116pkt_pts_time=3.133302
1117pkt_dts=47
1118pkt_dts_time=3.133302
1119pkt_duration=1
1120pkt_duration_time=0.066666
1121pkt_pos=1087520
1122width=320
1123height=240
1124pix_fmt=yuvj422p
1125sample_aspect_ratio=N/A
1126pict_type=I
1127coded_picture_number=0
1128display_picture_number=0
1129interlaced_frame=0
1130top_field_first=0
1131repeat_pict=0
1132reference=0
1133[/FRAME]
1134[FRAME]
1135media_type=video
1136key_frame=1
1137pkt_pts=48
1138pkt_pts_time=3.199968
1139pkt_dts=48
1140pkt_dts_time=3.199968
1141pkt_duration=1
1142pkt_duration_time=0.066666
1143pkt_pos=1109344
1144width=320
1145height=240
1146pix_fmt=yuvj422p
1147sample_aspect_ratio=N/A
1148pict_type=I
1149coded_picture_number=0
1150display_picture_number=0
1151interlaced_frame=0
1152top_field_first=0
1153repeat_pict=0
1154reference=0
1155[/FRAME]
1156[FRAME]
1157media_type=video
1158key_frame=1
1159pkt_pts=49
1160pkt_pts_time=3.266634
1161pkt_dts=49
1162pkt_dts_time=3.266634
1163pkt_duration=1
1164pkt_duration_time=0.066666
1165pkt_pos=1131360
1166width=320
1167height=240
1168pix_fmt=yuvj422p
1169sample_aspect_ratio=N/A
1170pict_type=I
1171coded_picture_number=0
1172display_picture_number=0
1173interlaced_frame=0
1174top_field_first=0
1175repeat_pict=0
1176reference=0
1177[/FRAME]
1178[FRAME]
1179media_type=video
1180key_frame=1
1181pkt_pts=50
1182pkt_pts_time=3.333300
1183pkt_dts=50
1184pkt_dts_time=3.333300
1185pkt_duration=1
1186pkt_duration_time=0.066666
1187pkt_pos=1153952
1188width=320
1189height=240
1190pix_fmt=yuvj422p
1191sample_aspect_ratio=N/A
1192pict_type=I
1193coded_picture_number=0
1194display_picture_number=0
1195interlaced_frame=0
1196top_field_first=0
1197repeat_pict=0
1198reference=0
1199[/FRAME]
1200[FRAME]
1201media_type=video
1202key_frame=1
1203pkt_pts=51
1204pkt_pts_time=3.399966
1205pkt_dts=51
1206pkt_dts_time=3.399966
1207pkt_duration=1
1208pkt_duration_time=0.066666
1209pkt_pos=1176512
1210width=320
1211height=240
1212pix_fmt=yuvj422p
1213sample_aspect_ratio=N/A
1214pict_type=I
1215coded_picture_number=0
1216display_picture_number=0
1217interlaced_frame=0
1218top_field_first=0
1219repeat_pict=0
1220reference=0
1221[/FRAME]
1222[FRAME]
1223media_type=video
1224key_frame=1
1225pkt_pts=52
1226pkt_pts_time=3.466632
1227pkt_dts=52
1228pkt_dts_time=3.466632
1229pkt_duration=1
1230pkt_duration_time=0.066666
1231pkt_pos=1199200
1232width=320
1233height=240
1234pix_fmt=yuvj422p
1235sample_aspect_ratio=N/A
1236pict_type=I
1237coded_picture_number=0
1238display_picture_number=0
1239interlaced_frame=0
1240top_field_first=0
1241repeat_pict=0
1242reference=0
1243[/FRAME]
1244[FRAME]
1245media_type=video
1246key_frame=1
1247pkt_pts=53
1248pkt_pts_time=3.533298
1249pkt_dts=53
1250pkt_dts_time=3.533298
1251pkt_duration=1
1252pkt_duration_time=0.066666
1253pkt_pos=1221952
1254width=320
1255height=240
1256pix_fmt=yuvj422p
1257sample_aspect_ratio=N/A
1258pict_type=I
1259coded_picture_number=0
1260display_picture_number=0
1261interlaced_frame=0
1262top_field_first=0
1263repeat_pict=0
1264reference=0
1265[/FRAME]
1266[FRAME]
1267media_type=video
1268key_frame=1
1269pkt_pts=54
1270pkt_pts_time=3.599964
1271pkt_dts=54
1272pkt_dts_time=3.599964
1273pkt_duration=1
1274pkt_duration_time=0.066666
1275pkt_pos=1244320
1276width=320
1277height=240
1278pix_fmt=yuvj422p
1279sample_aspect_ratio=N/A
1280pict_type=I
1281coded_picture_number=0
1282display_picture_number=0
1283interlaced_frame=0
1284top_field_first=0
1285repeat_pict=0
1286reference=0
1287[/FRAME]
1288[FRAME]
1289media_type=video
1290key_frame=1
1291pkt_pts=55
1292pkt_pts_time=3.666630
1293pkt_dts=55
1294pkt_dts_time=3.666630
1295pkt_duration=1
1296pkt_duration_time=0.066666
1297pkt_pos=1266560
1298width=320
1299height=240
1300pix_fmt=yuvj422p
1301sample_aspect_ratio=N/A
1302pict_type=I
1303coded_picture_number=0
1304display_picture_number=0
1305interlaced_frame=0
1306top_field_first=0
1307repeat_pict=0
1308reference=0
1309[/FRAME]
1310[FRAME]
1311media_type=video
1312key_frame=1
1313pkt_pts=56
1314pkt_pts_time=3.733296
1315pkt_dts=56
1316pkt_dts_time=3.733296
1317pkt_duration=1
1318pkt_duration_time=0.066666
1319pkt_pos=1288640
1320width=320
1321height=240
1322pix_fmt=yuvj422p
1323sample_aspect_ratio=N/A
1324pict_type=I
1325coded_picture_number=0
1326display_picture_number=0
1327interlaced_frame=0
1328top_field_first=0
1329repeat_pict=0
1330reference=0
1331[/FRAME]
1332[FRAME]
1333media_type=video
1334key_frame=1
1335pkt_pts=57
1336pkt_pts_time=3.799962
1337pkt_dts=57
1338pkt_dts_time=3.799962
1339pkt_duration=1
1340pkt_duration_time=0.066666
1341pkt_pos=1310784
1342width=320
1343height=240
1344pix_fmt=yuvj422p
1345sample_aspect_ratio=N/A
1346pict_type=I
1347coded_picture_number=0
1348display_picture_number=0
1349interlaced_frame=0
1350top_field_first=0
1351repeat_pict=0
1352reference=0
1353[/FRAME]
1354[FRAME]
1355media_type=video
1356key_frame=1
1357pkt_pts=58
1358pkt_pts_time=3.866628
1359pkt_dts=58
1360pkt_dts_time=3.866628
1361pkt_duration=1
1362pkt_duration_time=0.066666
1363pkt_pos=1332960
1364width=320
1365height=240
1366pix_fmt=yuvj422p
1367sample_aspect_ratio=N/A
1368pict_type=I
1369coded_picture_number=0
1370display_picture_number=0
1371interlaced_frame=0
1372top_field_first=0
1373repeat_pict=0
1374reference=0
1375[/FRAME]
1376[FRAME]
1377media_type=video
1378key_frame=1
1379pkt_pts=59
1380pkt_pts_time=3.933294
1381pkt_dts=59
1382pkt_dts_time=3.933294
1383pkt_duration=1
1384pkt_duration_time=0.066666
1385pkt_pos=1355264
1386width=320
1387height=240
1388pix_fmt=yuvj422p
1389sample_aspect_ratio=N/A
1390pict_type=I
1391coded_picture_number=0
1392display_picture_number=0
1393interlaced_frame=0
1394top_field_first=0
1395repeat_pict=0
1396reference=0
1397[/FRAME]
1398[FRAME]
1399media_type=audio
1400key_frame=1
1401pkt_pts=32000
1402pkt_pts_time=4.000000
1403pkt_dts=32000
1404pkt_dts_time=4.000000
1405pkt_duration=8000
1406pkt_duration_time=1.000000
1407pkt_pos=1377800
1408sample_fmt=u8
1409nb_samples=8000
1410channels=1
1411channel_layout=unknown
1412[/FRAME]
1413[FRAME]
1414media_type=video
1415key_frame=1
1416pkt_pts=60
1417pkt_pts_time=3.999960
1418pkt_dts=60
1419pkt_dts_time=3.999960
1420pkt_duration=1
1421pkt_duration_time=0.066666
1422pkt_pos=1385808
1423width=320
1424height=240
1425pix_fmt=yuvj422p
1426sample_aspect_ratio=N/A
1427pict_type=I
1428coded_picture_number=0
1429display_picture_number=0
1430interlaced_frame=0
1431top_field_first=0
1432repeat_pict=0
1433reference=0
1434[/FRAME]
1435[FRAME]
1436media_type=video
1437key_frame=1
1438pkt_pts=61
1439pkt_pts_time=4.066626
1440pkt_dts=61
1441pkt_dts_time=4.066626
1442pkt_duration=1
1443pkt_duration_time=0.066666
1444pkt_pos=1407776
1445width=320
1446height=240
1447pix_fmt=yuvj422p
1448sample_aspect_ratio=N/A
1449pict_type=I
1450coded_picture_number=0
1451display_picture_number=0
1452interlaced_frame=0
1453top_field_first=0
1454repeat_pict=0
1455reference=0
1456[/FRAME]
1457[FRAME]
1458media_type=video
1459key_frame=1
1460pkt_pts=62
1461pkt_pts_time=4.133292
1462pkt_dts=62
1463pkt_dts_time=4.133292
1464pkt_duration=1
1465pkt_duration_time=0.066666
1466pkt_pos=1429696
1467width=320
1468height=240
1469pix_fmt=yuvj422p
1470sample_aspect_ratio=N/A
1471pict_type=I
1472coded_picture_number=0
1473display_picture_number=0
1474interlaced_frame=0
1475top_field_first=0
1476repeat_pict=0
1477reference=0
1478[/FRAME]
1479[FRAME]
1480media_type=video
1481key_frame=1
1482pkt_pts=63
1483pkt_pts_time=4.199958
1484pkt_dts=63
1485pkt_dts_time=4.199958
1486pkt_duration=1
1487pkt_duration_time=0.066666
1488pkt_pos=1451200
1489width=320
1490height=240
1491pix_fmt=yuvj422p
1492sample_aspect_ratio=N/A
1493pict_type=I
1494coded_picture_number=0
1495display_picture_number=0
1496interlaced_frame=0
1497top_field_first=0
1498repeat_pict=0
1499reference=0
1500[/FRAME]
1501[FRAME]
1502media_type=video
1503key_frame=1
1504pkt_pts=64
1505pkt_pts_time=4.266624
1506pkt_dts=64
1507pkt_dts_time=4.266624
1508pkt_duration=1
1509pkt_duration_time=0.066666
1510pkt_pos=1473248
1511width=320
1512height=240
1513pix_fmt=yuvj422p
1514sample_aspect_ratio=N/A
1515pict_type=I
1516coded_picture_number=0
1517display_picture_number=0
1518interlaced_frame=0
1519top_field_first=0
1520repeat_pict=0
1521reference=0
1522[/FRAME]
1523[FRAME]
1524media_type=video
1525key_frame=1
1526pkt_pts=65
1527pkt_pts_time=4.333290
1528pkt_dts=65
1529pkt_dts_time=4.333290
1530pkt_duration=1
1531pkt_duration_time=0.066666
1532pkt_pos=1494688
1533width=320
1534height=240
1535pix_fmt=yuvj422p
1536sample_aspect_ratio=N/A
1537pict_type=I
1538coded_picture_number=0
1539display_picture_number=0
1540interlaced_frame=0
1541top_field_first=0
1542repeat_pict=0
1543reference=0
1544[/FRAME]
1545[FRAME]
1546media_type=video
1547key_frame=1
1548pkt_pts=66
1549pkt_pts_time=4.399956
1550pkt_dts=66
1551pkt_dts_time=4.399956
1552pkt_duration=1
1553pkt_duration_time=0.066666
1554pkt_pos=1516416
1555width=320
1556height=240
1557pix_fmt=yuvj422p
1558sample_aspect_ratio=N/A
1559pict_type=I
1560coded_picture_number=0
1561display_picture_number=0
1562interlaced_frame=0
1563top_field_first=0
1564repeat_pict=0
1565reference=0
1566[/FRAME]
1567[FRAME]
1568media_type=video
1569key_frame=1
1570pkt_pts=67
1571pkt_pts_time=4.466622
1572pkt_dts=67
1573pkt_dts_time=4.466622
1574pkt_duration=1
1575pkt_duration_time=0.066666
1576pkt_pos=1537920
1577width=320
1578height=240
1579pix_fmt=yuvj422p
1580sample_aspect_ratio=N/A
1581pict_type=I
1582coded_picture_number=0
1583display_picture_number=0
1584interlaced_frame=0
1585top_field_first=0
1586repeat_pict=0
1587reference=0
1588[/FRAME]
1589[FRAME]
1590media_type=video
1591key_frame=1
1592pkt_pts=68
1593pkt_pts_time=4.533288
1594pkt_dts=68
1595pkt_dts_time=4.533288
1596pkt_duration=1
1597pkt_duration_time=0.066666
1598pkt_pos=1559616
1599width=320
1600height=240
1601pix_fmt=yuvj422p
1602sample_aspect_ratio=N/A
1603pict_type=I
1604coded_picture_number=0
1605display_picture_number=0
1606interlaced_frame=0
1607top_field_first=0
1608repeat_pict=0
1609reference=0
1610[/FRAME]
1611[FRAME]
1612media_type=video
1613key_frame=1
1614pkt_pts=69
1615pkt_pts_time=4.599954
1616pkt_dts=69
1617pkt_dts_time=4.599954
1618pkt_duration=1
1619pkt_duration_time=0.066666
1620pkt_pos=1581408
1621width=320
1622height=240
1623pix_fmt=yuvj422p
1624sample_aspect_ratio=N/A
1625pict_type=I
1626coded_picture_number=0
1627display_picture_number=0
1628interlaced_frame=0
1629top_field_first=0
1630repeat_pict=0
1631reference=0
1632[/FRAME]
1633[FRAME]
1634media_type=video
1635key_frame=1
1636pkt_pts=70
1637pkt_pts_time=4.666620
1638pkt_dts=70
1639pkt_dts_time=4.666620
1640pkt_duration=1
1641pkt_duration_time=0.066666
1642pkt_pos=1603392
1643width=320
1644height=240
1645pix_fmt=yuvj422p
1646sample_aspect_ratio=N/A
1647pict_type=I
1648coded_picture_number=0
1649display_picture_number=0
1650interlaced_frame=0
1651top_field_first=0
1652repeat_pict=0
1653reference=0
1654[/FRAME]
1655[FRAME]
1656media_type=video
1657key_frame=1
1658pkt_pts=71
1659pkt_pts_time=4.733286
1660pkt_dts=71
1661pkt_dts_time=4.733286
1662pkt_duration=1
1663pkt_duration_time=0.066666
1664pkt_pos=1625376
1665width=320
1666height=240
1667pix_fmt=yuvj422p
1668sample_aspect_ratio=N/A
1669pict_type=I
1670coded_picture_number=0
1671display_picture_number=0
1672interlaced_frame=0
1673top_field_first=0
1674repeat_pict=0
1675reference=0
1676[/FRAME]
1677[FRAME]
1678media_type=video
1679key_frame=1
1680pkt_pts=72
1681pkt_pts_time=4.799952
1682pkt_dts=72
1683pkt_dts_time=4.799952
1684pkt_duration=1
1685pkt_duration_time=0.066666
1686pkt_pos=1647616
1687width=320
1688height=240
1689pix_fmt=yuvj422p
1690sample_aspect_ratio=N/A
1691pict_type=I
1692coded_picture_number=0
1693display_picture_number=0
1694interlaced_frame=0
1695top_field_first=0
1696repeat_pict=0
1697reference=0
1698[/FRAME]
1699[FRAME]
1700media_type=video
1701key_frame=1
1702pkt_pts=73
1703pkt_pts_time=4.866618
1704pkt_dts=73
1705pkt_dts_time=4.866618
1706pkt_duration=1
1707pkt_duration_time=0.066666
1708pkt_pos=1670112
1709width=320
1710height=240
1711pix_fmt=yuvj422p
1712sample_aspect_ratio=N/A
1713pict_type=I
1714coded_picture_number=0
1715display_picture_number=0
1716interlaced_frame=0
1717top_field_first=0
1718repeat_pict=0
1719reference=0
1720[/FRAME]
1721[FRAME]
1722media_type=video
1723key_frame=1
1724pkt_pts=74
1725pkt_pts_time=4.933284
1726pkt_dts=74
1727pkt_dts_time=4.933284
1728pkt_duration=1
1729pkt_duration_time=0.066666
1730pkt_pos=1692416
1731width=320
1732height=240
1733pix_fmt=yuvj422p
1734sample_aspect_ratio=N/A
1735pict_type=I
1736coded_picture_number=0
1737display_picture_number=0
1738interlaced_frame=0
1739top_field_first=0
1740repeat_pict=0
1741reference=0
1742[/FRAME]
1743[FRAME]
1744media_type=audio
1745key_frame=1
1746pkt_pts=40000
1747pkt_pts_time=5.000000
1748pkt_dts=40000
1749pkt_dts_time=5.000000
1750pkt_duration=8000
1751pkt_duration_time=1.000000
1752pkt_pos=1715208
1753sample_fmt=u8
1754nb_samples=8000
1755channels=1
1756channel_layout=unknown
1757[/FRAME]
1758[FRAME]
1759media_type=video
1760key_frame=1
1761pkt_pts=75
1762pkt_pts_time=4.999950
1763pkt_dts=75
1764pkt_dts_time=4.999950
1765pkt_duration=1
1766pkt_duration_time=0.066666
1767pkt_pos=1723216
1768width=320
1769height=240
1770pix_fmt=yuvj422p
1771sample_aspect_ratio=N/A
1772pict_type=I
1773coded_picture_number=0
1774display_picture_number=0
1775interlaced_frame=0
1776top_field_first=0
1777repeat_pict=0
1778reference=0
1779[/FRAME]
1780[FRAME]
1781media_type=video
1782key_frame=1
1783pkt_pts=76
1784pkt_pts_time=5.066616
1785pkt_dts=76
1786pkt_dts_time=5.066616
1787pkt_duration=1
1788pkt_duration_time=0.066666
1789pkt_pos=1745568
1790width=320
1791height=240
1792pix_fmt=yuvj422p
1793sample_aspect_ratio=N/A
1794pict_type=I
1795coded_picture_number=0
1796display_picture_number=0
1797interlaced_frame=0
1798top_field_first=0
1799repeat_pict=0
1800reference=0
1801[/FRAME]
1802[FRAME]
1803media_type=video
1804key_frame=1
1805pkt_pts=77
1806pkt_pts_time=5.133282
1807pkt_dts=77
1808pkt_dts_time=5.133282
1809pkt_duration=1
1810pkt_duration_time=0.066666
1811pkt_pos=1768032
1812width=320
1813height=240
1814pix_fmt=yuvj422p
1815sample_aspect_ratio=N/A
1816pict_type=I
1817coded_picture_number=0
1818display_picture_number=0
1819interlaced_frame=0
1820top_field_first=0
1821repeat_pict=0
1822reference=0
1823[/FRAME]
1824[FRAME]
1825media_type=video
1826key_frame=1
1827pkt_pts=78
1828pkt_pts_time=5.199948
1829pkt_dts=78
1830pkt_dts_time=5.199948
1831pkt_duration=1
1832pkt_duration_time=0.066666
1833pkt_pos=1790624
1834width=320
1835height=240
1836pix_fmt=yuvj422p
1837sample_aspect_ratio=N/A
1838pict_type=I
1839coded_picture_number=0
1840display_picture_number=0
1841interlaced_frame=0
1842top_field_first=0
1843repeat_pict=0
1844reference=0
1845[/FRAME]
1846[FRAME]
1847media_type=video
1848key_frame=1
1849pkt_pts=79
1850pkt_pts_time=5.266614
1851pkt_dts=79
1852pkt_dts_time=5.266614
1853pkt_duration=1
1854pkt_duration_time=0.066666
1855pkt_pos=1813056
1856width=320
1857height=240
1858pix_fmt=yuvj422p
1859sample_aspect_ratio=N/A
1860pict_type=I
1861coded_picture_number=0
1862display_picture_number=0
1863interlaced_frame=0
1864top_field_first=0
1865repeat_pict=0
1866reference=0
1867[/FRAME]
1868[FRAME]
1869media_type=video
1870key_frame=1
1871pkt_pts=80
1872pkt_pts_time=5.333280
1873pkt_dts=80
1874pkt_dts_time=5.333280
1875pkt_duration=1
1876pkt_duration_time=0.066666
1877pkt_pos=1835328
1878width=320
1879height=240
1880pix_fmt=yuvj422p
1881sample_aspect_ratio=N/A
1882pict_type=I
1883coded_picture_number=0
1884display_picture_number=0
1885interlaced_frame=0
1886top_field_first=0
1887repeat_pict=0
1888reference=0
1889[/FRAME]
1890[FRAME]
1891media_type=video
1892key_frame=1
1893pkt_pts=81
1894pkt_pts_time=5.399946
1895pkt_dts=81
1896pkt_dts_time=5.399946
1897pkt_duration=1
1898pkt_duration_time=0.066666
1899pkt_pos=1857568
1900width=320
1901height=240
1902pix_fmt=yuvj422p
1903sample_aspect_ratio=N/A
1904pict_type=I
1905coded_picture_number=0
1906display_picture_number=0
1907interlaced_frame=0
1908top_field_first=0
1909repeat_pict=0
1910reference=0
1911[/FRAME]
1912[FRAME]
1913media_type=video
1914key_frame=1
1915pkt_pts=82
1916pkt_pts_time=5.466612
1917pkt_dts=82
1918pkt_dts_time=5.466612
1919pkt_duration=1
1920pkt_duration_time=0.066666
1921pkt_pos=1879840
1922width=320
1923height=240
1924pix_fmt=yuvj422p
1925sample_aspect_ratio=N/A
1926pict_type=I
1927coded_picture_number=0
1928display_picture_number=0
1929interlaced_frame=0
1930top_field_first=0
1931repeat_pict=0
1932reference=0
1933[/FRAME]
1934[FRAME]
1935media_type=video
1936key_frame=1
1937pkt_pts=83
1938pkt_pts_time=5.533278
1939pkt_dts=83
1940pkt_dts_time=5.533278
1941pkt_duration=1
1942pkt_duration_time=0.066666
1943pkt_pos=1902240
1944width=320
1945height=240
1946pix_fmt=yuvj422p
1947sample_aspect_ratio=N/A
1948pict_type=I
1949coded_picture_number=0
1950display_picture_number=0
1951interlaced_frame=0
1952top_field_first=0
1953repeat_pict=0
1954reference=0
1955[/FRAME]
1956[FRAME]
1957media_type=video
1958key_frame=1
1959pkt_pts=84
1960pkt_pts_time=5.599944
1961pkt_dts=84
1962pkt_dts_time=5.599944
1963pkt_duration=1
1964pkt_duration_time=0.066666
1965pkt_pos=1924480
1966width=320
1967height=240
1968pix_fmt=yuvj422p
1969sample_aspect_ratio=N/A
1970pict_type=I
1971coded_picture_number=0
1972display_picture_number=0
1973interlaced_frame=0
1974top_field_first=0
1975repeat_pict=0
1976reference=0
1977[/FRAME]
1978[FRAME]
1979media_type=video
1980key_frame=1
1981pkt_pts=85
1982pkt_pts_time=5.666610
1983pkt_dts=85
1984pkt_dts_time=5.666610
1985pkt_duration=1
1986pkt_duration_time=0.066666
1987pkt_pos=1946688
1988width=320
1989height=240
1990pix_fmt=yuvj422p
1991sample_aspect_ratio=N/A
1992pict_type=I
1993coded_picture_number=0
1994display_picture_number=0
1995interlaced_frame=0
1996top_field_first=0
1997repeat_pict=0
1998reference=0
1999[/FRAME]
2000[FRAME]
2001media_type=video
2002key_frame=1
2003pkt_pts=86
2004pkt_pts_time=5.733276
2005pkt_dts=86
2006pkt_dts_time=5.733276
2007pkt_duration=1
2008pkt_duration_time=0.066666
2009pkt_pos=1968960
2010width=320
2011height=240
2012pix_fmt=yuvj422p
2013sample_aspect_ratio=N/A
2014pict_type=I
2015coded_picture_number=0
2016display_picture_number=0
2017interlaced_frame=0
2018top_field_first=0
2019repeat_pict=0
2020reference=0
2021[/FRAME]
2022[FRAME]
2023media_type=video
2024key_frame=1
2025pkt_pts=87
2026pkt_pts_time=5.799942
2027pkt_dts=87
2028pkt_dts_time=5.799942
2029pkt_duration=1
2030pkt_duration_time=0.066666
2031pkt_pos=1991360
2032width=320
2033height=240
2034pix_fmt=yuvj422p
2035sample_aspect_ratio=N/A
2036pict_type=I
2037coded_picture_number=0
2038display_picture_number=0
2039interlaced_frame=0
2040top_field_first=0
2041repeat_pict=0
2042reference=0
2043[/FRAME]
2044[FRAME]
2045media_type=video
2046key_frame=1
2047pkt_pts=88
2048pkt_pts_time=5.866608
2049pkt_dts=88
2050pkt_dts_time=5.866608
2051pkt_duration=1
2052pkt_duration_time=0.066666
2053pkt_pos=2013344
2054width=320
2055height=240
2056pix_fmt=yuvj422p
2057sample_aspect_ratio=N/A
2058pict_type=I
2059coded_picture_number=0
2060display_picture_number=0
2061interlaced_frame=0
2062top_field_first=0
2063repeat_pict=0
2064reference=0
2065[/FRAME]
2066[FRAME]
2067media_type=video
2068key_frame=1
2069pkt_pts=89
2070pkt_pts_time=5.933274
2071pkt_dts=89
2072pkt_dts_time=5.933274
2073pkt_duration=1
2074pkt_duration_time=0.066666
2075pkt_pos=2035040
2076width=320
2077height=240
2078pix_fmt=yuvj422p
2079sample_aspect_ratio=N/A
2080pict_type=I
2081coded_picture_number=0
2082display_picture_number=0
2083interlaced_frame=0
2084top_field_first=0
2085repeat_pict=0
2086reference=0
2087[/FRAME]
2088[FRAME]
2089media_type=audio
2090key_frame=1
2091pkt_pts=48000
2092pkt_pts_time=6.000000
2093pkt_dts=48000
2094pkt_dts_time=6.000000
2095pkt_duration=5888
2096pkt_duration_time=0.736000
2097pkt_pos=2057224
2098sample_fmt=u8
2099nb_samples=5888
2100channels=1
2101channel_layout=unknown
2102[/FRAME]
2103[FRAME]
2104media_type=video
2105key_frame=1
2106pkt_pts=90
2107pkt_pts_time=5.999940
2108pkt_dts=90
2109pkt_dts_time=5.999940
2110pkt_duration=1
2111pkt_duration_time=0.066666
2112pkt_pos=2063120
2113width=320
2114height=240
2115pix_fmt=yuvj422p
2116sample_aspect_ratio=N/A
2117pict_type=I
2118coded_picture_number=0
2119display_picture_number=0
2120interlaced_frame=0
2121top_field_first=0
2122repeat_pict=0
2123reference=0
2124[/FRAME]
2125[FRAME]
2126media_type=video
2127key_frame=1
2128pkt_pts=91
2129pkt_pts_time=6.066606
2130pkt_dts=91
2131pkt_dts_time=6.066606
2132pkt_duration=1
2133pkt_duration_time=0.066666
2134pkt_pos=2084672
2135width=320
2136height=240
2137pix_fmt=yuvj422p
2138sample_aspect_ratio=N/A
2139pict_type=I
2140coded_picture_number=0
2141display_picture_number=0
2142interlaced_frame=0
2143top_field_first=0
2144repeat_pict=0
2145reference=0
2146[/FRAME]
2147[FRAME]
2148media_type=video
2149key_frame=1
2150pkt_pts=92
2151pkt_pts_time=6.133272
2152pkt_dts=92
2153pkt_dts_time=6.133272
2154pkt_duration=1
2155pkt_duration_time=0.066666
2156pkt_pos=2106304
2157width=320
2158height=240
2159pix_fmt=yuvj422p
2160sample_aspect_ratio=N/A
2161pict_type=I
2162coded_picture_number=0
2163display_picture_number=0
2164interlaced_frame=0
2165top_field_first=0
2166repeat_pict=0
2167reference=0
2168[/FRAME]
2169[FRAME]
2170media_type=video
2171key_frame=1
2172pkt_pts=93
2173pkt_pts_time=6.199938
2174pkt_dts=93
2175pkt_dts_time=6.199938
2176pkt_duration=1
2177pkt_duration_time=0.066666
2178pkt_pos=2127776
2179width=320
2180height=240
2181pix_fmt=yuvj422p
2182sample_aspect_ratio=N/A
2183pict_type=I
2184coded_picture_number=0
2185display_picture_number=0
2186interlaced_frame=0
2187top_field_first=0
2188repeat_pict=0
2189reference=0
2190[/FRAME]
2191[FRAME]
2192media_type=video
2193key_frame=1
2194pkt_pts=94
2195pkt_pts_time=6.266604
2196pkt_dts=94
2197pkt_dts_time=6.266604
2198pkt_duration=1
2199pkt_duration_time=0.066666
2200pkt_pos=2149696
2201width=320
2202height=240
2203pix_fmt=yuvj422p
2204sample_aspect_ratio=N/A
2205pict_type=I
2206coded_picture_number=0
2207display_picture_number=0
2208interlaced_frame=0
2209top_field_first=0
2210repeat_pict=0
2211reference=0
2212[/FRAME]
2213[FRAME]
2214media_type=video
2215key_frame=1
2216pkt_pts=95
2217pkt_pts_time=6.333270
2218pkt_dts=95
2219pkt_dts_time=6.333270
2220pkt_duration=1
2221pkt_duration_time=0.066666
2222pkt_pos=2171552
2223width=320
2224height=240
2225pix_fmt=yuvj422p
2226sample_aspect_ratio=N/A
2227pict_type=I
2228coded_picture_number=0
2229display_picture_number=0
2230interlaced_frame=0
2231top_field_first=0
2232repeat_pict=0
2233reference=0
2234[/FRAME]
2235[FRAME]
2236media_type=video
2237key_frame=1
2238pkt_pts=96
2239pkt_pts_time=6.399936
2240pkt_dts=96
2241pkt_dts_time=6.399936
2242pkt_duration=1
2243pkt_duration_time=0.066666
2244pkt_pos=2193632
2245width=320
2246height=240
2247pix_fmt=yuvj422p
2248sample_aspect_ratio=N/A
2249pict_type=I
2250coded_picture_number=0
2251display_picture_number=0
2252interlaced_frame=0
2253top_field_first=0
2254repeat_pict=0
2255reference=0
2256[/FRAME]
2257[FRAME]
2258media_type=video
2259key_frame=1
2260pkt_pts=97
2261pkt_pts_time=6.466602
2262pkt_dts=97
2263pkt_dts_time=6.466602
2264pkt_duration=1
2265pkt_duration_time=0.066666
2266pkt_pos=2215904
2267width=320
2268height=240
2269pix_fmt=yuvj422p
2270sample_aspect_ratio=N/A
2271pict_type=I
2272coded_picture_number=0
2273display_picture_number=0
2274interlaced_frame=0
2275top_field_first=0
2276repeat_pict=0
2277reference=0
2278[/FRAME]
2279[FRAME]
2280media_type=video
2281key_frame=1
2282pkt_pts=98
2283pkt_pts_time=6.533268
2284pkt_dts=98
2285pkt_dts_time=6.533268
2286pkt_duration=1
2287pkt_duration_time=0.066666
2288pkt_pos=2238272
2289width=320
2290height=240
2291pix_fmt=yuvj422p
2292sample_aspect_ratio=N/A
2293pict_type=I
2294coded_picture_number=0
2295display_picture_number=0
2296interlaced_frame=0
2297top_field_first=0
2298repeat_pict=0
2299reference=0
2300[/FRAME]
2301[FRAME]
2302media_type=video
2303key_frame=1
2304pkt_pts=99
2305pkt_pts_time=6.599934
2306pkt_dts=99
2307pkt_dts_time=6.599934
2308pkt_duration=1
2309pkt_duration_time=0.066666
2310pkt_pos=2261216
2311width=320
2312height=240
2313pix_fmt=yuvj422p
2314sample_aspect_ratio=N/A
2315pict_type=I
2316coded_picture_number=0
2317display_picture_number=0
2318interlaced_frame=0
2319top_field_first=0
2320repeat_pict=0
2321reference=0
2322[/FRAME]
2323[FRAME]
2324media_type=video
2325key_frame=1
2326pkt_pts=100
2327pkt_pts_time=6.666600
2328pkt_dts=100
2329pkt_dts_time=6.666600
2330pkt_duration=1
2331pkt_duration_time=0.066666
2332pkt_pos=2283872
2333width=320
2334height=240
2335pix_fmt=yuvj422p
2336sample_aspect_ratio=N/A
2337pict_type=I
2338coded_picture_number=0
2339display_picture_number=0
2340interlaced_frame=0
2341top_field_first=0
2342repeat_pict=0
2343reference=0
2344[/FRAME]