Ticket #2246: ffmpeg-20130207-122140.log

File ffmpeg-20130207-122140.log, 19.4 KB (added by divan, 4 years ago)

ffmpeg output log

Line 
1ffmpeg started on 2012-12-30 at 17:02:40
2Report written to "ffmpeg-20121230-170240.log"
3Command line:
4./ffmpeg -report -v 9 -loglevel 99 -i ./audio.wav -f image2 -r 2 -i "./picture%d.jpg" -acodec aac -ac 1 -ar 11025 -ab 64k -vcodec h263 -s qcif -r 2 -fs 307200 -strict -2 -y ./pictures.3gp
5ffmpeg version 1.1.git-d11ac64 Copyright (c) 2000-2013 the FFmpeg developers
6  built on Dec 30 2012 16:30:17 with gcc 4.1.2 (GCC) 20080704 (Red Hat 4.1.2-44)
7  configuration: --enable-static --extra-libs=-static --extra-cflags=--static --enable-libvpx
8  libavutil      52. 17.101 / 52. 17.101
9  libavcodec     54. 91.101 / 54. 91.101
10  libavformat    54. 61.104 / 54. 61.104
11  libavdevice    54.  3.103 / 54.  3.103
12  libavfilter     3. 35.101 /  3. 35.101
13  libswscale      2.  2.100 /  2.  2.100
14  libswresample   0. 17.102 /  0. 17.102
15Splitting the commandline.
16Reading option '-report' ... matched as option 'report' (generate a report) with argument '1'.
17Reading option '-v' ... matched as option 'v' (set libav* logging level) with argument '9'.
18Reading option '-loglevel' ... matched as option 'loglevel' (set libav* logging level) with argument '99'.
19Reading option '-i' ... matched as input file with argument './audio.wav'.
20Reading option '-f' ... matched as option 'f' (force format) with argument 'image2'.
21Reading option '-r' ... matched as option 'r' (set frame rate (Hz value, fraction or abbreviation)) with argument '2'.
22Reading option '-i' ... matched as input file with argument './picture%d.jpg'.
23Reading option '-acodec' ... matched as option 'acodec' (force audio codec ('copy' to copy stream)) with argument 'aac'.
24Reading option '-ac' ... matched as option 'ac' (set number of audio channels) with argument '1'.
25Reading option '-ar' ... matched as option 'ar' (set audio sampling rate (in Hz)) with argument '11025'.
26Reading option '-ab' ... matched as AVOption 'ab' with argument '64k'.
27Reading option '-vcodec' ... matched as option 'vcodec' (force video codec ('copy' to copy stream)) with argument 'h263'.
28Reading option '-s' ... matched as option 's' (set frame size (WxH or abbreviation)) with argument 'qcif'.
29Reading option '-r' ... matched as option 'r' (set frame rate (Hz value, fraction or abbreviation)) with argument '2'.
30Reading option '-fs' ... matched as option 'fs' (set the limit file size in bytes) with argument '307200'.
31Reading option '-strict' ... matched as AVOption 'strict' with argument '-2'.
32Reading option '-y' ... matched as option 'y' (overwrite output files) with argument '1'.
33Reading option './pictures.3gp' ... matched as output file.
34Finished splitting the commandline.
35Parsing a group of options: global .
36Applying option report (generate a report) with argument 1.
37Applying option v (set libav* logging level) with argument 9.
38Applying option loglevel (set libav* logging level) with argument 99.
39Applying option y (overwrite output files) with argument 1.
40Successfully parsed a group of options.
41Parsing a group of options: input file ./audio.wav.
42Successfully parsed a group of options.
43Opening an input file: ./audio.wav.
44[wav @ 0x9c193c0] Format wav probed with size=2048 and score=99
45[wav @ 0x9c193c0] File position before avformat_find_stream_info() is 44
46[wav @ 0x9c193c0] parser not found for codec pcm_s16le, packets or times may be invalid.
47[wav @ 0x9c193c0] probing stream 0 pp:4
48[wav @ 0x9c193c0] probing stream 0 pp:3
49[wav @ 0x9c193c0] probing stream 0 pp:2
50[wav @ 0x9c193c0] probing stream 0 pp:1
51[wav @ 0x9c193c0] probed stream 0
52[wav @ 0x9c193c0] parser not found for codec pcm_s16le, packets or times may be invalid.
53[wav @ 0x9c193c0] File position after avformat_find_stream_info() is 635953947
54Guessed Channel Layout for  Input Stream #0.0 : mono
55Input #0, wav, from './audio.wav':
56  Duration: 00:00:03.05, bitrate: 132 kb/s
57    Stream #0:0, 12, 1/8000: Audio: pcm_s16le ([1][0][0][0] / 0x0001), 8000 Hz, mono, s16, 128 kb/s
58Successfully opened the file.
59Parsing a group of options: input file ./picture%d.jpg.
60Applying option f (force format) with argument image2.
61Applying option r (set frame rate (Hz value, fraction or abbreviation)) with argument 2.
62Successfully parsed a group of options.
63Opening an input file: ./picture%d.jpg.
64[AVIOContext @ 0x9c2d9c0] Statistics: 4776 bytes read, 0 seeks
65[mjpeg @ 0x9c2a360] marker=d8 avail_size_in_buf=4774
66[mjpeg @ 0x9c2a360] marker parser used 0 bytes (0 bits)
67[mjpeg @ 0x9c2a360] marker=db avail_size_in_buf=4772
68[mjpeg @ 0x9c2a360] index=0
69[mjpeg @ 0x9c2a360] qscale[0]: 6
70[mjpeg @ 0x9c2a360] index=1
71[mjpeg @ 0x9c2a360] qscale[1]: 13
72[mjpeg @ 0x9c2a360] index=2
73[mjpeg @ 0x9c2a360] qscale[2]: 19
74[mjpeg @ 0x9c2a360] index=3
75[mjpeg @ 0x9c2a360] qscale[3]: 39
76[mjpeg @ 0x9c2a360] marker parser used 262 bytes (2096 bits)
77[mjpeg @ 0x9c2a360] marker=c4 avail_size_in_buf=4508
78[mjpeg @ 0x9c2a360] class=0 index=0 nb_codes=12
79[mjpeg @ 0x9c2a360] class=0 index=1 nb_codes=12
80[mjpeg @ 0x9c2a360] class=1 index=0 nb_codes=251
81[mjpeg @ 0x9c2a360] class=1 index=1 nb_codes=251
82[mjpeg @ 0x9c2a360] marker parser used 418 bytes (3344 bits)
83[mjpeg @ 0x9c2a360] marker=c0 avail_size_in_buf=4088
84[mjpeg @ 0x9c2a360] sof0: picture: 320x240
85[mjpeg @ 0x9c2a360] component 0 2:1 id: -1 quant:2
86[mjpeg @ 0x9c2a360] component 1 1:1 id: 0 quant:3
87[mjpeg @ 0x9c2a360] component 2 1:1 id: 1 quant:3
88[mjpeg @ 0x9c2a360] pix fmt id 21111100
89[mjpeg @ 0x9c2a360] marker parser used 17 bytes (136 bits)
90[mjpeg @ 0x9c2a360] escaping removed 9 bytes
91[mjpeg @ 0x9c2a360] marker=da avail_size_in_buf=4069
92[mjpeg @ 0x9c2a360] component: -1
93[mjpeg @ 0x9c2a360] component: 0
94[mjpeg @ 0x9c2a360] component: 1
95[mjpeg @ 0x9c2a360] marker parser used 4059 bytes (32470 bits)
96[mjpeg @ 0x9c2a360] marker=d9 avail_size_in_buf=0
97[mjpeg @ 0x9c2a360] decode frame unused 0 bytes
98[AVIOContext @ 0x9c2a780] Statistics: 4900 bytes read, 0 seeks
99[AVIOContext @ 0x9c218a0] Statistics: 4988 bytes read, 0 seeks
100[AVIOContext @ 0x9c19b40] Statistics: 5032 bytes read, 0 seeks
101[AVIOContext @ 0x9c19ba0] Statistics: 5008 bytes read, 0 seeks
102[AVIOContext @ 0x9c21180] Statistics: 5016 bytes read, 0 seeks
103rfps: 1.833333 0.013889
104rfps: 1.833333 0.013889
105rfps: 1.916667 0.003472
106rfps: 1.916667 0.003472
107rfps: 2.000000 0.000000
108rfps: 2.083333 0.003472
109rfps: 2.083333 0.003472
110rfps: 2.166667 0.013889
111rfps: 2.166667 0.013889
112rfps: 3.833333 0.013889
113rfps: 3.833333 0.013889
114rfps: 3.916667 0.003472
115rfps: 3.916667 0.003472
116rfps: 4.000000 0.000000
117rfps: 4.000000 0.000000
118rfps: 4.083333 0.003472
119rfps: 4.083333 0.003472
120rfps: 4.166667 0.013889
121rfps: 4.166667 0.013889
122rfps: 5.833333 0.013889
123rfps: 5.833333 0.013889
124rfps: 5.916667 0.003472
125rfps: 5.916667 0.003472
126rfps: 6.000000 0.000000
127rfps: 6.083333 0.003472
128rfps: 6.083333 0.003472
129rfps: 6.166667 0.013889
130rfps: 6.166667 0.013889
131rfps: 7.833333 0.013889
132rfps: 7.833333 0.013889
133rfps: 7.916667 0.003472
134rfps: 7.916667 0.003472
135rfps: 8.000000 0.000000
136rfps: 8.000000 0.000000
137rfps: 8.083333 0.003472
138rfps: 8.083333 0.003472
139rfps: 8.166667 0.013889
140rfps: 8.166667 0.013889
141rfps: 9.833333 0.013889
142rfps: 9.833333 0.013889
143rfps: 9.916667 0.003472
144rfps: 9.916667 0.003472
145rfps: 10.000000 0.000000
146rfps: 10.083333 0.003472
147rfps: 10.083333 0.003472
148rfps: 10.166667 0.013889
149rfps: 10.166667 0.013889
150rfps: 11.833333 0.013889
151rfps: 11.833333 0.013889
152rfps: 11.916667 0.003472
153rfps: 11.916667 0.003472
154rfps: 12.000000 0.000000
155rfps: 12.000000 0.000000
156rfps: 12.083333 0.003472
157rfps: 12.083333 0.003472
158rfps: 12.166667 0.013889
159rfps: 12.166667 0.013889
160rfps: 13.833333 0.013889
161rfps: 13.833333 0.013889
162rfps: 13.916667 0.003472
163rfps: 13.916667 0.003472
164rfps: 14.000000 0.000000
165rfps: 14.083333 0.003472
166rfps: 14.083333 0.003472
167rfps: 14.166667 0.013889
168rfps: 14.166667 0.013889
169rfps: 15.833333 0.013889
170rfps: 15.833333 0.013889
171rfps: 15.916667 0.003472
172rfps: 15.916667 0.003472
173rfps: 16.000000 0.000000
174rfps: 16.000000 0.000000
175rfps: 16.083333 0.003472
176rfps: 16.083333 0.003472
177rfps: 16.166667 0.013889
178rfps: 16.166667 0.013889
179rfps: 17.833333 0.013889
180rfps: 17.833333 0.013889
181rfps: 17.916667 0.003472
182rfps: 17.916667 0.003472
183rfps: 18.000000 0.000000
184rfps: 18.083333 0.003472
185rfps: 18.083333 0.003472
186rfps: 18.166667 0.013889
187rfps: 18.166667 0.013889
188rfps: 19.833333 0.013889
189rfps: 19.833333 0.013889
190rfps: 19.916667 0.003472
191rfps: 19.916667 0.003472
192rfps: 20.000000 0.000000
193rfps: 20.000000 0.000000
194rfps: 20.083333 0.003472
195rfps: 20.083333 0.003472
196rfps: 20.166667 0.013889
197rfps: 20.166667 0.013889
198rfps: 21.833333 0.013889
199rfps: 21.833333 0.013889
200rfps: 21.916667 0.003472
201rfps: 21.916667 0.003472
202rfps: 22.000000 0.000000
203rfps: 22.083333 0.003472
204rfps: 22.083333 0.003472
205rfps: 22.166667 0.013889
206rfps: 22.166667 0.013889
207rfps: 23.833333 0.013889
208rfps: 23.833333 0.013889
209rfps: 23.916667 0.003472
210rfps: 23.916667 0.003472
211rfps: 24.000000 0.000000
212rfps: 24.000000 0.000000
213rfps: 24.083333 0.003472
214rfps: 24.083333 0.003472
215rfps: 24.166667 0.013889
216rfps: 24.166667 0.013889
217rfps: 25.833333 0.013889
218rfps: 25.833333 0.013889
219rfps: 25.916667 0.003472
220rfps: 25.916667 0.003472
221rfps: 26.000000 0.000000
222rfps: 26.083333 0.003472
223rfps: 26.083333 0.003472
224rfps: 26.166667 0.013889
225rfps: 26.166667 0.013889
226rfps: 27.833333 0.013889
227rfps: 27.833333 0.013889
228rfps: 27.916667 0.003472
229rfps: 27.916667 0.003472
230rfps: 28.000000 0.000000
231rfps: 28.000000 0.000000
232rfps: 28.083333 0.003472
233rfps: 28.083333 0.003472
234rfps: 28.166667 0.013889
235rfps: 28.166667 0.013889
236rfps: 29.833333 0.013889
237rfps: 29.833333 0.013889
238rfps: 29.916667 0.003472
239rfps: 29.916667 0.003472
240rfps: 30.000000 0.000000
241rfps: 30.083333 0.003472
242rfps: 30.083333 0.003472
243rfps: 30.166667 0.013889
244rfps: 30.166667 0.013889
245rfps: 31.833333 0.013889
246rfps: 31.833333 0.013889
247rfps: 31.916667 0.003472
248rfps: 31.916667 0.003472
249rfps: 32.000000 0.000000
250rfps: 32.000000 0.000000
251rfps: 32.083333 0.003472
252rfps: 32.083333 0.003472
253rfps: 32.166667 0.013889
254rfps: 32.166667 0.013889
255rfps: 33.833333 0.013889
256rfps: 33.833333 0.013889
257rfps: 33.916667 0.003472
258rfps: 33.916667 0.003472
259rfps: 34.000000 0.000000
260rfps: 34.083333 0.003472
261rfps: 34.083333 0.003472
262rfps: 34.166667 0.013889
263rfps: 34.166667 0.013889
264rfps: 35.833333 0.013889
265rfps: 35.833333 0.013889
266rfps: 35.916667 0.003472
267rfps: 35.916667 0.003472
268rfps: 36.000000 0.000000
269rfps: 36.000000 0.000000
270rfps: 36.083333 0.003472
271rfps: 36.083333 0.003472
272rfps: 36.166667 0.013889
273rfps: 36.166667 0.013889
274rfps: 37.833333 0.013889
275rfps: 37.833333 0.013889
276rfps: 37.916667 0.003472
277rfps: 37.916667 0.003472
278rfps: 38.000000 0.000000
279rfps: 38.083333 0.003472
280rfps: 38.083333 0.003472
281rfps: 38.166667 0.013889
282rfps: 38.166667 0.013889
283rfps: 39.833333 0.013889
284rfps: 39.833333 0.013889
285rfps: 39.916667 0.003472
286rfps: 39.916667 0.003472
287rfps: 40.000000 0.000000
288rfps: 40.000000 0.000000
289rfps: 40.083333 0.003472
290rfps: 40.083333 0.003472
291rfps: 40.166667 0.013889
292rfps: 40.166667 0.013889
293rfps: 41.833333 0.013889
294rfps: 41.833333 0.013889
295rfps: 41.916667 0.003472
296rfps: 41.916667 0.003472
297rfps: 42.000000 0.000000
298rfps: 42.083333 0.003472
299rfps: 42.083333 0.003472
300rfps: 42.166667 0.013889
301rfps: 42.166667 0.013889
302rfps: 43.833333 0.013889
303rfps: 43.833333 0.013889
304rfps: 43.916667 0.003472
305rfps: 43.916667 0.003472
306rfps: 44.000000 0.000000
307rfps: 44.000000 0.000000
308rfps: 44.083333 0.003472
309rfps: 44.083333 0.003472
310rfps: 44.166667 0.013889
311rfps: 44.166667 0.013889
312rfps: 45.833333 0.013889
313rfps: 45.833333 0.013889
314rfps: 45.916667 0.003472
315rfps: 45.916667 0.003472
316rfps: 46.000000 0.000000
317rfps: 46.083333 0.003472
318rfps: 46.083333 0.003472
319rfps: 46.166667 0.013889
320rfps: 46.166667 0.013889
321rfps: 47.833333 0.013889
322rfps: 47.833333 0.013889
323rfps: 47.916667 0.003472
324rfps: 47.916667 0.003472
325rfps: 48.000000 0.000000
326rfps: 48.000000 0.000000
327rfps: 48.083333 0.003472
328rfps: 48.083333 0.003472
329rfps: 48.166667 0.013889
330rfps: 48.166667 0.013889
331rfps: 49.833333 0.013889
332rfps: 49.833333 0.013889
333rfps: 49.916667 0.003472
334rfps: 49.916667 0.003472
335rfps: 50.000000 0.000000
336rfps: 50.083333 0.003472
337rfps: 50.083333 0.003472
338rfps: 50.166667 0.013889
339rfps: 50.166667 0.013889
340rfps: 51.833333 0.013889
341rfps: 51.833333 0.013889
342rfps: 51.916667 0.003472
343rfps: 51.916667 0.003472
344rfps: 52.000000 0.000000
345rfps: 52.000000 0.000000
346rfps: 52.083333 0.003472
347rfps: 52.083333 0.003472
348rfps: 52.166667 0.013889
349rfps: 52.166667 0.013889
350rfps: 53.833333 0.013889
351rfps: 53.833333 0.013889
352rfps: 53.916667 0.003472
353rfps: 53.916667 0.003472
354rfps: 54.000000 0.000000
355rfps: 54.083333 0.003472
356rfps: 54.083333 0.003472
357rfps: 54.166667 0.013889
358rfps: 54.166667 0.013889
359rfps: 55.833333 0.013889
360rfps: 55.833333 0.013889
361rfps: 55.916667 0.003472
362rfps: 55.916667 0.003472
363rfps: 56.000000 0.000000
364rfps: 56.000000 0.000000
365rfps: 56.083333 0.003472
366rfps: 56.083333 0.003472
367rfps: 56.166667 0.013889
368rfps: 56.166667 0.013889
369rfps: 57.833333 0.013889
370rfps: 57.833333 0.013889
371rfps: 57.916667 0.003472
372rfps: 57.916667 0.003472
373rfps: 58.000000 0.000000
374rfps: 58.083333 0.003472
375rfps: 58.083333 0.003472
376rfps: 58.166667 0.013889
377rfps: 58.166667 0.013889
378rfps: 59.833333 0.013889
379rfps: 59.833333 0.013889
380rfps: 59.916667 0.003472
381rfps: 59.916667 0.003472
382rfps: 60.000000 0.000000
383rfps: 60.000000 0.000000
384rfps: 23.976024 0.000287
385rfps: 23.976024 0.000287
386rfps: 29.970030 0.000449
387rfps: 29.970030 0.000449
388rfps: 59.940060 0.001796
389rfps: 59.940060 0.001796
390rfps: 11.988012 0.000072
391rfps: 11.988012 0.000072
392rfps: 47.952048 0.001150
393rfps: 47.952048 0.001150
394Input #1, image2, from './picture%d.jpg':
395  Duration: 00:00:03.00, start: 0.000000, bitrate: N/A
396    Stream #1:0, 6, 1/2: Video: mjpeg, yuvj422p, 320x240, 1/2, 2 fps, 2 tbr, 2 tbn, 2 tbc
397Successfully opened the file.
398Parsing a group of options: output file ./pictures.3gp.
399Applying option acodec (force audio codec ('copy' to copy stream)) with argument aac.
400Applying option ac (set number of audio channels) with argument 1.
401Applying option ar (set audio sampling rate (in Hz)) with argument 11025.
402Applying option vcodec (force video codec ('copy' to copy stream)) with argument h263.
403Applying option s (set frame size (WxH or abbreviation)) with argument qcif.
404Applying option r (set frame rate (Hz value, fraction or abbreviation)) with argument 2.
405Applying option fs (set the limit file size in bytes) with argument 307200.
406Successfully parsed a group of options.
407Opening an output file: ./pictures.3gp.
408Successfully opened the file.
409[buffer @ 0x9bf7fc0] Setting entry with key 'video_size' to value '320x240'
410[buffer @ 0x9bf7fc0] Setting entry with key 'pix_fmt' to value '13'
411[buffer @ 0x9bf7fc0] Setting entry with key 'time_base' to value '1/2'
412[buffer @ 0x9bf7fc0] Setting entry with key 'pixel_aspect' to value '0/1'
413[buffer @ 0x9bf7fc0] Setting entry with key 'sws_param' to value 'flags=2'
414[buffer @ 0x9bf7fc0] Setting entry with key 'frame_rate' to value '2/1'
415[graph 0 input from stream 1:0 @ 0x9bf8420] w:320 h:240 pixfmt:yuvj422p tb:1/2 fr:2/1 sar:0/1 sws_param:flags=2
416[scale @ 0x9bf8180] Setting 'w' to value '176'
417[scale @ 0x9bf8180] Setting 'h' to value '144'
418[scale @ 0x9bf8180] Setting 'flags' to value '0x4'
419[scaler for output stream 0:0 @ 0x9c3f9e0] w:176 h:144 flags:'0x4' interl:0
420[graph 0 input from stream 1:0 @ 0x9bf8420] TB:0.500000 FRAME_RATE:2.000000 SAMPLE_RATE:nan
421[scaler for output stream 0:0 @ 0x9c3f9e0] w:320 h:240 fmt:yuvj422p sar:0/1 -> w:176 h:144 fmt:yuv420p sar:0/1 flags:0x4
422[abuffer @ 0x9c0e240] Setting entry with key 'time_base' to value '1/8000'
423[abuffer @ 0x9c0e240] Setting entry with key 'sample_rate' to value '8000'
424[abuffer @ 0x9c0e240] Setting entry with key 'sample_fmt' to value 's16'
425[abuffer @ 0x9c0e240] Setting entry with key 'channel_layout' to value '0x4'
426[graph 1 input from stream 0:0 @ 0x9c18440] tb:1/8000 samplefmt:s16 samplerate:8000 chlayout:0x4
427[aformat @ 0x9c1d680] Setting entry with key 'sample_fmts' to value 'fltp'
428[aformat @ 0x9c1d680] Setting entry with key 'sample_rates' to value '11025'
429[aformat @ 0x9c1d680] Setting entry with key 'channel_layouts' to value '0x4'
430[audio format for output stream 0:1 @ 0x9bf5640] auto-inserting filter 'auto-inserted resampler 0' between the filter 'Parsed_anull_0' and the filter 'audio format for output stream 0:1'
431[auto-inserted resampler 0 @ 0x9c0b5a0] ch:1 chl:mono fmt:s16 r:8000Hz -> ch:1 chl:mono fmt:fltp r:11025Hz
432[h263 @ 0x9c45060] intra_quant_bias = 0 inter_quant_bias = -64
433Output #0, 3gp, to './pictures.3gp':
434  Metadata:
435    encoder         : Lavf54.61.104
436    Stream #0:0, 0, 1/16384: Video: h263 (s263 / 0x33363273), yuv420p, 176x144, 1/2, q=2-31, 200 kb/s, 16384 tbn, 2 tbc
437    Stream #0:1, 0, 1/11025: Audio: aac (mp4a / 0x6134706D), 11025 Hz, mono, fltp, 64 kb/s
438Stream mapping:
439  Stream #1:0 -> #0:0 (mjpeg -> h263)
440  Stream #0:0 -> #0:1 (pcm_s16le -> aac)
441Press [q] to stop, [?] for help
442[mjpeg @ 0x9c2a360] marker=d8 avail_size_in_buf=4774
443[mjpeg @ 0x9c2a360] marker parser used 0 bytes (0 bits)
444[mjpeg @ 0x9c2a360] marker=db avail_size_in_buf=4772
445[mjpeg @ 0x9c2a360] index=0
446[mjpeg @ 0x9c2a360] qscale[0]: 6
447[mjpeg @ 0x9c2a360] index=1
448[mjpeg @ 0x9c2a360] qscale[1]: 13
449[mjpeg @ 0x9c2a360] index=2
450[mjpeg @ 0x9c2a360] qscale[2]: 19
451[mjpeg @ 0x9c2a360] index=3
452[mjpeg @ 0x9c2a360] qscale[3]: 39
453[mjpeg @ 0x9c2a360] marker parser used 262 bytes (2096 bits)
454[mjpeg @ 0x9c2a360] marker=c4 avail_size_in_buf=4508
455[mjpeg @ 0x9c2a360] class=0 index=0 nb_codes=12
456[mjpeg @ 0x9c2a360] class=0 index=1 nb_codes=12
457[mjpeg @ 0x9c2a360] class=1 index=0 nb_codes=251
458[mjpeg @ 0x9c2a360] class=1 index=1 nb_codes=251
459[mjpeg @ 0x9c2a360] marker parser used 418 bytes (3344 bits)
460[mjpeg @ 0x9c2a360] marker=c0 avail_size_in_buf=4088
461[mjpeg @ 0x9c2a360] sof0: picture: 320x240
462[mjpeg @ 0x9c2a360] component 0 2:1 id: -1 quant:2
463[mjpeg @ 0x9c2a360] component 1 1:1 id: 0 quant:3
464[mjpeg @ 0x9c2a360] component 2 1:1 id: 1 quant:3
465[mjpeg @ 0x9c2a360] pix fmt id 21111100
466[mjpeg @ 0x9c2a360] marker parser used 17 bytes (136 bits)
467[mjpeg @ 0x9c2a360] escaping removed 9 bytes
468[mjpeg @ 0x9c2a360] marker=da avail_size_in_buf=4069
469[mjpeg @ 0x9c2a360] component: -1
470[mjpeg @ 0x9c2a360] component: 0
471[mjpeg @ 0x9c2a360] component: 1
472[mjpeg @ 0x9c2a360] marker parser used 4059 bytes (32470 bits)
473[mjpeg @ 0x9c2a360] marker=d9 avail_size_in_buf=0
474[mjpeg @ 0x9c2a360] decode frame unused 0 bytes
475[force CFR for input from stream 1:0 @ 0x9bf88c0] N:0 PTS:0 T:0.000000 POS:nan INTERLACED:0 -> PTS:0 T:0.000000
476[mjpeg @ 0x9c2a360] marker=d8 avail_size_in_buf=4898
477[mjpeg @ 0x9c2a360] marker parser used 0 bytes (0 bits)
478[mjpeg @ 0x9c2a360] marker=db avail_size_in_buf=4896
479[mjpeg @ 0x9c2a360] index=0
480[mjpeg @ 0x9c2a360] qscale[0]: 6
481[mjpeg @ 0x9c2a360] index=1
482[mjpeg @ 0x9c2a360] qscale[1]: 13
483[mjpeg @ 0x9c2a360] index=2
484[mjpeg @ 0x9c2a360] qscale[2]: 19
485[mjpeg @ 0x9c2a360] index=3
486[mjpeg @ 0x9c2a360] qscale[3]: 39
487[mjpeg @ 0x9c2a360] marker parser used 262 bytes (2096 bits)
488[mjpeg @ 0x9c2a360] marker=c4 avail_size_in_buf=4632
489[mjpeg @ 0x9c2a360] class=0 index=0 nb_codes=12
490[mjpeg @ 0x9c2a360] class=0 index=1 nb_codes=12
491[mjpeg @ 0x9c2a360] class=1 index=0 nb_codes=251
492[mjpeg @ 0x9c2a360] class=1 index=1 nb_codes=251
493[mjpeg @ 0x9c2a360] marker parser used 418 bytes (3344 bits)
494[mjpeg @ 0x9c2a360] marker=c0 avail_size_in_buf=4212
495[mjpeg @ 0x9c2a360] sof0: picture: 320x240
496[mjpeg @ 0x9c2a360] component 0 2:1 id: -1 quant:2
497[mjpeg @ 0x9c2a360] component 1 1:1 id: 0 quant:3
498[mjpeg @ 0x9c2a360] component 2 1:1 id: 1 quant:3
499[mjpeg @ 0x9c2a360] pix fmt id 21111100
500[mjpeg @ 0x9c2a360] marker parser used 17 bytes (136 bits)
501[mjpeg @ 0x9c2a360] escaping removed 11 bytes
502[mjpeg @ 0x9c2a360] marker=da avail_size_in_buf=4193
503[mjpeg @ 0x9c2a360] component: -1
504[mjpeg @ 0x9c2a360] component: 0
505[mjpeg @ 0x9c2a360] component: 1
506[mjpeg @ 0x9c2a360] marker parser used 4181 bytes (33445 bits)
507[mjpeg @ 0x9c2a360] marker=d9 avail_size_in_buf=0
508[mjpeg @ 0x9c2a360] decode frame unused 0 bytes
509[force CFR for input from stream 1:0 @ 0x9bf88c0] N:1 PTS:1 T:0.500000 POS:nan INTERLACED:0 -> PTS:1 T:0.500000