Ticket #2236: ffmpeg-report_hls-out.log

File ffmpeg-report_hls-out.log, 6.5 KB (added by nealzebub, 4 years ago)

Report of HLS output, relying on auto stream selection

Line 
1ffmpeg started on 2013-02-04 at 12:08:21
2Report written to "ffmpeg-20130204-120821.log"
3Command line:
4./ffmpeg.20130204 -report -i ./source_media/bigbuckbunny_1500.mp4 -frames:v 480 -c:v libx264 -crf 25 -profile:v baseline -g 48 -sc_threshold 0 -flags +cgop -c:a aac -strict -2 -b:a 112k -f ssegment -segment_time 10 -segment_format mpegts "hls_%02d.ts"
5ffmpeg version N-49571-gb5f544a Copyright (c) 2000-2013 the FFmpeg developers
6  built on Feb  4 2013 05:23:01 with gcc 4.6 (Debian 4.6.3-1)
7  configuration: --prefix=/root/ffmpeg-static/64bit --extra-cflags='-I/root/ffmpeg-static/64bit/include -static' --extra-ldflags='-L/root/ffmpeg-static/64bit/lib -static' --extra-libs='-lxml2 -lexpat -lfreetype' --enable-static --disable-shared --disable-ffserver --disable-doc --enable-bzlib --enable-zlib --enable-postproc --enable-runtime-cpudetect --enable-libx264 --enable-gpl --enable-libtheora --enable-libvorbis --enable-libmp3lame --enable-gray --enable-libass --enable-libfreetype --enable-libopenjpeg --enable-libspeex --enable-libvo-aacenc --enable-libvo-amrwbenc --enable-version3 --enable-libvpx
8  libavutil      52. 17.101 / 52. 17.101
9  libavcodec     54. 91.100 / 54. 91.100
10  libavformat    54. 61.104 / 54. 61.104
11  libavdevice    54.  3.103 / 54.  3.103
12  libavfilter     3. 35.101 /  3. 35.101
13  libswscale      2.  2.100 /  2.  2.100
14  libswresample   0. 17.102 /  0. 17.102
15  libpostproc    52.  2.100 / 52.  2.100
16Splitting the commandline.
17Reading option '-report' ... matched as option 'report' (generate a report) with argument '1'.
18Reading option '-i' ... matched as input file with argument './source_media/bigbuckbunny_1500.mp4'.
19Reading option '-frames:v' ... matched as option 'frames' (set the number of frames to record) with argument '480'.
20Reading option '-c:v' ... matched as option 'c' (codec name) with argument 'libx264'.
21Reading option '-crf' ... matched as AVOption 'crf' with argument '25'.
22Reading option '-profile:v' ... matched as option 'profile' (set profile) with argument 'baseline'.
23Reading option '-g' ... matched as AVOption 'g' with argument '48'.
24Reading option '-sc_threshold' ... matched as AVOption 'sc_threshold' with argument '0'.
25Reading option '-flags' ... matched as AVOption 'flags' with argument '+cgop'.
26Reading option '-c:a' ... matched as option 'c' (codec name) with argument 'aac'.
27Reading option '-strict' ... matched as AVOption 'strict' with argument '-2'.
28Reading option '-b:a' ... matched as option 'b' (video bitrate (please use -b:v)) with argument '112k'.
29Reading option '-f' ... matched as option 'f' (force format) with argument 'ssegment'.
30Reading option '-segment_time' ... matched as AVOption 'segment_time' with argument '10'.
31Reading option '-segment_format' ... matched as AVOption 'segment_format' with argument 'mpegts'.
32Reading option 'hls_%02d.ts' ... matched as output file.
33Finished splitting the commandline.
34Parsing a group of options: global .
35Applying option report (generate a report) with argument 1.
36Successfully parsed a group of options.
37Parsing a group of options: input file ./source_media/bigbuckbunny_1500.mp4.
38Successfully parsed a group of options.
39Opening an input file: ./source_media/bigbuckbunny_1500.mp4.
40[mov,mp4,m4a,3gp,3g2,mj2 @ 0x2ad0a20] Format mov,mp4,m4a,3gp,3g2,mj2 probed with size=2048 and score=100
41[mov,mp4,m4a,3gp,3g2,mj2 @ 0x2ad0a20] ISO: File Type Major Brand: isom
42[mov,mp4,m4a,3gp,3g2,mj2 @ 0x2ad0a20] File position before avformat_find_stream_info() is 114213748
43[h264 @ 0x2ad7260] Increasing reorder buffer to 1
44[h264 @ 0x2ad7260] no picture ooo
45[h264 @ 0x2ad7260] no picture
46[mov,mp4,m4a,3gp,3g2,mj2 @ 0x2ad0a20] All info found
47rfps: 23.416667 0.019644
48rfps: 23.416667 0.019644
49rfps: 23.500000 0.014433
50rfps: 23.500000 0.014433
51rfps: 23.583333 0.010023
52rfps: 23.583333 0.010023
53rfps: 23.666667 0.006415
54rfps: 23.666667 0.006415
55rfps: 23.750000 0.003608
56rfps: 23.750000 0.003608
57rfps: 23.833333 0.001604
58rfps: 23.833333 0.001604
59rfps: 23.916667 0.000401
60rfps: 23.916667 0.000401
61rfps: 24.000000 0.000000
62rfps: 24.083333 0.000401
63rfps: 24.083333 0.000401
64rfps: 24.166667 0.001603
65rfps: 24.166667 0.001603
66rfps: 24.250000 0.003607
67rfps: 24.250000 0.003607
68rfps: 24.333333 0.006413
69rfps: 24.333333 0.006413
70rfps: 24.416667 0.010021
71rfps: 24.416667 0.010021
72rfps: 24.500000 0.014430
73rfps: 24.500000 0.014430
74rfps: 24.583333 0.019641
75rfps: 24.583333 0.019641
76rfps: 47.416667 0.019645
77rfps: 47.416667 0.019645
78rfps: 47.500000 0.014434
79rfps: 47.500000 0.014434
80rfps: 47.583333 0.010024
81rfps: 47.583333 0.010024
82rfps: 47.666667 0.006416
83rfps: 47.666667 0.006416
84rfps: 47.750000 0.003609
85rfps: 47.750000 0.003609
86rfps: 47.833333 0.001604
87rfps: 47.833333 0.001604
88rfps: 47.916667 0.000401
89rfps: 47.916667 0.000401
90rfps: 48.000000 0.000000
91rfps: 48.083333 0.000401
92rfps: 48.083333 0.000401
93rfps: 48.166667 0.001603
94rfps: 48.166667 0.001603
95rfps: 48.250000 0.003607
96rfps: 48.250000 0.003607
97rfps: 48.333333 0.006412
98rfps: 48.333333 0.006412
99rfps: 48.416667 0.010020
100rfps: 48.416667 0.010020
101rfps: 48.500000 0.014429
102rfps: 48.500000 0.014429
103rfps: 48.583333 0.019640
104rfps: 48.583333 0.019640
105rfps: 23.976024 0.000033
106rfps: 23.976024 0.000033
107rfps: 47.952048 0.000133
108rfps: 47.952048 0.000133
109[mov,mp4,m4a,3gp,3g2,mj2 @ 0x2ad0a20] File position after avformat_find_stream_info() is 27957
110Input #0, mov,mp4,m4a,3gp,3g2,mj2, from './source_media/bigbuckbunny_1500.mp4':
111  Metadata:
112    major_brand     : isom
113    minor_version   : 0
114    compatible_brands: isomavc1mp42isom
115  Duration: 00:09:56.46, start: 0.000000, bitrate: 1531 kb/s
116    Stream #0:0(eng), 21, 1/100000: Video: h264 (Main) (avc1 / 0x31637661), yuv420p, 1080x608, 1393 kb/s, 24 fps, 24 tbr, 100k tbn, 200k tbc
117    Metadata:
118      handler_name    : VideoHandler
119    Stream #0:1(eng), 40, 1/48000: Audio: aac (mp4a / 0x6134706D), 48000 Hz, stereo, fltp, 131 kb/s
120    Metadata:
121      handler_name    : SoundHandler
122Successfully opened the file.
123Parsing a group of options: output file hls_%02d.ts.
124Applying option frames:v (set the number of frames to record) with argument 480.
125Applying option c:v (codec name) with argument libx264.
126Applying option profile:v (set profile) with argument baseline.
127Applying option c:a (codec name) with argument aac.
128Applying option b:a (video bitrate (please use -b:v)) with argument 112k.
129Applying option f (force format) with argument ssegment.
130Successfully parsed a group of options.
131Opening an output file: hls_%02d.ts.
132Successfully opened the file.
133Output #0, stream_segment,ssegment, to 'hls_%02d.ts':
134  Metadata:
135    major_brand     : isom
136    minor_version   : 0
137    compatible_brands: isomavc1mp42isom
138Output file #0 does not contain any stream
139Statistics: 595406 bytes read, 2 seeks