Ticket #2230: ffprobe-report_hls.log

File ffprobe-report_hls.log, 2.4 KB (added by nealzebub, 3 years ago)

FFprobe report reading the first HLS segment with specifed metadata.

Line 
1ffprobe started on 2013-02-02 at 20:44:12
2Report written to "ffprobe-20130202-204412.log"
3Command line:
4ffprobe -report -i hls_00.ts
5ffprobe version N-48612-g1a088f6 Copyright (c) 2007-2013 the FFmpeg developers
6  built on Jan  8 2013 05:19:41 with gcc 4.6 (Debian 4.6.3-1)
7  configuration: --prefix=/root/ffmpeg-static/64bit --extra-cflags='-I/root/ffmpeg-static/64bit/include -static' --extra-ldflags='-L/root/ffmpeg-static/64bit/lib -static' --extra-libs='-lxml2 -lexpat -lfreetype' --enable-static --disable-shared --disable-ffserver --disable-doc --enable-bzlib --enable-zlib --enable-postproc --enable-runtime-cpudetect --enable-libx264 --enable-gpl --enable-libtheora --enable-libvorbis --enable-libmp3lame --enable-gray --enable-libass --enable-libfreetype --enable-libopenjpeg --enable-libspeex --enable-libvo-aacenc --enable-libvo-amrwbenc --enable-version3 --enable-libvpx
8  libavutil      52. 13.100 / 52. 13.100
9  libavcodec     54. 86.100 / 54. 86.100
10  libavformat    54. 59.106 / 54. 59.106
11  libavdevice    54.  3.102 / 54.  3.102
12  libavfilter     3. 32.100 /  3. 32.100
13  libswscale      2.  1.103 /  2.  1.103
14  libswresample   0. 17.102 /  0. 17.102
15  libpostproc    52.  2.100 / 52.  2.100
16[mpegts @ 0x2d8ff20] Format mpegts probed with size=2048 and score=100
17[mpegts @ 0x2d8ff20] stream=0 stream_type=1b pid=100 prog_reg_desc=
18[mpegts @ 0x2d8ff20] stream=1 stream_type=f pid=101 prog_reg_desc=
19[mpegts @ 0x2d8ff20] File position before avformat_find_stream_info() is 0
20[h264 @ 0x2d940e0] Current profile doesn't provide more RBSP data in PPS, skipping
21[h264 @ 0x2d940e0] Current profile doesn't provide more RBSP data in PPS, skipping
22[h264 @ 0x2d940e0] Current profile doesn't provide more RBSP data in PPS, skipping
23[mpegts @ 0x2d8ff20] max_analyze_duration 5000000 reached at 5013333
24[mpegts @ 0x2d8ff20] File position after avformat_find_stream_info() is 0
25Input #0, mpegts, from 'hls_00.ts':
26  Duration: 00:00:10.01, start: 0.021333, bitrate: 1522 kb/s
27  Program 1
28    Metadata:
29      service_name    : Service01
30      service_provider: FFmpeg
31    Stream #0:0[0x100], 120, 1/90000: Video: h264 (Constrained Baseline) ([27][0][0][0] / 0x001B), yuv420p, 1080x608, 24 fps, 24 tbr, 90k tbn, 48 tbc
32    Stream #0:1[0x101], 237, 1/90000: Audio: aac ([15][0][0][0] / 0x000F), 48000 Hz, stereo, fltp, 119 kb/s
33[h264 @ 0x2d940e0] detected 1 logical cores
34[AVIOContext @ 0x2d985c0] Statistics: 1101968 bytes read, 2 seeks