Ticket #2230: ffmpeg-report_single-ts.log

File ffmpeg-report_single-ts.log, 61.8 KB (added by nealzebub, 3 years ago)

Report from encoding to mpegts output, specifying metadata. For comparison.

Line 
1ffmpeg started on 2013-02-02 at 20:44:12
2Report written to "ffmpeg-20130202-204412.log"
3Command line:
4./ffmpeg.20130129 -report -i ./source_media/bigbuckbunny_1500.mp4 -frames:v 480 -c:v libx264 -crf 25 -profile:v baseline -g 48 -sc_threshold 0 -flags +cgop -c:a aac -strict -2 -b:a 112k -map 0:v:0 -map 0:a:0 -f mpegts -metadata "service_provider=Some Provider" -metadata "service_name=Some Channel Name" single.ts
5ffmpeg version N-49414-g11c99c7 Copyright (c) 2000-2013 the FFmpeg developers
6  built on Jan 29 2013 05:22:52 with gcc 4.6 (Debian 4.6.3-1)
7  configuration: --prefix=/root/ffmpeg-static/64bit --extra-cflags='-I/root/ffmpeg-static/64bit/include -static' --extra-ldflags='-L/root/ffmpeg-static/64bit/lib -static' --extra-libs='-lxml2 -lexpat -lfreetype' --enable-static --disable-shared --disable-ffserver --disable-doc --enable-bzlib --enable-zlib --enable-postproc --enable-runtime-cpudetect --enable-libx264 --enable-gpl --enable-libtheora --enable-libvorbis --enable-libmp3lame --enable-gray --enable-libass --enable-libfreetype --enable-libopenjpeg --enable-libspeex --enable-libvo-aacenc --enable-libvo-amrwbenc --enable-version3 --enable-libvpx
8  libavutil      52. 17.100 / 52. 17.100
9  libavcodec     54. 91.100 / 54. 91.100
10  libavformat    54. 61.104 / 54. 61.104
11  libavdevice    54.  3.102 / 54.  3.102
12  libavfilter     3. 34.101 /  3. 34.101
13  libswscale      2.  2.100 /  2.  2.100
14  libswresample   0. 17.102 /  0. 17.102
15  libpostproc    52.  2.100 / 52.  2.100
16Splitting the commandline.
17Reading option '-report' ... matched as option 'report' (generate a report) with argument '1'.
18Reading option '-i' ... matched as input file with argument './source_media/bigbuckbunny_1500.mp4'.
19Reading option '-frames:v' ... matched as option 'frames' (set the number of frames to record) with argument '480'.
20Reading option '-c:v' ... matched as option 'c' (codec name) with argument 'libx264'.
21Reading option '-crf' ... matched as AVOption 'crf' with argument '25'.
22Reading option '-profile:v' ... matched as option 'profile' (set profile) with argument 'baseline'.
23Reading option '-g' ... matched as AVOption 'g' with argument '48'.
24Reading option '-sc_threshold' ... matched as AVOption 'sc_threshold' with argument '0'.
25Reading option '-flags' ... matched as AVOption 'flags' with argument '+cgop'.
26Reading option '-c:a' ... matched as option 'c' (codec name) with argument 'aac'.
27Reading option '-strict' ... matched as AVOption 'strict' with argument '-2'.
28Reading option '-b:a' ... matched as option 'b' (video bitrate (please use -b:v)) with argument '112k'.
29Reading option '-map' ... matched as option 'map' (set input stream mapping) with argument '0:v:0'.
30Reading option '-map' ... matched as option 'map' (set input stream mapping) with argument '0:a:0'.
31Reading option '-f' ... matched as option 'f' (force format) with argument 'mpegts'.
32Reading option '-metadata' ... matched as option 'metadata' (add metadata) with argument 'service_provider=Some Provider'.
33Reading option '-metadata' ... matched as option 'metadata' (add metadata) with argument 'service_name=Some Channel Name'.
34Reading option 'single.ts' ... matched as output file.
35Finished splitting the commandline.
36Parsing a group of options: global .
37Applying option report (generate a report) with argument 1.
38Successfully parsed a group of options.
39Parsing a group of options: input file ./source_media/bigbuckbunny_1500.mp4.
40Successfully parsed a group of options.
41Opening an input file: ./source_media/bigbuckbunny_1500.mp4.
42[mov,mp4,m4a,3gp,3g2,mj2 @ 0x372a8c0] Format mov,mp4,m4a,3gp,3g2,mj2 probed with size=2048 and score=100
43[mov,mp4,m4a,3gp,3g2,mj2 @ 0x372a8c0] ISO: File Type Major Brand: isom
44[mov,mp4,m4a,3gp,3g2,mj2 @ 0x372a8c0] File position before avformat_find_stream_info() is 114213748
45[h264 @ 0x3731100] Increasing reorder buffer to 1
46[h264 @ 0x3731100] no picture ooo
47[h264 @ 0x3731100] no picture
48[mov,mp4,m4a,3gp,3g2,mj2 @ 0x372a8c0] All info found
49rfps: 23.416667 0.019644
50rfps: 23.416667 0.019644
51rfps: 23.500000 0.014433
52rfps: 23.500000 0.014433
53rfps: 23.583333 0.010023
54rfps: 23.583333 0.010023
55rfps: 23.666667 0.006415
56rfps: 23.666667 0.006415
57rfps: 23.750000 0.003608
58rfps: 23.750000 0.003608
59rfps: 23.833333 0.001604
60rfps: 23.833333 0.001604
61rfps: 23.916667 0.000401
62rfps: 23.916667 0.000401
63rfps: 24.000000 0.000000
64rfps: 24.083333 0.000401
65rfps: 24.083333 0.000401
66rfps: 24.166667 0.001603
67rfps: 24.166667 0.001603
68rfps: 24.250000 0.003607
69rfps: 24.250000 0.003607
70rfps: 24.333333 0.006413
71rfps: 24.333333 0.006413
72rfps: 24.416667 0.010021
73rfps: 24.416667 0.010021
74rfps: 24.500000 0.014430
75rfps: 24.500000 0.014430
76rfps: 24.583333 0.019641
77rfps: 24.583333 0.019641
78rfps: 47.416667 0.019645
79rfps: 47.416667 0.019645
80rfps: 47.500000 0.014434
81rfps: 47.500000 0.014434
82rfps: 47.583333 0.010024
83rfps: 47.583333 0.010024
84rfps: 47.666667 0.006416
85rfps: 47.666667 0.006416
86rfps: 47.750000 0.003609
87rfps: 47.750000 0.003609
88rfps: 47.833333 0.001604
89rfps: 47.833333 0.001604
90rfps: 47.916667 0.000401
91rfps: 47.916667 0.000401
92rfps: 48.000000 0.000000
93rfps: 48.083333 0.000401
94rfps: 48.083333 0.000401
95rfps: 48.166667 0.001603
96rfps: 48.166667 0.001603
97rfps: 48.250000 0.003607
98rfps: 48.250000 0.003607
99rfps: 48.333333 0.006412
100rfps: 48.333333 0.006412
101rfps: 48.416667 0.010020
102rfps: 48.416667 0.010020
103rfps: 48.500000 0.014429
104rfps: 48.500000 0.014429
105rfps: 48.583333 0.019640
106rfps: 48.583333 0.019640
107rfps: 23.976024 0.000033
108rfps: 23.976024 0.000033
109rfps: 47.952048 0.000133
110rfps: 47.952048 0.000133
111[mov,mp4,m4a,3gp,3g2,mj2 @ 0x372a8c0] File position after avformat_find_stream_info() is 27957
112Input #0, mov,mp4,m4a,3gp,3g2,mj2, from './source_media/bigbuckbunny_1500.mp4':
113  Metadata:
114    major_brand     : isom
115    minor_version   : 0
116    compatible_brands: isomavc1mp42isom
117  Duration: 00:09:56.46, start: 0.000000, bitrate: 1531 kb/s
118    Stream #0:0(eng), 21, 1/100000: Video: h264 (Main) (avc1 / 0x31637661), yuv420p, 1080x608, 1393 kb/s, 24 fps, 24 tbr, 100k tbn, 200k tbc
119    Metadata:
120      handler_name    : VideoHandler
121    Stream #0:1(eng), 40, 1/48000: Audio: aac (mp4a / 0x6134706D), 48000 Hz, stereo, fltp, 131 kb/s
122    Metadata:
123      handler_name    : SoundHandler
124Successfully opened the file.
125Parsing a group of options: output file single.ts.
126Applying option frames:v (set the number of frames to record) with argument 480.
127Applying option c:v (codec name) with argument libx264.
128Applying option profile:v (set profile) with argument baseline.
129Applying option c:a (codec name) with argument aac.
130Applying option b:a (video bitrate (please use -b:v)) with argument 112k.
131Applying option map (set input stream mapping) with argument 0:v:0.
132Applying option map (set input stream mapping) with argument 0:a:0.
133Applying option f (force format) with argument mpegts.
134Applying option metadata (add metadata) with argument service_provider=Some Provider.
135Applying option metadata (add metadata) with argument service_name=Some Channel Name.
136Successfully parsed a group of options.
137Opening an output file: single.ts.
138Successfully opened the file.
139[buffer @ 0x3706780] Setting entry with key 'video_size' to value '1080x608'
140[buffer @ 0x3706780] Setting entry with key 'pix_fmt' to value '0'
141[buffer @ 0x3706780] Setting entry with key 'time_base' to value '1/100000'
142[buffer @ 0x3706780] Setting entry with key 'pixel_aspect' to value '0/1'
143[buffer @ 0x3706780] Setting entry with key 'sws_param' to value 'flags=2'
144[buffer @ 0x3706780] Setting entry with key 'frame_rate' to value '24/1'
145[graph 0 input from stream 0:0 @ 0x37439e0] w:1080 h:608 pixfmt:yuv420p tb:1/100000 fr:24/1 sar:0/1 sws_param:flags=2
146[abuffer @ 0x374c480] Setting entry with key 'time_base' to value '1/48000'
147[abuffer @ 0x374c480] Setting entry with key 'sample_rate' to value '48000'
148[abuffer @ 0x374c480] Setting entry with key 'sample_fmt' to value 'fltp'
149[abuffer @ 0x374c480] Setting entry with key 'channel_layout' to value '0x3'
150[graph 1 input from stream 0:1 @ 0x3749e80] tb:1/48000 samplefmt:fltp samplerate:48000 chlayout:0x3
151[aformat @ 0x374c300] Setting entry with key 'sample_fmts' to value 'fltp'
152[aformat @ 0x374c300] Setting entry with key 'sample_rates' to value '96000,88200,64000,48000,44100,32000,24000,22050,16000,12000,11025,8000,7350'
153[libx264 @ 0x37417a0] using cpu capabilities: MMX2 SSE2Fast SSSE3 FastShuffle SSE4.1 Cache64
154[libx264 @ 0x37417a0] profile Constrained Baseline, level 3.1
155[h264 @ 0x3731100] detected 1 logical cores
156[mpegts @ 0x3740c80] muxrate VBR, pcr every 2 pkts, sdt every 200, pat/pmt every 40 pkts
157Output #0, mpegts, to 'single.ts':
158  Metadata:
159    major_brand     : isom
160    minor_version   : 0
161    compatible_brands: isomavc1mp42isom
162    service_provider: Some Provider
163    service_name    : Some Channel Name
164    encoder         : Lavf54.61.104
165    Stream #0:0(eng), 0, 1/90000: Video: h264, yuv420p, 1080x608, q=-1--1, 90k tbn, 24 tbc
166    Metadata:
167      handler_name    : VideoHandler
168    Stream #0:1(eng), 0, 1/90000: Audio: aac, 48000 Hz, stereo, fltp, 112 kb/s
169    Metadata:
170      handler_name    : SoundHandler
171Stream mapping:
172  Stream #0:0 -> #0:0 (h264 -> libx264)
173  Stream #0:1 -> #0:1 (aac -> aac)
174Press [q] to stop, [?] for help
175[h264 @ 0x3731100] no picture
176*** 1 dup!
177[libx264 @ 0x37417a0] frame=   0 QP=14.00 NAL=3 Slice:I Poc:0   I:2584 P:0    SKIP:0    size=2647 bytes
178[adts @ 0x3a168a0] Encoder did not produce proper pts, making some up.
179[libx264 @ 0x37417a0] frame=   1 QP=15.00 NAL=2 Slice:P Poc:2   I:0    P:0    SKIP:2584 size=12 bytes
180[libx264 @ 0x37417a0] frame=   2 QP=13.00 NAL=2 Slice:P Poc:4   I:5    P:102  SKIP:2477 size=151 bytes
181[libx264 @ 0x37417a0] frame=   3 QP=13.00 NAL=2 Slice:P Poc:6   I:0    P:0    SKIP:2584 size=12 bytes
182frame=   45 fps=0.0 q=30.0 size=       4kB time=00:00:01.81 bitrate=  17.4kbits/s dup=1 drop=0   
183frame=   4 QP=13.00 NAL=2 Slice:P Poc:8   I:2    P:0    SKIP:2582 size=22 bytes
184[libx264 @ 0x37417a0] frame=   5 QP=13.50 NAL=2 Slice:P Poc:10  I:0    P:1    SKIP:2583 size=17 bytes
185[libx264 @ 0x37417a0] frame=   6 QP=16.45 NAL=2 Slice:P Poc:12  I:2131 P:3    SKIP:450  size=2831 bytes
186[libx264 @ 0x37417a0] frame=   7 QP=17.16 NAL=2 Slice:P Poc:14  I:2024 P:192  SKIP:368  size=3177 bytes
187[libx264 @ 0x37417a0] frame=   8 QP=18.50 NAL=2 Slice:P Poc:16  I:813  P:108  SKIP:1663 size=1738 bytes
188[libx264 @ 0x37417a0] frame=   9 QP=17.26 NAL=2 Slice:P Poc:18  I:679  P:164  SKIP:1741 size=1438 bytes
189[libx264 @ 0x37417a0] frame=  10 QP=16.92 NAL=2 Slice:P Poc:20  I:2211 P:56   SKIP:317  size=3085 bytes
190[libx264 @ 0x37417a0] frame=  11 QP=18.14 NAL=2 Slice:P Poc:22  I:2025 P:80   SKIP:479  size=2866 bytes
191[libx264 @ 0x37417a0] frame=  12 QP=17.33 NAL=2 Slice:P Poc:24  I:2517 P:37   SKIP:30   size=3438 bytes
192[libx264 @ 0x37417a0] frame=  13 QP=15.97 NAL=2 Slice:P Poc:26  I:2473 P:62   SKIP:49   size=3425 bytes
193[libx264 @ 0x37417a0] frame=  14 QP=16.09 NAL=2 Slice:P Poc:28  I:2517 P:59   SKIP:8    size=3633 bytes
194[libx264 @ 0x37417a0] frame=  15 QP=16.33 NAL=2 Slice:P Poc:30  I:2472 P:87   SKIP:25   size=3643 bytes
195[libx264 @ 0x37417a0] frame=  16 QP=16.57 NAL=2 Slice:P Poc:32  I:2494 P:80   SKIP:10   size=3900 bytes
196[libx264 @ 0x37417a0] frame=  17 QP=15.54 NAL=2 Slice:P Poc:34  I:2451 P:107  SKIP:26   size=4154 bytes
197frame=   59 fps= 57 q=30.0 size=      53kB time=00:00:02.38 bitrate= 183.2kbits/s dup=1 drop=0   
198frame=  18 QP=15.70 NAL=2 Slice:P Poc:36  I:2500 P:83   SKIP:1    size=4466 bytes
199[libx264 @ 0x37417a0] frame=  19 QP=16.81 NAL=2 Slice:P Poc:38  I:2435 P:131  SKIP:18   size=4411 bytes
200[libx264 @ 0x37417a0] frame=  20 QP=17.45 NAL=2 Slice:P Poc:40  I:2466 P:115  SKIP:3    size=5050 bytes
201[libx264 @ 0x37417a0] frame=  21 QP=16.94 NAL=2 Slice:P Poc:42  I:2431 P:147  SKIP:6    size=5121 bytes
202[libx264 @ 0x37417a0] frame=  22 QP=16.35 NAL=2 Slice:P Poc:44  I:2451 P:133  SKIP:0    size=5496 bytes
203[libx264 @ 0x37417a0] frame=  23 QP=16.96 NAL=2 Slice:P Poc:46  I:2437 P:139  SKIP:8    size=5538 bytes
204[libx264 @ 0x37417a0] frame=  24 QP=17.37 NAL=2 Slice:P Poc:48  I:2428 P:155  SKIP:1    size=5721 bytes
205[libx264 @ 0x37417a0] frame=  25 QP=16.96 NAL=2 Slice:P Poc:50  I:2430 P:151  SKIP:3    size=6265 bytes
206[libx264 @ 0x37417a0] frame=  26 QP=16.62 NAL=2 Slice:P Poc:52  I:2393 P:191  SKIP:0    size=6204 bytes
207[libx264 @ 0x37417a0] frame=  27 QP=17.95 NAL=2 Slice:P Poc:54  I:2416 P:167  SKIP:1    size=6466 bytes
208frame=   69 fps= 44 q=30.0 size=     122kB time=00:00:02.79 bitrate= 356.8kbits/s dup=1 drop=0   
209frame=  28 QP=18.16 NAL=2 Slice:P Poc:56  I:2398 P:186  SKIP:0    size=6593 bytes
210[libx264 @ 0x37417a0] frame=  29 QP=17.49 NAL=2 Slice:P Poc:58  I:2411 P:173  SKIP:0    size=7231 bytes
211[libx264 @ 0x37417a0] frame=  30 QP=17.42 NAL=2 Slice:P Poc:60  I:2383 P:201  SKIP:0    size=7087 bytes
212[libx264 @ 0x37417a0] frame=  31 QP=17.60 NAL=2 Slice:P Poc:62  I:2401 P:183  SKIP:0    size=7387 bytes
213[libx264 @ 0x37417a0] frame=  32 QP=17.68 NAL=2 Slice:P Poc:64  I:2383 P:201  SKIP:0    size=7494 bytes
214[libx264 @ 0x37417a0] frame=  33 QP=18.18 NAL=2 Slice:P Poc:66  I:2401 P:183  SKIP:0    size=7711 bytes
215[libx264 @ 0x37417a0] frame=  34 QP=18.40 NAL=2 Slice:P Poc:68  I:2375 P:209  SKIP:0    size=7665 bytes
216[libx264 @ 0x37417a0] frame=  35 QP=18.14 NAL=2 Slice:P Poc:70  I:2395 P:189  SKIP:0    size=8402 bytes
217frame=   77 fps= 37 q=30.0 size=     191kB time=00:00:03.15 bitrate= 495.9kbits/s dup=1 drop=0   
218frame=  36 QP=18.35 NAL=2 Slice:P Poc:72  I:2375 P:209  SKIP:0    size=8300 bytes
219[libx264 @ 0x37417a0] frame=  37 QP=18.82 NAL=2 Slice:P Poc:74  I:2379 P:205  SKIP:0    size=8724 bytes
220[libx264 @ 0x37417a0] frame=  38 QP=18.69 NAL=2 Slice:P Poc:76  I:2372 P:212  SKIP:0    size=8494 bytes
221[libx264 @ 0x37417a0] frame=  39 QP=18.48 NAL=2 Slice:P Poc:78  I:2375 P:208  SKIP:1    size=9230 bytes
222[libx264 @ 0x37417a0] frame=  40 QP=18.57 NAL=2 Slice:P Poc:80  I:2362 P:222  SKIP:0    size=9329 bytes
223[libx264 @ 0x37417a0] frame=  41 QP=18.61 NAL=2 Slice:P Poc:82  I:2370 P:213  SKIP:1    size=10056 bytes
224[libx264 @ 0x37417a0] frame=  42 QP=19.42 NAL=2 Slice:P Poc:84  I:2348 P:236  SKIP:0    size=9304 bytes
225[libx264 @ 0x37417a0] frame=  43 QP=19.09 NAL=2 Slice:P Poc:86  I:2361 P:223  SKIP:0    size=10171 bytes
226frame=   85 fps= 32 q=30.0 size=     273kB time=00:00:03.49 bitrate= 639.2kbits/s dup=1 drop=0   
227frame=  44 QP=19.75 NAL=2 Slice:P Poc:88  I:2348 P:236  SKIP:0    size=9738 bytes
228[libx264 @ 0x37417a0] frame=  45 QP=19.79 NAL=2 Slice:P Poc:90  I:2347 P:234  SKIP:3    size=10690 bytes
229[libx264 @ 0x37417a0] frame=  46 QP=20.04 NAL=2 Slice:P Poc:92  I:2337 P:246  SKIP:1    size=9980 bytes
230[libx264 @ 0x37417a0] frame=  47 QP=20.23 NAL=2 Slice:P Poc:94  I:2325 P:253  SKIP:6    size=11301 bytes
231[libx264 @ 0x37417a0] frame=  48 QP=17.48 NAL=3 Slice:I Poc:0   I:2584 P:0    SKIP:0    size=22076 bytes
232[libx264 @ 0x37417a0] frame=  49 QP=20.45 NAL=2 Slice:P Poc:2   I:2336 P:248  SKIP:0    size=9807 bytes
233[libx264 @ 0x37417a0] frame=  50 QP=20.22 NAL=2 Slice:P Poc:4   I:2336 P:248  SKIP:0    size=10993 bytes
234[libx264 @ 0x37417a0] frame=  51 QP=18.01 NAL=2 Slice:P Poc:6   I:2327 P:257  SKIP:0    size=13389 bytes
235[libx264 @ 0x37417a0] frame=  52 QP=21.39 NAL=2 Slice:P Poc:8   I:16   P:557  SKIP:2011 size=2338 bytes
236[libx264 @ 0x37417a0] frame=  53 QP=23.07 NAL=2 Slice:P Poc:10  I:3    P:425  SKIP:2156 size=2899 bytes
237frame=   95 fps= 30 q=30.0 size=     389kB time=00:00:03.88 bitrate= 820.8kbits/s dup=1 drop=0   
238frame=  54 QP=22.53 NAL=2 Slice:P Poc:12  I:33   P:569  SKIP:1982 size=2558 bytes
239[libx264 @ 0x37417a0] frame=  55 QP=22.94 NAL=2 Slice:P Poc:14  I:16   P:655  SKIP:1913 size=3660 bytes
240[libx264 @ 0x37417a0] frame=  56 QP=22.16 NAL=2 Slice:P Poc:16  I:36   P:621  SKIP:1927 size=2665 bytes
241[libx264 @ 0x37417a0] frame=  57 QP=22.36 NAL=2 Slice:P Poc:18  I:33   P:613  SKIP:1938 size=3377 bytes
242[libx264 @ 0x37417a0] frame=  58 QP=22.46 NAL=2 Slice:P Poc:20  I:33   P:612  SKIP:1939 size=2519 bytes
243[libx264 @ 0x37417a0] frame=  59 QP=22.43 NAL=2 Slice:P Poc:22  I:27   P:672  SKIP:1885 size=3331 bytes
244[libx264 @ 0x37417a0] frame=  60 QP=22.09 NAL=2 Slice:P Poc:24  I:48   P:665  SKIP:1871 size=2628 bytes
245[libx264 @ 0x37417a0] frame=  61 QP=22.12 NAL=2 Slice:P Poc:26  I:52   P:715  SKIP:1817 size=3808 bytes
246[libx264 @ 0x37417a0] frame=  62 QP=22.50 NAL=2 Slice:P Poc:28  I:44   P:644  SKIP:1896 size=2590 bytes
247[libx264 @ 0x37417a0] frame=  63 QP=22.55 NAL=2 Slice:P Poc:30  I:32   P:642  SKIP:1910 size=3707 bytes
248[libx264 @ 0x37417a0] frame=  64 QP=22.43 NAL=2 Slice:P Poc:32  I:60   P:709  SKIP:1815 size=2918 bytes
249[libx264 @ 0x37417a0] frame=  65 QP=22.61 NAL=2 Slice:P Poc:34  I:53   P:753  SKIP:1778 size=3990 bytes
250[libx264 @ 0x37417a0] frame=  66 QP=22.27 NAL=2 Slice:P Poc:36  I:56   P:721  SKIP:1807 size=2895 bytes
251[libx264 @ 0x37417a0] frame=  67 QP=22.26 NAL=2 Slice:P Poc:38  I:81   P:757  SKIP:1746 size=4233 bytes
252[libx264 @ 0x37417a0] frame=  68 QP=22.41 NAL=2 Slice:P Poc:40  I:59   P:681  SKIP:1844 size=2922 bytes
253[libx264 @ 0x37417a0] frame=  69 QP=22.33 NAL=2 Slice:P Poc:42  I:45   P:780  SKIP:1759 size=3988 bytes
254frame=  111 fps= 30 q=30.0 size=     458kB time=00:00:04.54 bitrate= 825.5kbits/s dup=1 drop=0   
255frame=  70 QP=23.28 NAL=2 Slice:P Poc:44  I:29   P:608  SKIP:1947 size=2645 bytes
256[libx264 @ 0x37417a0] frame=  71 QP=23.21 NAL=2 Slice:P Poc:46  I:30   P:607  SKIP:1947 size=3253 bytes
257[libx264 @ 0x37417a0] frame=  72 QP=23.24 NAL=2 Slice:P Poc:48  I:91   P:796  SKIP:1697 size=4500 bytes
258[libx264 @ 0x37417a0] frame=  73 QP=19.22 NAL=2 Slice:P Poc:50  I:1371 P:1022 SKIP:191  size=11792 bytes
259[libx264 @ 0x37417a0] frame=  74 QP=21.52 NAL=2 Slice:P Poc:52  I:75   P:769  SKIP:1740 size=3818 bytes
260[libx264 @ 0x37417a0] frame=  75 QP=22.03 NAL=2 Slice:P Poc:54  I:51   P:694  SKIP:1839 size=3892 bytes
261[libx264 @ 0x37417a0] frame=  76 QP=22.08 NAL=2 Slice:P Poc:56  I:64   P:727  SKIP:1793 size=3412 bytes
262[libx264 @ 0x37417a0] frame=  77 QP=22.55 NAL=2 Slice:P Poc:58  I:60   P:808  SKIP:1716 size=4554 bytes
263[libx264 @ 0x37417a0] frame=  78 QP=21.86 NAL=2 Slice:P Poc:60  I:83   P:788  SKIP:1713 size=3641 bytes
264[libx264 @ 0x37417a0] frame=  79 QP=22.46 NAL=2 Slice:P Poc:62  I:64   P:796  SKIP:1724 size=4292 bytes
265[libx264 @ 0x37417a0] frame=  80 QP=21.64 NAL=2 Slice:P Poc:64  I:103  P:793  SKIP:1688 size=3552 bytes
266[libx264 @ 0x37417a0] frame=  81 QP=21.95 NAL=2 Slice:P Poc:66  I:83   P:889  SKIP:1612 size=4792 bytes
267frame=  123 fps= 29 q=30.0 size=     525kB time=00:00:05.07 bitrate= 847.5kbits/s dup=1 drop=0   
268frame=  82 QP=22.04 NAL=2 Slice:P Poc:68  I:103  P:796  SKIP:1685 size=3566 bytes
269[libx264 @ 0x37417a0] frame=  83 QP=22.17 NAL=2 Slice:P Poc:70  I:97   P:861  SKIP:1626 size=5117 bytes
270[libx264 @ 0x37417a0] frame=  84 QP=22.49 NAL=2 Slice:P Poc:72  I:89   P:788  SKIP:1707 size=3479 bytes
271[libx264 @ 0x37417a0] frame=  85 QP=22.49 NAL=2 Slice:P Poc:74  I:100  P:900  SKIP:1584 size=5084 bytes
272[libx264 @ 0x37417a0] frame=  86 QP=21.64 NAL=2 Slice:P Poc:76  I:110  P:883  SKIP:1591 size=4054 bytes
273[libx264 @ 0x37417a0] frame=  87 QP=22.30 NAL=2 Slice:P Poc:78  I:100  P:908  SKIP:1576 size=5549 bytes
274[libx264 @ 0x37417a0] frame=  88 QP=22.04 NAL=2 Slice:P Poc:80  I:92   P:775  SKIP:1717 size=3754 bytes
275[libx264 @ 0x37417a0] frame=  89 QP=21.70 NAL=2 Slice:P Poc:82  I:104  P:1004 SKIP:1476 size=5673 bytes
276[libx264 @ 0x37417a0] frame=  90 QP=21.76 NAL=2 Slice:P Poc:84  I:128  P:890  SKIP:1566 size=4097 bytes
277[libx264 @ 0x37417a0] frame=  91 QP=22.18 NAL=2 Slice:P Poc:86  I:94   P:934  SKIP:1556 size=5551 bytes
278[libx264 @ 0x37417a0] frame=  92 QP=21.92 NAL=2 Slice:P Poc:88  I:97   P:870  SKIP:1617 size=4237 bytes
279[libx264 @ 0x37417a0] frame=  93 QP=22.21 NAL=2 Slice:P Poc:90  I:90   P:1043 SKIP:1451 size=5775 bytes
280frame=  135 fps= 29 q=30.0 size=     594kB time=00:00:05.56 bitrate= 874.6kbits/s dup=1 drop=0   
281frame=  94 QP=22.02 NAL=2 Slice:P Poc:92  I:115  P:949  SKIP:1520 size=4384 bytes
282[libx264 @ 0x37417a0] frame=  95 QP=21.95 NAL=2 Slice:P Poc:94  I:102  P:1031 SKIP:1451 size=6047 bytes
283[libx264 @ 0x37417a0] frame=  96 QP=18.10 NAL=3 Slice:I Poc:0   I:2584 P:0    SKIP:0    size=39997 bytes
284[libx264 @ 0x37417a0] frame=  97 QP=22.58 NAL=2 Slice:P Poc:2   I:110  P:1026 SKIP:1448 size=3474 bytes
285[libx264 @ 0x37417a0] frame=  98 QP=22.64 NAL=2 Slice:P Poc:4   I:44   P:841  SKIP:1699 size=2988 bytes
286[libx264 @ 0x37417a0] frame=  99 QP=23.97 NAL=2 Slice:P Poc:6   I:42   P:973  SKIP:1569 size=4666 bytes
287[libx264 @ 0x37417a0] frame= 100 QP=22.58 NAL=2 Slice:P Poc:8   I:158  P:990  SKIP:1436 size=4765 bytes
288[libx264 @ 0x37417a0] frame= 101 QP=21.97 NAL=2 Slice:P Poc:10  I:185  P:1233 SKIP:1166 size=6768 bytes
289[libx264 @ 0x37417a0] frame= 102 QP=22.58 NAL=2 Slice:P Poc:12  I:89   P:975  SKIP:1520 size=4425 bytes
290[libx264 @ 0x37417a0] frame= 103 QP=22.96 NAL=2 Slice:P Poc:14  I:88   P:1072 SKIP:1424 size=5929 bytes
291[libx264 @ 0x37417a0] frame= 104 QP=22.89 NAL=2 Slice:P Poc:16  I:85   P:909  SKIP:1590 size=4157 bytes
292[libx264 @ 0x37417a0] frame= 105 QP=22.61 NAL=2 Slice:P Poc:18  I:115  P:1082 SKIP:1387 size=6081 bytes
293frame=  147 fps= 28 q=30.0 size=     704kB time=00:00:06.08 bitrate= 947.9kbits/s dup=1 drop=0   
294frame= 106 QP=22.60 NAL=2 Slice:P Poc:20  I:122  P:1007 SKIP:1455 size=4818 bytes
295[libx264 @ 0x37417a0] frame= 107 QP=22.71 NAL=2 Slice:P Poc:22  I:106  P:1139 SKIP:1339 size=6321 bytes
296[libx264 @ 0x37417a0] frame= 108 QP=22.74 NAL=2 Slice:P Poc:24  I:90   P:978  SKIP:1516 size=4353 bytes
297[libx264 @ 0x37417a0] frame= 109 QP=22.67 NAL=2 Slice:P Poc:26  I:110  P:1153 SKIP:1321 size=6481 bytes
298[libx264 @ 0x37417a0] frame= 110 QP=22.67 NAL=2 Slice:P Poc:28  I:107  P:989  SKIP:1488 size=4553 bytes
299[libx264 @ 0x37417a0] frame= 111 QP=22.50 NAL=2 Slice:P Poc:30  I:130  P:1145 SKIP:1309 size=6729 bytes
300[libx264 @ 0x37417a0] frame= 112 QP=22.68 NAL=2 Slice:P Poc:32  I:91   P:1024 SKIP:1469 size=4591 bytes
301[libx264 @ 0x37417a0] frame= 113 QP=22.53 NAL=2 Slice:P Poc:34  I:101  P:1233 SKIP:1250 size=6744 bytes
302[libx264 @ 0x37417a0] frame= 114 QP=23.53 NAL=2 Slice:P Poc:36  I:61   P:899  SKIP:1624 size=3966 bytes
303[libx264 @ 0x37417a0] frame= 115 QP=23.41 NAL=2 Slice:P Poc:38  I:67   P:1106 SKIP:1411 size=5573 bytes
304[libx264 @ 0x37417a0] frame= 116 QP=22.60 NAL=2 Slice:P Poc:40  I:136  P:1087 SKIP:1361 size=5526 bytes
305[libx264 @ 0x37417a0] frame= 117 QP=22.35 NAL=2 Slice:P Poc:42  I:118  P:1277 SKIP:1189 size=7120 bytes
306frame=  159 fps= 28 q=30.0 size=     784kB time=00:00:06.54 bitrate= 980.3kbits/s dup=1 drop=0   
307frame= 118 QP=23.02 NAL=2 Slice:P Poc:44  I:78   P:1018 SKIP:1488 size=4596 bytes
308[libx264 @ 0x37417a0] frame= 119 QP=22.87 NAL=2 Slice:P Poc:46  I:99   P:1147 SKIP:1338 size=6452 bytes
309[libx264 @ 0x37417a0] frame= 120 QP=23.80 NAL=2 Slice:P Poc:48  I:76   P:947  SKIP:1561 size=4448 bytes
310[libx264 @ 0x37417a0] frame= 121 QP=22.80 NAL=2 Slice:P Poc:50  I:88   P:1224 SKIP:1272 size=6481 bytes
311[libx264 @ 0x37417a0] frame= 122 QP=23.40 NAL=2 Slice:P Poc:52  I:69   P:1034 SKIP:1481 size=4648 bytes
312[libx264 @ 0x37417a0] frame= 123 QP=23.40 NAL=2 Slice:P Poc:54  I:93   P:1234 SKIP:1257 size=6664 bytes
313[libx264 @ 0x37417a0] frame= 124 QP=23.29 NAL=2 Slice:P Poc:56  I:45   P:909  SKIP:1630 size=3841 bytes
314[libx264 @ 0x37417a0] frame= 125 QP=23.56 NAL=2 Slice:P Poc:58  I:46   P:1215 SKIP:1323 size=5363 bytes
315[libx264 @ 0x37417a0] frame= 126 QP=22.82 NAL=2 Slice:P Poc:60  I:130  P:1085 SKIP:1369 size=5621 bytes
316[libx264 @ 0x37417a0] frame= 127 QP=23.05 NAL=2 Slice:P Poc:62  I:126  P:1341 SKIP:1117 size=7380 bytes
317frame=  169 fps= 27 q=30.0 size=     850kB time=00:00:06.99 bitrate= 995.0kbits/s dup=1 drop=0   
318frame= 128 QP=23.46 NAL=2 Slice:P Poc:64  I:58   P:992  SKIP:1534 size=4547 bytes
319[libx264 @ 0x37417a0] frame= 129 QP=23.21 NAL=2 Slice:P Poc:66  I:58   P:1288 SKIP:1238 size=6677 bytes
320[libx264 @ 0x37417a0] frame= 130 QP=23.28 NAL=2 Slice:P Poc:68  I:82   P:1029 SKIP:1473 size=4994 bytes
321[libx264 @ 0x37417a0] frame= 131 QP=23.15 NAL=2 Slice:P Poc:70  I:77   P:1298 SKIP:1209 size=6948 bytes
322[libx264 @ 0x37417a0] frame= 132 QP=23.16 NAL=2 Slice:P Poc:72  I:72   P:1150 SKIP:1362 size=4911 bytes
323[libx264 @ 0x37417a0] frame= 133 QP=23.06 NAL=2 Slice:P Poc:74  I:105  P:1352 SKIP:1127 size=7327 bytes
324[libx264 @ 0x37417a0] frame= 134 QP=23.29 NAL=2 Slice:P Poc:76  I:74   P:1038 SKIP:1472 size=4774 bytes
325[libx264 @ 0x37417a0] frame= 135 QP=22.99 NAL=2 Slice:P Poc:78  I:83   P:1262 SKIP:1239 size=6869 bytes
326[libx264 @ 0x37417a0] frame= 136 QP=23.20 NAL=2 Slice:P Poc:80  I:67   P:1047 SKIP:1470 size=4771 bytes
327[libx264 @ 0x37417a0] frame= 137 QP=23.12 NAL=2 Slice:P Poc:82  I:96   P:1346 SKIP:1142 size=6843 bytes
328[libx264 @ 0x37417a0] frame= 138 QP=23.41 NAL=2 Slice:P Poc:84  I:49   P:1043 SKIP:1492 size=4674 bytes
329[libx264 @ 0x37417a0] frame= 139 QP=23.27 NAL=2 Slice:P Poc:86  I:85   P:1357 SKIP:1142 size=6991 bytes
330frame=  181 fps= 27 q=30.0 size=     935kB time=00:00:07.46 bitrate=1025.7kbits/s dup=1 drop=0   
331frame= 140 QP=23.51 NAL=2 Slice:P Poc:88  I:32   P:955  SKIP:1597 size=3751 bytes
332[libx264 @ 0x37417a0] frame= 141 QP=24.07 NAL=2 Slice:P Poc:90  I:54   P:1141 SKIP:1389 size=5193 bytes
333[libx264 @ 0x37417a0] frame= 142 QP=23.28 NAL=2 Slice:P Poc:92  I:108  P:1071 SKIP:1405 size=5053 bytes
334[libx264 @ 0x37417a0] frame= 143 QP=23.72 NAL=2 Slice:P Poc:94  I:121  P:1420 SKIP:1043 size=7674 bytes
335[libx264 @ 0x37417a0] frame= 144 QP=21.02 NAL=3 Slice:I Poc:0   I:2584 P:0    SKIP:0    size=62935 bytes
336[libx264 @ 0x37417a0] frame= 145 QP=21.74 NAL=2 Slice:P Poc:2   I:824  P:1556 SKIP:204  size=15574 bytes
337[libx264 @ 0x37417a0] frame= 146 QP=23.87 NAL=2 Slice:P Poc:4   I:67   P:1119 SKIP:1398 size=4903 bytes
338[libx264 @ 0x37417a0] frame= 147 QP=24.29 NAL=2 Slice:P Poc:6   I:56   P:1272 SKIP:1256 size=5592 bytes
339[libx264 @ 0x37417a0] frame= 148 QP=23.38 NAL=2 Slice:P Poc:8   I:73   P:1121 SKIP:1390 size=5091 bytes
340[libx264 @ 0x37417a0] frame= 149 QP=23.79 NAL=2 Slice:P Poc:10  I:66   P:1232 SKIP:1286 size=5191 bytes
341frame=  191 fps= 26 q=30.0 size=    1069kB time=00:00:07.89 bitrate=1109.5kbits/s dup=1 drop=0   
342frame= 150 QP=24.02 NAL=2 Slice:P Poc:12  I:56   P:944  SKIP:1584 size=3541 bytes
343[libx264 @ 0x37417a0] frame= 151 QP=24.39 NAL=2 Slice:P Poc:14  I:44   P:1235 SKIP:1305 size=4854 bytes
344[libx264 @ 0x37417a0] frame= 152 QP=23.85 NAL=2 Slice:P Poc:16  I:83   P:1179 SKIP:1322 size=4790 bytes
345[libx264 @ 0x37417a0] frame= 153 QP=23.73 NAL=2 Slice:P Poc:18  I:73   P:1390 SKIP:1121 size=6612 bytes
346[libx264 @ 0x37417a0] frame= 154 QP=23.59 NAL=2 Slice:P Poc:20  I:57   P:985  SKIP:1542 size=3858 bytes
347[libx264 @ 0x37417a0] frame= 155 QP=24.31 NAL=2 Slice:P Poc:22  I:48   P:1337 SKIP:1199 size=6605 bytes
348[libx264 @ 0x37417a0] frame= 156 QP=23.85 NAL=2 Slice:P Poc:24  I:56   P:1101 SKIP:1427 size=4414 bytes
349[libx264 @ 0x37417a0] frame= 157 QP=23.41 NAL=2 Slice:P Poc:26  I:65   P:1327 SKIP:1192 size=6340 bytes
350[libx264 @ 0x37417a0] frame= 158 QP=23.43 NAL=2 Slice:P Poc:28  I:61   P:1085 SKIP:1438 size=4008 bytes
351[libx264 @ 0x37417a0] frame= 159 QP=24.19 NAL=2 Slice:P Poc:30  I:65   P:1339 SKIP:1180 size=6607 bytes
352frame=  201 fps= 26 q=30.0 size=    1131kB time=00:00:08.32 bitrate=1113.7kbits/s dup=1 drop=0   
353frame= 160 QP=23.73 NAL=2 Slice:P Poc:32  I:48   P:1011 SKIP:1525 size=4149 bytes
354[libx264 @ 0x37417a0] frame= 161 QP=23.38 NAL=2 Slice:P Poc:34  I:61   P:1357 SKIP:1166 size=6868 bytes
355[libx264 @ 0x37417a0] frame= 162 QP=23.88 NAL=2 Slice:P Poc:36  I:52   P:1026 SKIP:1506 size=4002 bytes
356[libx264 @ 0x37417a0] frame= 163 QP=23.93 NAL=2 Slice:P Poc:38  I:46   P:1323 SKIP:1215 size=6521 bytes
357[libx264 @ 0x37417a0] frame= 164 QP=23.77 NAL=2 Slice:P Poc:40  I:63   P:1093 SKIP:1428 size=4542 bytes
358[libx264 @ 0x37417a0] frame= 165 QP=23.33 NAL=2 Slice:P Poc:42  I:63   P:1303 SKIP:1218 size=6006 bytes
359[libx264 @ 0x37417a0] frame= 166 QP=23.23 NAL=2 Slice:P Poc:44  I:21   P:906  SKIP:1657 size=3275 bytes
360[libx264 @ 0x37417a0] frame= 167 QP=24.23 NAL=2 Slice:P Poc:46  I:30   P:1179 SKIP:1375 size=4924 bytes
361[libx264 @ 0x37417a0] frame= 168 QP=23.64 NAL=2 Slice:P Poc:48  I:55   P:1177 SKIP:1352 size=5118 bytes
362[libx264 @ 0x37417a0] frame= 169 QP=23.53 NAL=2 Slice:P Poc:50  I:82   P:1340 SKIP:1162 size=7046 bytes
363[libx264 @ 0x37417a0] frame= 170 QP=23.53 NAL=2 Slice:P Poc:52  I:44   P:1145 SKIP:1395 size=4672 bytes
364[libx264 @ 0x37417a0] frame= 171 QP=24.10 NAL=2 Slice:P Poc:54  I:33   P:1326 SKIP:1225 size=6567 bytes
365frame=  213 fps= 26 q=30.0 size=    1208kB time=00:00:08.81 bitrate=1123.0kbits/s dup=1 drop=0   
366frame= 172 QP=23.01 NAL=2 Slice:P Poc:56  I:47   P:997  SKIP:1540 size=3778 bytes
367[libx264 @ 0x37417a0] frame= 173 QP=23.34 NAL=2 Slice:P Poc:58  I:58   P:1448 SKIP:1078 size=7161 bytes
368[libx264 @ 0x37417a0] frame= 174 QP=23.58 NAL=2 Slice:P Poc:60  I:41   P:1025 SKIP:1518 size=4139 bytes
369[libx264 @ 0x37417a0] frame= 175 QP=23.79 NAL=2 Slice:P Poc:62  I:49   P:1341 SKIP:1194 size=6765 bytes
370[libx264 @ 0x37417a0] frame= 176 QP=24.05 NAL=2 Slice:P Poc:64  I:19   P:884  SKIP:1681 size=3115 bytes
371[libx264 @ 0x37417a0] frame= 177 QP=23.99 NAL=2 Slice:P Poc:66  I:45   P:1146 SKIP:1393 size=4837 bytes
372[libx264 @ 0x37417a0] frame= 178 QP=23.80 NAL=2 Slice:P Poc:68  I:57   P:1151 SKIP:1376 size=4904 bytes
373[libx264 @ 0x37417a0] frame= 179 QP=23.43 NAL=2 Slice:P Poc:70  I:82   P:1294 SKIP:1208 size=7264 bytes
374[libx264 @ 0x37417a0] frame= 180 QP=23.81 NAL=2 Slice:P Poc:72  I:49   P:1043 SKIP:1492 size=4381 bytes
375[libx264 @ 0x37417a0] frame= 181 QP=23.66 NAL=2 Slice:P Poc:74  I:64   P:1180 SKIP:1340 size=6176 bytes
376frame=  223 fps= 25 q=30.0 size=    1273kB time=00:00:09.23 bitrate=1129.3kbits/s dup=1 drop=0   
377frame= 182 QP=23.77 NAL=2 Slice:P Poc:76  I:71   P:1046 SKIP:1467 size=4362 bytes
378[libx264 @ 0x37417a0] frame= 183 QP=24.15 NAL=2 Slice:P Poc:78  I:42   P:1204 SKIP:1338 size=5916 bytes
379[libx264 @ 0x37417a0] frame= 184 QP=24.25 NAL=2 Slice:P Poc:80  I:41   P:813  SKIP:1730 size=2858 bytes
380[libx264 @ 0x37417a0] frame= 185 QP=24.57 NAL=2 Slice:P Poc:82  I:31   P:1085 SKIP:1468 size=4360 bytes
381[libx264 @ 0x37417a0] frame= 186 QP=24.14 NAL=2 Slice:P Poc:84  I:101  P:1081 SKIP:1402 size=4601 bytes
382[libx264 @ 0x37417a0] frame= 187 QP=24.16 NAL=2 Slice:P Poc:86  I:94   P:1401 SKIP:1089 size=7138 bytes
383[libx264 @ 0x37417a0] frame= 188 QP=23.75 NAL=2 Slice:P Poc:88  I:81   P:1023 SKIP:1480 size=4252 bytes
384[libx264 @ 0x37417a0] frame= 189 QP=24.26 NAL=2 Slice:P Poc:90  I:60   P:1452 SKIP:1072 size=7110 bytes
385[libx264 @ 0x37417a0] frame= 190 QP=24.13 NAL=2 Slice:P Poc:92  I:58   P:1202 SKIP:1324 size=4978 bytes
386[libx264 @ 0x37417a0] frame= 191 QP=24.30 NAL=2 Slice:P Poc:94  I:61   P:1423 SKIP:1100 size=7752 bytes
387frame=  233 fps= 25 q=30.0 size=    1337kB time=00:00:09.66 bitrate=1133.1kbits/s dup=1 drop=0   
388frame= 192 QP=20.55 NAL=3 Slice:I Poc:0   I:2584 P:0    SKIP:0    size=75504 bytes
389[libx264 @ 0x37417a0] frame= 193 QP=24.85 NAL=2 Slice:P Poc:2   I:32   P:953  SKIP:1599 size=2903 bytes
390[libx264 @ 0x37417a0] frame= 194 QP=24.21 NAL=2 Slice:P Poc:4   I:78   P:1138 SKIP:1368 size=4357 bytes
391[libx264 @ 0x37417a0] frame= 195 QP=24.10 NAL=2 Slice:P Poc:6   I:86   P:1440 SKIP:1058 size=7387 bytes
392[libx264 @ 0x37417a0] frame= 196 QP=24.00 NAL=2 Slice:P Poc:8   I:67   P:1082 SKIP:1435 size=4651 bytes
393[libx264 @ 0x37417a0] frame= 197 QP=23.89 NAL=2 Slice:P Poc:10  I:73   P:1511 SKIP:1000 size=7939 bytes
394[libx264 @ 0x37417a0] frame= 198 QP=24.11 NAL=2 Slice:P Poc:12  I:60   P:1166 SKIP:1358 size=5367 bytes
395[libx264 @ 0x37417a0] frame= 199 QP=23.79 NAL=2 Slice:P Poc:14  I:64   P:1424 SKIP:1096 size=7877 bytes
396[libx264 @ 0x37417a0] frame= 200 QP=24.51 NAL=2 Slice:P Poc:16  I:64   P:1140 SKIP:1380 size=5289 bytes
397[libx264 @ 0x37417a0] frame= 201 QP=23.91 NAL=2 Slice:P Poc:18  I:58   P:1468 SKIP:1058 size=8077 bytes
398frame=  243 fps= 24 q=30.0 size=    1480kB time=00:00:10.06 bitrate=1204.2kbits/s dup=1 drop=0   
399frame= 202 QP=24.62 NAL=2 Slice:P Poc:20  I:59   P:1036 SKIP:1489 size=4532 bytes
400[libx264 @ 0x37417a0] frame= 203 QP=25.08 NAL=2 Slice:P Poc:22  I:39   P:1416 SKIP:1129 size=6000 bytes
401[libx264 @ 0x37417a0] frame= 204 QP=23.74 NAL=2 Slice:P Poc:24  I:169  P:1328 SKIP:1087 size=6382 bytes
402[libx264 @ 0x37417a0] frame= 205 QP=24.56 NAL=2 Slice:P Poc:26  I:96   P:1579 SKIP:909  size=9710 bytes
403[libx264 @ 0x37417a0] frame= 206 QP=24.11 NAL=2 Slice:P Poc:28  I:72   P:1148 SKIP:1364 size=5330 bytes
404[libx264 @ 0x37417a0] frame= 207 QP=24.62 NAL=2 Slice:P Poc:30  I:48   P:1534 SKIP:1002 size=7616 bytes
405[libx264 @ 0x37417a0] frame= 208 QP=24.68 NAL=2 Slice:P Poc:32  I:58   P:1210 SKIP:1316 size=5508 bytes
406[libx264 @ 0x37417a0] frame= 209 QP=24.42 NAL=2 Slice:P Poc:34  I:60   P:1581 SKIP:943  size=9050 bytes
407[libx264 @ 0x37417a0] frame= 210 QP=24.39 NAL=2 Slice:P Poc:36  I:40   P:1010 SKIP:1534 size=4546 bytes
408[libx264 @ 0x37417a0] frame= 211 QP=25.26 NAL=2 Slice:P Poc:38  I:36   P:1427 SKIP:1121 size=7168 bytes
409frame=  253 fps= 24 q=30.0 size=    1559kB time=00:00:10.49 bitrate=1217.0kbits/s dup=1 drop=0   
410frame= 212 QP=24.22 NAL=2 Slice:P Poc:40  I:155  P:1332 SKIP:1097 size=7483 bytes
411[libx264 @ 0x37417a0] frame= 213 QP=24.03 NAL=2 Slice:P Poc:42  I:141  P:1641 SKIP:802  size=11324 bytes
412[libx264 @ 0x37417a0] frame= 214 QP=24.28 NAL=2 Slice:P Poc:44  I:76   P:1281 SKIP:1227 size=6625 bytes
413[libx264 @ 0x37417a0] frame= 215 QP=24.53 NAL=2 Slice:P Poc:46  I:67   P:1500 SKIP:1017 size=10019 bytes
414[libx264 @ 0x37417a0] frame= 216 QP=25.11 NAL=2 Slice:P Poc:48  I:58   P:1305 SKIP:1221 size=8259 bytes
415[libx264 @ 0x37417a0] frame= 217 QP=23.43 NAL=2 Slice:P Poc:50  I:669  P:1844 SKIP:71   size=30102 bytes
416[libx264 @ 0x37417a0] frame= 218 QP=24.02 NAL=2 Slice:P Poc:52  I:88   P:1403 SKIP:1093 size=8629 bytes
417[libx264 @ 0x37417a0] frame= 219 QP=24.50 NAL=2 Slice:P Poc:54  I:52   P:1264 SKIP:1268 size=6506 bytes
418[libx264 @ 0x37417a0] frame= 220 QP=24.21 NAL=2 Slice:P Poc:56  I:32   P:1265 SKIP:1287 size=7585 bytes
419[libx264 @ 0x37417a0] frame= 221 QP=24.34 NAL=2 Slice:P Poc:58  I:39   P:1443 SKIP:1102 size=7641 bytes
420frame=  263 fps= 24 q=30.0 size=    1676kB time=00:00:10.88 bitrate=1261.9kbits/s dup=1 drop=0   
421frame= 222 QP=24.34 NAL=2 Slice:P Poc:60  I:51   P:1182 SKIP:1351 size=6886 bytes
422[libx264 @ 0x37417a0] frame= 223 QP=24.83 NAL=2 Slice:P Poc:62  I:13   P:1465 SKIP:1106 size=7677 bytes
423[libx264 @ 0x37417a0] frame= 224 QP=24.48 NAL=2 Slice:P Poc:64  I:46   P:1027 SKIP:1511 size=5126 bytes
424[libx264 @ 0x37417a0] frame= 225 QP=24.49 NAL=2 Slice:P Poc:66  I:34   P:1491 SKIP:1059 size=7702 bytes
425[libx264 @ 0x37417a0] frame= 226 QP=24.84 NAL=2 Slice:P Poc:68  I:74   P:1175 SKIP:1335 size=6002 bytes
426[libx264 @ 0x37417a0] frame= 227 QP=24.69 NAL=2 Slice:P Poc:70  I:50   P:1557 SKIP:977  size=8777 bytes
427[libx264 @ 0x37417a0] frame= 228 QP=24.64 NAL=2 Slice:P Poc:72  I:86   P:1193 SKIP:1305 size=6253 bytes
428[libx264 @ 0x37417a0] frame= 229 QP=24.64 NAL=2 Slice:P Poc:74  I:56   P:1462 SKIP:1066 size=7755 bytes
429[libx264 @ 0x37417a0] frame= 230 QP=24.83 NAL=2 Slice:P Poc:76  I:101  P:1268 SKIP:1215 size=6950 bytes
430[libx264 @ 0x37417a0] frame= 231 QP=24.90 NAL=2 Slice:P Poc:78  I:84   P:1524 SKIP:976  size=8787 bytes
431frame=  273 fps= 24 q=30.0 size=    1762kB time=00:00:11.30 bitrate=1276.3kbits/s dup=1 drop=0   
432frame= 232 QP=24.75 NAL=2 Slice:P Poc:80  I:144  P:1226 SKIP:1214 size=6586 bytes
433[libx264 @ 0x37417a0] frame= 233 QP=24.50 NAL=2 Slice:P Poc:82  I:101  P:1573 SKIP:910  size=9293 bytes
434[libx264 @ 0x37417a0] frame= 234 QP=24.52 NAL=2 Slice:P Poc:84  I:113  P:1309 SKIP:1162 size=6980 bytes
435[libx264 @ 0x37417a0] frame= 235 QP=24.67 NAL=2 Slice:P Poc:86  I:85   P:1670 SKIP:829  size=10420 bytes
436[libx264 @ 0x37417a0] frame= 236 QP=24.80 NAL=2 Slice:P Poc:88  I:106  P:1178 SKIP:1300 size=5983 bytes
437[libx264 @ 0x37417a0] frame= 237 QP=24.63 NAL=2 Slice:P Poc:90  I:79   P:1592 SKIP:913  size=8485 bytes
438[libx264 @ 0x37417a0] frame= 238 QP=24.39 NAL=2 Slice:P Poc:92  I:209  P:1478 SKIP:897  size=8943 bytes
439[libx264 @ 0x37417a0] frame= 239 QP=24.11 NAL=2 Slice:P Poc:94  I:181  P:1761 SKIP:642  size=12427 bytes
440frame=  281 fps= 23 q=30.0 size=    1838kB time=00:00:11.64 bitrate=1292.8kbits/s dup=1 drop=0   
441frame= 240 QP=21.01 NAL=3 Slice:I Poc:0   I:2584 P:0    SKIP:0    size=100449 bytes
442[libx264 @ 0x37417a0] frame= 241 QP=24.90 NAL=2 Slice:P Poc:2   I:56   P:1074 SKIP:1454 size=4087 bytes
443[libx264 @ 0x37417a0] frame= 242 QP=24.77 NAL=2 Slice:P Poc:4   I:66   P:1165 SKIP:1353 size=4229 bytes
444[libx264 @ 0x37417a0] frame= 243 QP=24.90 NAL=2 Slice:P Poc:6   I:64   P:1452 SKIP:1068 size=7250 bytes
445[libx264 @ 0x37417a0] frame= 244 QP=24.54 NAL=2 Slice:P Poc:8   I:143  P:1445 SKIP:996  size=7567 bytes
446[libx264 @ 0x37417a0] frame= 245 QP=24.23 NAL=2 Slice:P Poc:10  I:133  P:1821 SKIP:630  size=13100 bytes
447[libx264 @ 0x37417a0] frame= 246 QP=24.85 NAL=2 Slice:P Poc:12  I:32   P:1104 SKIP:1448 size=4855 bytes
448[libx264 @ 0x37417a0] frame= 247 QP=25.13 NAL=2 Slice:P Poc:14  I:19   P:1464 SKIP:1101 size=7834 bytes
449[libx264 @ 0x37417a0] frame= 248 QP=24.66 NAL=2 Slice:P Poc:16  I:124  P:1486 SKIP:974  size=8552 bytes
450[libx264 @ 0x37417a0] frame= 249 QP=24.24 NAL=2 Slice:P Poc:18  I:109  P:1709 SKIP:766  size=11856 bytes
451frame=  291 fps= 23 q=30.0 size=    2028kB time=00:00:12.07 bitrate=1375.7kbits/s dup=1 drop=0   
452frame= 250 QP=24.54 NAL=2 Slice:P Poc:20  I:64   P:1298 SKIP:1222 size=7217 bytes
453[libx264 @ 0x37417a0] frame= 251 QP=24.54 NAL=2 Slice:P Poc:22  I:49   P:1579 SKIP:956  size=10408 bytes
454[libx264 @ 0x37417a0] frame= 252 QP=24.60 NAL=2 Slice:P Poc:24  I:60   P:1238 SKIP:1286 size=6455 bytes
455[libx264 @ 0x37417a0] frame= 253 QP=24.57 NAL=2 Slice:P Poc:26  I:44   P:1581 SKIP:959  size=8957 bytes
456[libx264 @ 0x37417a0] frame= 254 QP=24.53 NAL=2 Slice:P Poc:28  I:89   P:1242 SKIP:1253 size=6509 bytes
457[libx264 @ 0x37417a0] frame= 255 QP=24.55 NAL=2 Slice:P Poc:30  I:55   P:1588 SKIP:941  size=8956 bytes
458[libx264 @ 0x37417a0] frame= 256 QP=24.46 NAL=2 Slice:P Poc:32  I:80   P:1308 SKIP:1196 size=6663 bytes
459[libx264 @ 0x37417a0] frame= 257 QP=24.27 NAL=2 Slice:P Poc:34  I:50   P:1563 SKIP:971  size=8881 bytes
460[libx264 @ 0x37417a0] frame= 258 QP=24.62 NAL=2 Slice:P Poc:36  I:53   P:1298 SKIP:1233 size=5800 bytes
461[libx264 @ 0x37417a0] frame= 259 QP=24.23 NAL=2 Slice:P Poc:38  I:57   P:1574 SKIP:953  size=9547 bytes
462frame=  301 fps= 23 q=30.0 size=    2118kB time=00:00:12.48 bitrate=1390.4kbits/s dup=1 drop=0   
463frame= 260 QP=25.09 NAL=2 Slice:P Poc:40  I:26   P:1129 SKIP:1429 size=5075 bytes
464[libx264 @ 0x37417a0] frame= 261 QP=25.08 NAL=2 Slice:P Poc:42  I:31   P:1511 SKIP:1042 size=8782 bytes
465[libx264 @ 0x37417a0] frame= 262 QP=25.64 NAL=2 Slice:P Poc:44  I:6    P:881  SKIP:1697 size=3606 bytes
466[libx264 @ 0x37417a0] frame= 263 QP=26.04 NAL=2 Slice:P Poc:46  I:6    P:1326 SKIP:1252 size=6383 bytes
467[libx264 @ 0x37417a0] frame= 264 QP=24.67 NAL=2 Slice:P Poc:48  I:37   P:1233 SKIP:1314 size=5645 bytes
468[libx264 @ 0x37417a0] frame= 265 QP=25.16 NAL=2 Slice:P Poc:50  I:25   P:1544 SKIP:1015 size=9068 bytes
469[libx264 @ 0x37417a0] frame= 266 QP=25.20 NAL=2 Slice:P Poc:52  I:20   P:951  SKIP:1613 size=4389 bytes
470[libx264 @ 0x37417a0] frame= 267 QP=25.11 NAL=2 Slice:P Poc:54  I:10   P:1472 SKIP:1102 size=9144 bytes
471[libx264 @ 0x37417a0] frame= 268 QP=25.38 NAL=2 Slice:P Poc:56  I:6    P:917  SKIP:1661 size=3895 bytes
472[libx264 @ 0x37417a0] frame= 269 QP=25.99 NAL=2 Slice:P Poc:58  I:10   P:1382 SKIP:1192 size=7624 bytes
473frame=  311 fps= 23 q=30.0 size=    2192kB time=00:00:12.90 bitrate=1391.6kbits/s dup=1 drop=0   
474frame= 270 QP=25.12 NAL=2 Slice:P Poc:60  I:21   P:1246 SKIP:1317 size=5628 bytes
475[libx264 @ 0x37417a0] frame= 271 QP=25.03 NAL=2 Slice:P Poc:62  I:19   P:1554 SKIP:1011 size=11339 bytes
476[libx264 @ 0x37417a0] frame= 272 QP=25.70 NAL=2 Slice:P Poc:64  I:1    P:1010 SKIP:1573 size=4428 bytes
477[libx264 @ 0x37417a0] frame= 273 QP=26.00 NAL=2 Slice:P Poc:66  I:3    P:1234 SKIP:1347 size=6273 bytes
478[libx264 @ 0x37417a0] frame= 274 QP=25.72 NAL=2 Slice:P Poc:68  I:6    P:1167 SKIP:1411 size=5598 bytes
479[libx264 @ 0x37417a0] frame= 275 QP=25.68 NAL=2 Slice:P Poc:70  I:10   P:1375 SKIP:1199 size=9769 bytes
480[libx264 @ 0x37417a0] frame= 276 QP=26.43 NAL=2 Slice:P Poc:72  I:1    P:839  SKIP:1744 size=3507 bytes
481[libx264 @ 0x37417a0] frame= 277 QP=26.39 NAL=2 Slice:P Poc:74  I:1    P:1092 SKIP:1491 size=5576 bytes
482[libx264 @ 0x37417a0] frame= 278 QP=24.43 NAL=2 Slice:P Poc:76  I:103  P:1292 SKIP:1189 size=5602 bytes
483[libx264 @ 0x37417a0] frame= 279 QP=24.35 NAL=2 Slice:P Poc:78  I:115  P:1842 SKIP:627  size=15605 bytes
484frame=  321 fps= 23 q=30.0 size=    2277kB time=00:00:13.33 bitrate=1399.1kbits/s dup=1 drop=0   
485frame= 280 QP=26.08 NAL=2 Slice:P Poc:80  I:1    P:471  SKIP:2112 size=1946 bytes
486[libx264 @ 0x37417a0] frame= 281 QP=27.18 NAL=2 Slice:P Poc:82  I:1    P:559  SKIP:2024 size=2407 bytes
487[libx264 @ 0x37417a0] frame= 282 QP=28.17 NAL=2 Slice:P Poc:84  I:1    P:432  SKIP:2151 size=1305 bytes
488[libx264 @ 0x37417a0] frame= 283 QP=28.59 NAL=2 Slice:P Poc:86  I:1    P:624  SKIP:1959 size=2118 bytes
489[libx264 @ 0x37417a0] frame= 284 QP=23.39 NAL=2 Slice:P Poc:88  I:0    P:116  SKIP:2468 size=357 bytes
490[libx264 @ 0x37417a0] frame= 285 QP=27.16 NAL=2 Slice:P Poc:90  I:0    P:63   SKIP:2521 size=179 bytes
491[libx264 @ 0x37417a0] frame= 286 QP=25.87 NAL=2 Slice:P Poc:92  I:2581 P:3    SKIP:0    size=101379 bytes
492[libx264 @ 0x37417a0] frame= 287 QP=26.94 NAL=2 Slice:P Poc:94  I:8    P:801  SKIP:1775 size=4157 bytes
493[libx264 @ 0x37417a0] frame= 288 QP=23.24 NAL=3 Slice:I Poc:0   I:2584 P:0    SKIP:0    size=117073 bytes
494[libx264 @ 0x37417a0] frame= 289 QP=25.58 NAL=2 Slice:P Poc:2   I:31   P:2230 SKIP:323  size=18233 bytes
495[libx264 @ 0x37417a0] frame= 290 QP=26.25 NAL=2 Slice:P Poc:4   I:13   P:1411 SKIP:1160 size=7318 bytes
496[libx264 @ 0x37417a0] frame= 291 QP=26.42 NAL=2 Slice:P Poc:6   I:18   P:1489 SKIP:1077 size=7062 bytes
497frame=  333 fps= 23 q=30.0 size=    2565kB time=00:00:13.80 bitrate=1522.6kbits/s dup=1 drop=0   
498frame= 292 QP=26.43 NAL=2 Slice:P Poc:8   I:9    P:1334 SKIP:1241 size=6408 bytes
499[libx264 @ 0x37417a0] frame= 293 QP=26.43 NAL=2 Slice:P Poc:10  I:18   P:1523 SKIP:1043 size=7535 bytes
500[libx264 @ 0x37417a0] frame= 294 QP=26.20 NAL=2 Slice:P Poc:12  I:18   P:1415 SKIP:1151 size=6848 bytes
501[libx264 @ 0x37417a0] frame= 295 QP=26.41 NAL=2 Slice:P Poc:14  I:16   P:1649 SKIP:919  size=8020 bytes
502[libx264 @ 0x37417a0] frame= 296 QP=26.44 NAL=2 Slice:P Poc:16  I:8    P:1481 SKIP:1095 size=6624 bytes
503[libx264 @ 0x37417a0] frame= 297 QP=26.20 NAL=2 Slice:P Poc:18  I:22   P:1655 SKIP:907  size=8455 bytes
504[libx264 @ 0x37417a0] frame= 298 QP=26.22 NAL=2 Slice:P Poc:20  I:12   P:1421 SKIP:1151 size=6415 bytes
505[libx264 @ 0x37417a0] frame= 299 QP=26.25 NAL=2 Slice:P Poc:22  I:23   P:1628 SKIP:933  size=8523 bytes
506frame=  341 fps= 22 q=30.0 size=    2634kB time=00:00:14.16 bitrate=1523.5kbits/s dup=1 drop=0   
507frame= 300 QP=26.48 NAL=2 Slice:P Poc:24  I:8    P:1355 SKIP:1221 size=6291 bytes
508[libx264 @ 0x37417a0] frame= 301 QP=25.98 NAL=2 Slice:P Poc:26  I:19   P:1736 SKIP:829  size=8891 bytes
509[libx264 @ 0x37417a0] frame= 302 QP=26.80 NAL=2 Slice:P Poc:28  I:7    P:1282 SKIP:1295 size=5642 bytes
510[libx264 @ 0x37417a0] frame= 303 QP=26.40 NAL=2 Slice:P Poc:30  I:16   P:1565 SKIP:1003 size=7271 bytes
511[libx264 @ 0x37417a0] frame= 304 QP=26.24 NAL=2 Slice:P Poc:32  I:10   P:1525 SKIP:1049 size=7170 bytes
512[libx264 @ 0x37417a0] frame= 305 QP=26.18 NAL=2 Slice:P Poc:34  I:22   P:1811 SKIP:751  size=9917 bytes
513[libx264 @ 0x37417a0] frame= 306 QP=26.30 NAL=2 Slice:P Poc:36  I:10   P:1479 SKIP:1095 size=6900 bytes
514[libx264 @ 0x37417a0] frame= 307 QP=26.14 NAL=2 Slice:P Poc:38  I:21   P:1811 SKIP:752  size=10007 bytes
515[libx264 @ 0x37417a0] frame= 308 QP=26.57 NAL=2 Slice:P Poc:40  I:8    P:1344 SKIP:1232 size=6205 bytes
516[libx264 @ 0x37417a0] frame= 309 QP=26.23 NAL=2 Slice:P Poc:42  I:24   P:1819 SKIP:741  size=10012 bytes
517frame=  351 fps= 22 q=30.0 size=    2725kB time=00:00:14.54 bitrate=1534.0kbits/s dup=1 drop=0   
518frame= 310 QP=26.48 NAL=2 Slice:P Poc:44  I:11   P:1360 SKIP:1213 size=6137 bytes
519[libx264 @ 0x37417a0] frame= 311 QP=26.39 NAL=2 Slice:P Poc:46  I:13   P:1801 SKIP:770  size=9561 bytes
520[libx264 @ 0x37417a0] frame= 312 QP=26.44 NAL=2 Slice:P Poc:48  I:13   P:1335 SKIP:1236 size=6369 bytes
521[libx264 @ 0x37417a0] frame= 313 QP=26.08 NAL=2 Slice:P Poc:50  I:18   P:1822 SKIP:744  size=10245 bytes
522[libx264 @ 0x37417a0] frame= 314 QP=26.58 NAL=2 Slice:P Poc:52  I:8    P:1203 SKIP:1373 size=5603 bytes
523[libx264 @ 0x37417a0] frame= 315 QP=26.50 NAL=2 Slice:P Poc:54  I:16   P:1541 SKIP:1027 size=7161 bytes
524[libx264 @ 0x37417a0] frame= 316 QP=26.24 NAL=2 Slice:P Poc:56  I:18   P:1503 SKIP:1063 size=7196 bytes
525[libx264 @ 0x37417a0] frame= 317 QP=26.03 NAL=2 Slice:P Poc:58  I:17   P:1953 SKIP:614  size=10947 bytes
526frame=  359 fps= 22 q=30.0 size=    2798kB time=00:00:14.91 bitrate=1537.2kbits/s dup=1 drop=0   
527frame= 318 QP=26.25 NAL=2 Slice:P Poc:60  I:6    P:1383 SKIP:1195 size=6530 bytes
528[libx264 @ 0x37417a0] frame= 319 QP=26.11 NAL=2 Slice:P Poc:62  I:28   P:1771 SKIP:785  size=9659 bytes
529[libx264 @ 0x37417a0] frame= 320 QP=26.38 NAL=2 Slice:P Poc:64  I:12   P:1398 SKIP:1174 size=6710 bytes
530[libx264 @ 0x37417a0] frame= 321 QP=26.15 NAL=2 Slice:P Poc:66  I:17   P:1821 SKIP:746  size=9857 bytes
531[libx264 @ 0x37417a0] frame= 322 QP=26.28 NAL=2 Slice:P Poc:68  I:14   P:1370 SKIP:1200 size=6603 bytes
532[libx264 @ 0x37417a0] frame= 323 QP=26.19 NAL=2 Slice:P Poc:70  I:21   P:1796 SKIP:767  size=9930 bytes
533[libx264 @ 0x37417a0] frame= 324 QP=26.30 NAL=2 Slice:P Poc:72  I:10   P:1377 SKIP:1197 size=6402 bytes
534[libx264 @ 0x37417a0] frame= 325 QP=26.24 NAL=2 Slice:P Poc:74  I:16   P:1812 SKIP:756  size=9928 bytes
535[libx264 @ 0x37417a0] frame= 326 QP=26.30 NAL=2 Slice:P Poc:76  I:6    P:1443 SKIP:1135 size=6725 bytes
536[libx264 @ 0x37417a0] frame= 327 QP=26.10 NAL=2 Slice:P Poc:78  I:26   P:1836 SKIP:722  size=10159 bytes
537frame=  369 fps= 22 q=30.0 size=    2892kB time=00:00:15.29 bitrate=1549.0kbits/s dup=1 drop=0   
538frame= 328 QP=26.75 NAL=2 Slice:P Poc:80  I:12   P:1212 SKIP:1360 size=5626 bytes
539[libx264 @ 0x37417a0] frame= 329 QP=26.57 NAL=2 Slice:P Poc:82  I:22   P:1512 SKIP:1050 size=7304 bytes
540[libx264 @ 0x37417a0] frame= 330 QP=26.32 NAL=2 Slice:P Poc:84  I:8    P:1449 SKIP:1127 size=7001 bytes
541[libx264 @ 0x37417a0] frame= 331 QP=26.03 NAL=2 Slice:P Poc:86  I:32   P:1985 SKIP:567  size=11478 bytes
542[libx264 @ 0x37417a0] frame= 332 QP=26.24 NAL=2 Slice:P Poc:88  I:16   P:1326 SKIP:1242 size=6494 bytes
543[libx264 @ 0x37417a0] frame= 333 QP=26.18 NAL=2 Slice:P Poc:90  I:22   P:1767 SKIP:795  size=9753 bytes
544[libx264 @ 0x37417a0] frame= 334 QP=26.19 NAL=2 Slice:P Poc:92  I:7    P:1327 SKIP:1250 size=6297 bytes
545[libx264 @ 0x37417a0] frame= 335 QP=26.32 NAL=2 Slice:P Poc:94  I:14   P:1806 SKIP:764  size=10081 bytes
546frame=  377 fps= 22 q=30.0 size=    2967kB time=00:00:15.65 bitrate=1552.2kbits/s dup=1 drop=0   
547frame= 336 QP=22.76 NAL=3 Slice:I Poc:0   I:2584 P:0    SKIP:0    size=115670 bytes
548[libx264 @ 0x37417a0] frame= 337 QP=26.79 NAL=2 Slice:P Poc:2   I:15   P:924  SKIP:1645 size=3899 bytes
549[libx264 @ 0x37417a0] frame= 338 QP=26.69 NAL=2 Slice:P Poc:4   I:7    P:1267 SKIP:1310 size=4978 bytes
550[libx264 @ 0x37417a0] frame= 339 QP=26.49 NAL=2 Slice:P Poc:6   I:13   P:1719 SKIP:852  size=8793 bytes
551[libx264 @ 0x37417a0] frame= 340 QP=26.73 NAL=2 Slice:P Poc:8   I:8    P:1170 SKIP:1406 size=5201 bytes
552[libx264 @ 0x37417a0] frame= 341 QP=26.69 NAL=2 Slice:P Poc:10  I:14   P:1397 SKIP:1173 size=6626 bytes
553[libx264 @ 0x37417a0] frame= 342 QP=26.57 NAL=2 Slice:P Poc:12  I:9    P:1346 SKIP:1229 size=5897 bytes
554[libx264 @ 0x37417a0] frame= 343 QP=26.26 NAL=2 Slice:P Poc:14  I:29   P:1829 SKIP:726  size=10242 bytes
555[libx264 @ 0x37417a0] frame= 344 QP=26.57 NAL=2 Slice:P Poc:16  I:12   P:1293 SKIP:1279 size=5851 bytes
556[libx264 @ 0x37417a0] frame= 345 QP=26.36 NAL=2 Slice:P Poc:18  I:30   P:1756 SKIP:798  size=9357 bytes
557frame=  387 fps= 22 q=30.0 size=    3160kB time=00:00:16.06 bitrate=1611.6kbits/s dup=1 drop=0   
558frame= 346 QP=26.88 NAL=2 Slice:P Poc:20  I:8    P:1242 SKIP:1334 size=5637 bytes
559[libx264 @ 0x37417a0] frame= 347 QP=26.34 NAL=2 Slice:P Poc:22  I:25   P:1683 SKIP:876  size=8816 bytes
560[libx264 @ 0x37417a0] frame= 348 QP=26.79 NAL=2 Slice:P Poc:24  I:12   P:1281 SKIP:1291 size=6151 bytes
561[libx264 @ 0x37417a0] frame= 349 QP=26.45 NAL=2 Slice:P Poc:26  I:16   P:1783 SKIP:785  size=9270 bytes
562[libx264 @ 0x37417a0] frame= 350 QP=26.59 NAL=2 Slice:P Poc:28  I:5    P:1363 SKIP:1216 size=6225 bytes
563[libx264 @ 0x37417a0] frame= 351 QP=26.61 NAL=2 Slice:P Poc:30  I:17   P:1725 SKIP:842  size=9457 bytes
564[libx264 @ 0x37417a0] frame= 352 QP=26.59 NAL=2 Slice:P Poc:32  I:4    P:1310 SKIP:1270 size=5880 bytes
565[libx264 @ 0x37417a0] frame= 353 QP=26.48 NAL=2 Slice:P Poc:34  I:19   P:1760 SKIP:805  size=9478 bytes
566[libx264 @ 0x37417a0] frame= 354 QP=27.06 NAL=2 Slice:P Poc:36  I:10   P:1120 SKIP:1454 size=5075 bytes
567[libx264 @ 0x37417a0] frame= 355 QP=27.20 NAL=2 Slice:P Poc:38  I:13   P:1431 SKIP:1140 size=6755 bytes
568frame=  397 fps= 22 q=30.0 size=    3244kB time=00:00:16.49 bitrate=1611.6kbits/s dup=1 drop=0   
569frame= 356 QP=26.89 NAL=2 Slice:P Poc:40  I:7    P:1364 SKIP:1213 size=5987 bytes
570[libx264 @ 0x37417a0] frame= 357 QP=26.86 NAL=2 Slice:P Poc:42  I:16   P:1768 SKIP:800  size=9479 bytes
571[libx264 @ 0x37417a0] frame= 358 QP=27.36 NAL=2 Slice:P Poc:44  I:7    P:1223 SKIP:1354 size=5594 bytes
572[libx264 @ 0x37417a0] frame= 359 QP=26.94 NAL=2 Slice:P Poc:46  I:18   P:1614 SKIP:952  size=8457 bytes
573[libx264 @ 0x37417a0] frame= 360 QP=27.31 NAL=2 Slice:P Poc:48  I:4    P:1477 SKIP:1103 size=7143 bytes
574[libx264 @ 0x37417a0] frame= 361 QP=26.13 NAL=2 Slice:P Poc:50  I:75   P:2433 SKIP:76   size=24521 bytes
575[libx264 @ 0x37417a0] frame= 362 QP=26.50 NAL=2 Slice:P Poc:52  I:16   P:1497 SKIP:1071 size=7762 bytes
576[libx264 @ 0x37417a0] frame= 363 QP=26.57 NAL=2 Slice:P Poc:54  I:15   P:1736 SKIP:833  size=8238 bytes
577[libx264 @ 0x37417a0] frame= 364 QP=26.77 NAL=2 Slice:P Poc:56  I:22   P:1386 SKIP:1176 size=6634 bytes
578[libx264 @ 0x37417a0] frame= 365 QP=26.81 NAL=2 Slice:P Poc:58  I:21   P:1616 SKIP:947  size=8108 bytes
579frame=  407 fps= 22 q=30.0 size=    3348kB time=00:00:16.87 bitrate=1625.5kbits/s dup=1 drop=0   
580frame= 366 QP=26.99 NAL=2 Slice:P Poc:60  I:15   P:1325 SKIP:1244 size=6028 bytes
581[libx264 @ 0x37417a0] frame= 367 QP=27.03 NAL=2 Slice:P Poc:62  I:22   P:1700 SKIP:862  size=8302 bytes
582[libx264 @ 0x37417a0] frame= 368 QP=27.52 NAL=2 Slice:P Poc:64  I:10   P:1265 SKIP:1309 size=5787 bytes
583[libx264 @ 0x37417a0] frame= 369 QP=27.34 NAL=2 Slice:P Poc:66  I:28   P:1556 SKIP:1000 size=7613 bytes
584[libx264 @ 0x37417a0] frame= 370 QP=27.56 NAL=2 Slice:P Poc:68  I:13   P:1238 SKIP:1333 size=5527 bytes
585[libx264 @ 0x37417a0] frame= 371 QP=27.59 NAL=2 Slice:P Poc:70  I:18   P:1568 SKIP:998  size=7330 bytes
586[libx264 @ 0x37417a0] frame= 372 QP=27.97 NAL=2 Slice:P Poc:72  I:8    P:1108 SKIP:1468 size=4820 bytes
587[libx264 @ 0x37417a0] frame= 373 QP=28.11 NAL=2 Slice:P Poc:74  I:19   P:1413 SKIP:1152 size=6277 bytes
588[libx264 @ 0x37417a0] frame= 374 QP=28.96 NAL=2 Slice:P Poc:76  I:11   P:1053 SKIP:1520 size=4281 bytes
589[libx264 @ 0x37417a0] frame= 375 QP=28.68 NAL=2 Slice:P Poc:78  I:28   P:1370 SKIP:1186 size=5707 bytes
590frame=  417 fps= 21 q=30.0 size=    3420kB time=00:00:17.30 bitrate=1619.5kbits/s dup=1 drop=0   
591frame= 376 QP=30.08 NAL=2 Slice:P Poc:80  I:10   P:767  SKIP:1807 size=3487 bytes
592[libx264 @ 0x37417a0] frame= 377 QP=30.64 NAL=2 Slice:P Poc:82  I:18   P:979  SKIP:1587 size=3817 bytes
593[libx264 @ 0x37417a0] frame= 378 QP=32.94 NAL=2 Slice:P Poc:84  I:12   P:628  SKIP:1944 size=2298 bytes
594[libx264 @ 0x37417a0] frame= 379 QP=18.90 NAL=2 Slice:P Poc:86  I:2584 P:0    SKIP:0    size=34936 bytes
595[libx264 @ 0x37417a0] frame= 380 QP=21.18 NAL=2 Slice:P Poc:88  I:8    P:287  SKIP:2289 size=775 bytes
596[libx264 @ 0x37417a0] frame= 381 QP=23.05 NAL=2 Slice:P Poc:90  I:2    P:121  SKIP:2461 size=394 bytes
597[libx264 @ 0x37417a0] frame= 382 QP=23.67 NAL=2 Slice:P Poc:92  I:5    P:192  SKIP:2387 size=558 bytes
598[libx264 @ 0x37417a0] frame= 383 QP=23.86 NAL=2 Slice:P Poc:94  I:2    P:127  SKIP:2455 size=535 bytes
599[libx264 @ 0x37417a0] frame= 384 QP=16.60 NAL=3 Slice:I Poc:0   I:2584 P:0    SKIP:0    size=39042 bytes
600[libx264 @ 0x37417a0] frame= 385 QP=21.85 NAL=2 Slice:P Poc:2   I:12   P:302  SKIP:2270 size=641 bytes
601[libx264 @ 0x37417a0] frame= 386 QP=25.58 NAL=2 Slice:P Poc:4   I:16   P:287  SKIP:2281 size=1160 bytes
602[libx264 @ 0x37417a0] frame= 387 QP=26.12 NAL=2 Slice:P Poc:6   I:132  P:284  SKIP:2168 size=2701 bytes
603[libx264 @ 0x37417a0] frame= 388 QP=25.24 NAL=2 Slice:P Poc:8   I:85   P:375  SKIP:2124 size=2738 bytes
604[libx264 @ 0x37417a0] frame= 389 QP=25.26 NAL=2 Slice:P Poc:10  I:92   P:324  SKIP:2168 size=2766 bytes
605frame=  431 fps= 22 q=30.0 size=    3533kB time=00:00:17.89 bitrate=1616.8kbits/s dup=1 drop=0   
606frame= 390 QP=25.06 NAL=2 Slice:P Poc:12  I:48   P:420  SKIP:2116 size=2405 bytes
607[libx264 @ 0x37417a0] frame= 391 QP=25.54 NAL=2 Slice:P Poc:14  I:94   P:398  SKIP:2092 size=2990 bytes
608[libx264 @ 0x37417a0] frame= 392 QP=25.28 NAL=2 Slice:P Poc:16  I:77   P:458  SKIP:2049 size=3450 bytes
609[libx264 @ 0x37417a0] frame= 393 QP=25.57 NAL=2 Slice:P Poc:18  I:86   P:464  SKIP:2034 size=3780 bytes
610[libx264 @ 0x37417a0] frame= 394 QP=23.74 NAL=2 Slice:P Poc:20  I:168  P:517  SKIP:1899 size=6606 bytes
611[libx264 @ 0x37417a0] frame= 395 QP=24.05 NAL=2 Slice:P Poc:22  I:150  P:487  SKIP:1947 size=6159 bytes
612[libx264 @ 0x37417a0] frame= 396 QP=23.50 NAL=2 Slice:P Poc:24  I:19   P:476  SKIP:2089 size=3243 bytes
613[libx264 @ 0x37417a0] frame= 397 QP=23.92 NAL=2 Slice:P Poc:26  I:19   P:455  SKIP:2110 size=2541 bytes
614[libx264 @ 0x37417a0] frame= 398 QP=23.49 NAL=2 Slice:P Poc:28  I:22   P:450  SKIP:2112 size=2351 bytes
615[libx264 @ 0x37417a0] frame= 399 QP=23.41 NAL=2 Slice:P Poc:30  I:16   P:430  SKIP:2138 size=2175 bytes
616[libx264 @ 0x37417a0] frame= 400 QP=23.79 NAL=2 Slice:P Poc:32  I:4    P:373  SKIP:2207 size=1496 bytes
617[libx264 @ 0x37417a0] frame= 401 QP=24.33 NAL=2 Slice:P Poc:34  I:4    P:354  SKIP:2226 size=1485 bytes
618[libx264 @ 0x37417a0] frame= 402 QP=23.48 NAL=2 Slice:P Poc:36  I:5    P:428  SKIP:2151 size=1692 bytes
619[libx264 @ 0x37417a0] frame= 403 QP=23.70 NAL=2 Slice:P Poc:38  I:6    P:458  SKIP:2120 size=1935 bytes
620[libx264 @ 0x37417a0] frame= 404 QP=24.50 NAL=2 Slice:P Poc:40  I:4    P:310  SKIP:2270 size=1295 bytes
621[libx264 @ 0x37417a0] frame= 405 QP=25.41 NAL=2 Slice:P Poc:42  I:9    P:356  SKIP:2219 size=1620 bytes
622[libx264 @ 0x37417a0] frame= 406 QP=26.30 NAL=2 Slice:P Poc:44  I:4    P:291  SKIP:2289 size=1429 bytes
623[libx264 @ 0x37417a0] frame= 407 QP=25.48 NAL=2 Slice:P Poc:46  I:6    P:338  SKIP:2240 size=1678 bytes
624frame=  449 fps= 22 q=30.0 size=    3598kB time=00:00:18.66 bitrate=1578.8kbits/s dup=1 drop=0   
625frame= 408 QP=23.39 NAL=2 Slice:P Poc:48  I:8    P:411  SKIP:2165 size=1613 bytes
626[libx264 @ 0x37417a0] frame= 409 QP=23.99 NAL=2 Slice:P Poc:50  I:9    P:334  SKIP:2241 size=1530 bytes
627[libx264 @ 0x37417a0] frame= 410 QP=26.53 NAL=2 Slice:P Poc:52  I:4    P:286  SKIP:2294 size=987 bytes
628[libx264 @ 0x37417a0] frame= 411 QP=25.10 NAL=2 Slice:P Poc:54  I:6    P:332  SKIP:2246 size=1222 bytes
629[libx264 @ 0x37417a0] frame= 412 QP=25.17 NAL=2 Slice:P Poc:56  I:9    P:325  SKIP:2250 size=975 bytes
630[libx264 @ 0x37417a0] frame= 413 QP=26.67 NAL=2 Slice:P Poc:58  I:3    P:315  SKIP:2266 size=1029 bytes
631[libx264 @ 0x37417a0] frame= 414 QP=25.35 NAL=2 Slice:P Poc:60  I:1    P:253  SKIP:2330 size=691 bytes
632[libx264 @ 0x37417a0] frame= 415 QP=25.18 NAL=2 Slice:P Poc:62  I:3    P:256  SKIP:2325 size=741 bytes
633[libx264 @ 0x37417a0] frame= 416 QP=26.04 NAL=2 Slice:P Poc:64  I:44   P:416  SKIP:2124 size=2413 bytes
634[libx264 @ 0x37417a0] frame= 417 QP=25.67 NAL=2 Slice:P Poc:66  I:190  P:323  SKIP:2071 size=4398 bytes
635[libx264 @ 0x37417a0] frame= 418 QP=25.15 NAL=2 Slice:P Poc:68  I:52   P:440  SKIP:2092 size=3428 bytes
636[libx264 @ 0x37417a0] frame= 419 QP=26.25 NAL=2 Slice:P Poc:70  I:16   P:376  SKIP:2192 size=1786 bytes
637[libx264 @ 0x37417a0] frame= 420 QP=26.03 NAL=2 Slice:P Poc:72  I:51   P:438  SKIP:2095 size=2356 bytes
638[libx264 @ 0x37417a0] frame= 421 QP=25.98 NAL=2 Slice:P Poc:74  I:113  P:448  SKIP:2023 size=3904 bytes
639[libx264 @ 0x37417a0] frame= 422 QP=25.61 NAL=2 Slice:P Poc:76  I:117  P:547  SKIP:1920 size=4635 bytes
640[libx264 @ 0x37417a0] frame= 423 QP=25.02 NAL=2 Slice:P Poc:78  I:155  P:465  SKIP:1964 size=5475 bytes
641[libx264 @ 0x37417a0] frame= 424 QP=25.39 NAL=2 Slice:P Poc:80  I:67   P:532  SKIP:1985 size=3406 bytes
642[libx264 @ 0x37417a0] frame= 425 QP=24.75 NAL=2 Slice:P Poc:82  I:48   P:560  SKIP:1976 size=3109 bytes
643[libx264 @ 0x37417a0] frame= 426 QP=24.56 NAL=2 Slice:P Poc:84  I:38   P:591  SKIP:1955 size=3219 bytes
644[libx264 @ 0x37417a0] frame= 427 QP=24.85 NAL=2 Slice:P Poc:86  I:42   P:595  SKIP:1947 size=3220 bytes
645frame=  469 fps= 22 q=30.0 size=    3668kB time=00:00:19.47 bitrate=1542.7kbits/s dup=1 drop=0   
646frame= 428 QP=24.54 NAL=2 Slice:P Poc:88  I:28   P:490  SKIP:2066 size=2190 bytes
647[libx264 @ 0x37417a0] frame= 429 QP=24.78 NAL=2 Slice:P Poc:90  I:22   P:465  SKIP:2097 size=1784 bytes
648[libx264 @ 0x37417a0] frame= 430 QP=24.06 NAL=2 Slice:P Poc:92  I:16   P:515  SKIP:2053 size=1924 bytes
649[libx264 @ 0x37417a0] frame= 431 QP=26.75 NAL=2 Slice:P Poc:94  I:42   P:581  SKIP:1961 size=2536 bytes
650[libx264 @ 0x37417a0] frame= 432 QP=19.67 NAL=3 Slice:I Poc:0   I:2584 P:0    SKIP:0    size=36802 bytes
651[libx264 @ 0x37417a0] frame= 433 QP=21.73 NAL=2 Slice:P Poc:2   I:701  P:1335 SKIP:548  size=12996 bytes
652[libx264 @ 0x37417a0] frame= 434 QP=22.58 NAL=2 Slice:P Poc:4   I:496  P:568  SKIP:1520 size=7296 bytes
653[libx264 @ 0x37417a0] frame= 435 QP=21.95 NAL=2 Slice:P Poc:6   I:347  P:537  SKIP:1700 size=7588 bytes
654[libx264 @ 0x37417a0] frame= 436 QP=21.53 NAL=2 Slice:P Poc:8   I:151  P:591  SKIP:1842 size=6192 bytes
655[libx264 @ 0x37417a0] frame= 437 QP=20.38 NAL=2 Slice:P Poc:10  I:40   P:469  SKIP:2075 size=2469 bytes
656[libx264 @ 0x37417a0] frame= 438 QP=21.98 NAL=2 Slice:P Poc:12  I:16   P:399  SKIP:2169 size=1999 bytes
657No more output streams to write to, finishing.
658[libx264 @ 0x37417a0] frame= 439 QP=22.39 NAL=2 Slice:P Poc:14  I:12   P:381  SKIP:2191 size=1601 bytes
659[libx264 @ 0x37417a0] frame= 440 QP=23.07 NAL=2 Slice:P Poc:16  I:3    P:333  SKIP:2248 size=1393 bytes
660[libx264 @ 0x37417a0] frame= 441 QP=22.32 NAL=2 Slice:P Poc:18  I:8    P:349  SKIP:2227 size=1458 bytes
661[libx264 @ 0x37417a0] frame= 442 QP=22.76 NAL=2 Slice:P Poc:20  I:7    P:352  SKIP:2225 size=1303 bytes
662[libx264 @ 0x37417a0] frame= 443 QP=22.80 NAL=2 Slice:P Poc:22  I:3    P:326  SKIP:2255 size=1214 bytes
663[libx264 @ 0x37417a0] frame= 444 QP=24.43 NAL=2 Slice:P Poc:24  I:9    P:315  SKIP:2260 size=1507 bytes
664[libx264 @ 0x37417a0] frame= 445 QP=23.75 NAL=2 Slice:P Poc:26  I:19   P:331  SKIP:2234 size=1923 bytes
665[libx264 @ 0x37417a0] frame= 446 QP=23.48 NAL=2 Slice:P Poc:28  I:11   P:353  SKIP:2220 size=1823 bytes
666[libx264 @ 0x37417a0] frame= 447 QP=22.85 NAL=2 Slice:P Poc:30  I:7    P:376  SKIP:2201 size=2070 bytes
667[libx264 @ 0x37417a0] frame= 448 QP=23.23 NAL=2 Slice:P Poc:32  I:11   P:331  SKIP:2242 size=1980 bytes
668[libx264 @ 0x37417a0] frame= 449 QP=23.30 NAL=2 Slice:P Poc:34  I:7    P:291  SKIP:2286 size=1577 bytes
669[libx264 @ 0x37417a0] frame= 450 QP=23.10 NAL=2 Slice:P Poc:36  I:0    P:271  SKIP:2313 size=1129 bytes
670[libx264 @ 0x37417a0] frame= 451 QP=23.89 NAL=2 Slice:P Poc:38  I:3    P:320  SKIP:2261 size=1411 bytes
671[libx264 @ 0x37417a0] frame= 452 QP=23.66 NAL=2 Slice:P Poc:40  I:7    P:288  SKIP:2289 size=1106 bytes
672[libx264 @ 0x37417a0] frame= 453 QP=24.00 NAL=2 Slice:P Poc:42  I:4    P:280  SKIP:2300 size=1119 bytes
673[libx264 @ 0x37417a0] frame= 454 QP=23.23 NAL=2 Slice:P Poc:44  I:6    P:254  SKIP:2324 size=1297 bytes
674[libx264 @ 0x37417a0] frame= 455 QP=23.73 NAL=2 Slice:P Poc:46  I:13   P:261  SKIP:2310 size=1493 bytes
675[libx264 @ 0x37417a0] frame= 456 QP=23.25 NAL=2 Slice:P Poc:48  I:5    P:273  SKIP:2306 size=1213 bytes
676[libx264 @ 0x37417a0] frame= 457 QP=23.38 NAL=2 Slice:P Poc:50  I:5    P:298  SKIP:2281 size=1406 bytes
677[libx264 @ 0x37417a0] frame= 458 QP=22.86 NAL=2 Slice:P Poc:52  I:6    P:254  SKIP:2324 size=1407 bytes
678[libx264 @ 0x37417a0] frame= 459 QP=23.77 NAL=2 Slice:P Poc:54  I:3    P:268  SKIP:2313 size=1338 bytes
679[libx264 @ 0x37417a0] frame= 460 QP=23.75 NAL=2 Slice:P Poc:56  I:0    P:143  SKIP:2441 size=468 bytes
680[libx264 @ 0x37417a0] frame= 461 QP=23.76 NAL=2 Slice:P Poc:58  I:1    P:183  SKIP:2400 size=700 bytes
681[libx264 @ 0x37417a0] frame= 462 QP=23.53 NAL=2 Slice:P Poc:60  I:1    P:168  SKIP:2415 size=731 bytes
682[libx264 @ 0x37417a0] frame= 463 QP=24.57 NAL=2 Slice:P Poc:62  I:5    P:192  SKIP:2387 size=839 bytes
683[libx264 @ 0x37417a0] frame= 464 QP=23.86 NAL=2 Slice:P Poc:64  I:3    P:175  SKIP:2406 size=791 bytes
684[libx264 @ 0x37417a0] frame= 465 QP=22.87 NAL=2 Slice:P Poc:66  I:4    P:199  SKIP:2381 size=882 bytes
685[libx264 @ 0x37417a0] frame= 466 QP=24.70 NAL=2 Slice:P Poc:68  I:1    P:174  SKIP:2409 size=751 bytes
686[libx264 @ 0x37417a0] frame= 467 QP=24.36 NAL=2 Slice:P Poc:70  I:2    P:186  SKIP:2396 size=759 bytes
687[libx264 @ 0x37417a0] frame= 468 QP=23.39 NAL=2 Slice:P Poc:72  I:1    P:153  SKIP:2430 size=486 bytes
688[libx264 @ 0x37417a0] frame= 469 QP=24.20 NAL=2 Slice:P Poc:74  I:24   P:178  SKIP:2382 size=1491 bytes
689[libx264 @ 0x37417a0] frame= 470 QP=24.03 NAL=2 Slice:P Poc:76  I:9    P:179  SKIP:2396 size=1139 bytes
690[libx264 @ 0x37417a0] frame= 471 QP=24.38 NAL=2 Slice:P Poc:78  I:0    P:178  SKIP:2406 size=665 bytes
691[libx264 @ 0x37417a0] frame= 472 QP=23.36 NAL=2 Slice:P Poc:80  I:0    P:171  SKIP:2413 size=639 bytes
692[libx264 @ 0x37417a0] frame= 473 QP=24.27 NAL=2 Slice:P Poc:82  I:1    P:188  SKIP:2395 size=896 bytes
693[libx264 @ 0x37417a0] frame= 474 QP=25.15 NAL=2 Slice:P Poc:84  I:0    P:160  SKIP:2424 size=879 bytes
694[libx264 @ 0x37417a0] frame= 475 QP=25.12 NAL=2 Slice:P Poc:86  I:0    P:195  SKIP:2389 size=871 bytes
695[libx264 @ 0x37417a0] frame= 476 QP=26.77 NAL=2 Slice:P Poc:88  I:10   P:199  SKIP:2375 size=884 bytes
696[libx264 @ 0x37417a0] frame= 477 QP=27.66 NAL=2 Slice:P Poc:90  I:112  P:237  SKIP:2235 size=2648 bytes
697[libx264 @ 0x37417a0] frame= 478 QP=26.98 NAL=2 Slice:P Poc:92  I:270  P:291  SKIP:2023 size=3953 bytes
698[libx264 @ 0x37417a0] frame= 479 QP=29.98 NAL=2 Slice:P Poc:94  I:339  P:361  SKIP:1884 size=5002 bytes
699frame=  480 fps= 22 q=30.0 Lsize=    3858kB time=00:00:20.01 bitrate=1579.5kbits/s dup=1 drop=0   
700video:3218kB audio:288kB subtitle:0 global headers:0kB muxing overhead 10.025167%
701[libx264 @ 0x37417a0] frame I:10    Avg QP:19.44  size: 61220
702[libx264 @ 0x37417a0] frame P:470   Avg QP:23.76  size:  5710
703[libx264 @ 0x37417a0] mb I  I16..4: 47.7%  0.0% 52.3%
704[libx264 @ 0x37417a0] mb P  I16..4: 10.1%  0.0%  0.8%  P16..4: 26.9%  6.5%  2.5%  0.0%  0.0%    skip:53.2%
705[libx264 @ 0x37417a0] coded y,uvDC,uvAC intra: 12.9% 29.6% 10.1% inter: 8.6% 14.4% 1.4%
706[libx264 @ 0x37417a0] i16 v,h,dc,p: 64% 21%  9%  6%
707[libx264 @ 0x37417a0] i4 v,h,dc,ddl,ddr,vr,hd,vl,hu: 18% 18% 20%  6%  8%  8%  8%  7%  7%
708[libx264 @ 0x37417a0] i8c dc,h,v,p: 66% 19% 12%  4%
709[libx264 @ 0x37417a0] ref P L0: 70.8% 18.9% 10.3%
710[libx264 @ 0x37417a0] kb/s:1318.28
711Statistics: 4135679 bytes read, 2 seeks