Ticket #2224: ffmpeg-report_base.log

File ffmpeg-report_base.log, 61.9 KB (added by nealzebub, 4 years ago)

Report from encoding using baseline profile, for comparison

Line 
1ffmpeg started on 2013-02-01 at 15:55:58
2Report written to "ffmpeg-20130201-155558.log"
3Command line:
4./ffmpeg.20130129 -report -i ./source_media/bigbuckbunny_1500.mp4 -frames:v 480 -vsync -1 -c:v libx264 -crf 23 -profile:v baseline -g 48 -sc_threshold 0 -flags +cgop -c:a aac -strict -2 -b:a 112k -map 0:v:0 -map 0:a:0 -f ssegment -segment_time 10 -segment_list hls_base.m3u8 -segment_list_flags +live -segment_format mpegts "hlsAV_base_%04d.ts"
5ffmpeg version N-49414-g11c99c7 Copyright (c) 2000-2013 the FFmpeg developers
6  built on Jan 29 2013 05:22:52 with gcc 4.6 (Debian 4.6.3-1)
7  configuration: --prefix=/root/ffmpeg-static/64bit --extra-cflags='-I/root/ffmpeg-static/64bit/include -static' --extra-ldflags='-L/root/ffmpeg-static/64bit/lib -static' --extra-libs='-lxml2 -lexpat -lfreetype' --enable-static --disable-shared --disable-ffserver --disable-doc --enable-bzlib --enable-zlib --enable-postproc --enable-runtime-cpudetect --enable-libx264 --enable-gpl --enable-libtheora --enable-libvorbis --enable-libmp3lame --enable-gray --enable-libass --enable-libfreetype --enable-libopenjpeg --enable-libspeex --enable-libvo-aacenc --enable-libvo-amrwbenc --enable-version3 --enable-libvpx
8  libavutil      52. 17.100 / 52. 17.100
9  libavcodec     54. 91.100 / 54. 91.100
10  libavformat    54. 61.104 / 54. 61.104
11  libavdevice    54.  3.102 / 54.  3.102
12  libavfilter     3. 34.101 /  3. 34.101
13  libswscale      2.  2.100 /  2.  2.100
14  libswresample   0. 17.102 /  0. 17.102
15  libpostproc    52.  2.100 / 52.  2.100
16Splitting the commandline.
17Reading option '-report' ... matched as option 'report' (generate a report) with argument '1'.
18Reading option '-i' ... matched as input file with argument './source_media/bigbuckbunny_1500.mp4'.
19Reading option '-frames:v' ... matched as option 'frames' (set the number of frames to record) with argument '480'.
20Reading option '-vsync' ... matched as option 'vsync' (video sync method) with argument '-1'.
21Reading option '-c:v' ... matched as option 'c' (codec name) with argument 'libx264'.
22Reading option '-crf' ... matched as AVOption 'crf' with argument '23'.
23Reading option '-profile:v' ... matched as option 'profile' (set profile) with argument 'baseline'.
24Reading option '-g' ... matched as AVOption 'g' with argument '48'.
25Reading option '-sc_threshold' ... matched as AVOption 'sc_threshold' with argument '0'.
26Reading option '-flags' ... matched as AVOption 'flags' with argument '+cgop'.
27Reading option '-c:a' ... matched as option 'c' (codec name) with argument 'aac'.
28Reading option '-strict' ... matched as AVOption 'strict' with argument '-2'.
29Reading option '-b:a' ... matched as option 'b' (video bitrate (please use -b:v)) with argument '112k'.
30Reading option '-map' ... matched as option 'map' (set input stream mapping) with argument '0:v:0'.
31Reading option '-map' ... matched as option 'map' (set input stream mapping) with argument '0:a:0'.
32Reading option '-f' ... matched as option 'f' (force format) with argument 'ssegment'.
33Reading option '-segment_time' ... matched as AVOption 'segment_time' with argument '10'.
34Reading option '-segment_list' ... matched as AVOption 'segment_list' with argument 'hls_base.m3u8'.
35Reading option '-segment_list_flags' ... matched as AVOption 'segment_list_flags' with argument '+live'.
36Reading option '-segment_format' ... matched as AVOption 'segment_format' with argument 'mpegts'.
37Reading option 'hlsAV_base_%04d.ts' ... matched as output file.
38Finished splitting the commandline.
39Parsing a group of options: global .
40Applying option report (generate a report) with argument 1.
41Applying option vsync (video sync method) with argument -1.
42Successfully parsed a group of options.
43Parsing a group of options: input file ./source_media/bigbuckbunny_1500.mp4.
44Successfully parsed a group of options.
45Opening an input file: ./source_media/bigbuckbunny_1500.mp4.
46[mov,mp4,m4a,3gp,3g2,mj2 @ 0x222dcc0] Format mov,mp4,m4a,3gp,3g2,mj2 probed with size=2048 and score=100
47[mov,mp4,m4a,3gp,3g2,mj2 @ 0x222dcc0] ISO: File Type Major Brand: isom
48[mov,mp4,m4a,3gp,3g2,mj2 @ 0x222dcc0] File position before avformat_find_stream_info() is 114213748
49[h264 @ 0x22344c0] Increasing reorder buffer to 1
50[h264 @ 0x22344c0] no picture ooo
51[h264 @ 0x22344c0] no picture
52[mov,mp4,m4a,3gp,3g2,mj2 @ 0x222dcc0] All info found
53rfps: 23.416667 0.019644
54rfps: 23.416667 0.019644
55rfps: 23.500000 0.014433
56rfps: 23.500000 0.014433
57rfps: 23.583333 0.010023
58rfps: 23.583333 0.010023
59rfps: 23.666667 0.006415
60rfps: 23.666667 0.006415
61rfps: 23.750000 0.003608
62rfps: 23.750000 0.003608
63rfps: 23.833333 0.001604
64rfps: 23.833333 0.001604
65rfps: 23.916667 0.000401
66rfps: 23.916667 0.000401
67rfps: 24.000000 0.000000
68rfps: 24.083333 0.000401
69rfps: 24.083333 0.000401
70rfps: 24.166667 0.001603
71rfps: 24.166667 0.001603
72rfps: 24.250000 0.003607
73rfps: 24.250000 0.003607
74rfps: 24.333333 0.006413
75rfps: 24.333333 0.006413
76rfps: 24.416667 0.010021
77rfps: 24.416667 0.010021
78rfps: 24.500000 0.014430
79rfps: 24.500000 0.014430
80rfps: 24.583333 0.019641
81rfps: 24.583333 0.019641
82rfps: 47.416667 0.019645
83rfps: 47.416667 0.019645
84rfps: 47.500000 0.014434
85rfps: 47.500000 0.014434
86rfps: 47.583333 0.010024
87rfps: 47.583333 0.010024
88rfps: 47.666667 0.006416
89rfps: 47.666667 0.006416
90rfps: 47.750000 0.003609
91rfps: 47.750000 0.003609
92rfps: 47.833333 0.001604
93rfps: 47.833333 0.001604
94rfps: 47.916667 0.000401
95rfps: 47.916667 0.000401
96rfps: 48.000000 0.000000
97rfps: 48.083333 0.000401
98rfps: 48.083333 0.000401
99rfps: 48.166667 0.001603
100rfps: 48.166667 0.001603
101rfps: 48.250000 0.003607
102rfps: 48.250000 0.003607
103rfps: 48.333333 0.006412
104rfps: 48.333333 0.006412
105rfps: 48.416667 0.010020
106rfps: 48.416667 0.010020
107rfps: 48.500000 0.014429
108rfps: 48.500000 0.014429
109rfps: 48.583333 0.019640
110rfps: 48.583333 0.019640
111rfps: 23.976024 0.000033
112rfps: 23.976024 0.000033
113rfps: 47.952048 0.000133
114rfps: 47.952048 0.000133
115[mov,mp4,m4a,3gp,3g2,mj2 @ 0x222dcc0] File position after avformat_find_stream_info() is 27957
116Input #0, mov,mp4,m4a,3gp,3g2,mj2, from './source_media/bigbuckbunny_1500.mp4':
117  Metadata:
118    major_brand     : isom
119    minor_version   : 0
120    compatible_brands: isomavc1mp42isom
121  Duration: 00:09:56.46, start: 0.000000, bitrate: 1531 kb/s
122    Stream #0:0(eng), 21, 1/100000: Video: h264 (Main) (avc1 / 0x31637661), yuv420p, 1080x608, 1393 kb/s, 24 fps, 24 tbr, 100k tbn, 200k tbc
123    Metadata:
124      handler_name    : VideoHandler
125    Stream #0:1(eng), 40, 1/48000: Audio: aac (mp4a / 0x6134706D), 48000 Hz, stereo, fltp, 131 kb/s
126    Metadata:
127      handler_name    : SoundHandler
128Successfully opened the file.
129Parsing a group of options: output file hlsAV_base_%04d.ts.
130Applying option frames:v (set the number of frames to record) with argument 480.
131Applying option c:v (codec name) with argument libx264.
132Applying option profile:v (set profile) with argument baseline.
133Applying option c:a (codec name) with argument aac.
134Applying option b:a (video bitrate (please use -b:v)) with argument 112k.
135Applying option map (set input stream mapping) with argument 0:v:0.
136Applying option map (set input stream mapping) with argument 0:a:0.
137Applying option f (force format) with argument ssegment.
138Successfully parsed a group of options.
139Opening an output file: hlsAV_base_%04d.ts.
140Successfully opened the file.
141[buffer @ 0x2235cc0] Setting entry with key 'video_size' to value '1080x608'
142[buffer @ 0x2235cc0] Setting entry with key 'pix_fmt' to value '0'
143[buffer @ 0x2235cc0] Setting entry with key 'time_base' to value '1/100000'
144[buffer @ 0x2235cc0] Setting entry with key 'pixel_aspect' to value '0/1'
145[buffer @ 0x2235cc0] Setting entry with key 'sws_param' to value 'flags=2'
146[buffer @ 0x2235cc0] Setting entry with key 'frame_rate' to value '24/1'
147[graph 0 input from stream 0:0 @ 0x22218c0] w:1080 h:608 pixfmt:yuv420p tb:1/100000 fr:24/1 sar:0/1 sws_param:flags=2
148[abuffer @ 0x224f780] Setting entry with key 'time_base' to value '1/48000'
149[abuffer @ 0x224f780] Setting entry with key 'sample_rate' to value '48000'
150[abuffer @ 0x224f780] Setting entry with key 'sample_fmt' to value 'fltp'
151[abuffer @ 0x224f780] Setting entry with key 'channel_layout' to value '0x3'
152[graph 1 input from stream 0:1 @ 0x224f260] tb:1/48000 samplefmt:fltp samplerate:48000 chlayout:0x3
153[aformat @ 0x22502a0] Setting entry with key 'sample_fmts' to value 'fltp'
154[aformat @ 0x22502a0] Setting entry with key 'sample_rates' to value '96000,88200,64000,48000,44100,32000,24000,22050,16000,12000,11025,8000,7350'
155[libx264 @ 0x2243f40] using cpu capabilities: MMX2 SSE2Fast SSSE3 FastShuffle SSE4.1 Cache64
156[libx264 @ 0x2243f40] profile Constrained Baseline, level 3.1
157[h264 @ 0x22344c0] detected 1 logical cores
158[stream_segment,ssegment @ 0x2244ce0] Selected stream id:0 type:video
159[mpegts @ 0x2518b20] muxrate VBR, pcr every 2 pkts, sdt every 200, pat/pmt every 40 pkts
160Output #0, stream_segment,ssegment, to 'hlsAV_base_%04d.ts':
161  Metadata:
162    major_brand     : isom
163    minor_version   : 0
164    compatible_brands: isomavc1mp42isom
165    encoder         : Lavf54.61.104
166    Stream #0:0(eng), 0, 1/90000: Video: h264, yuv420p, 1080x608, q=-1--1, 90k tbn, 24 tbc
167    Metadata:
168      handler_name    : VideoHandler
169    Stream #0:1(eng), 0, 1/90000: Audio: aac, 48000 Hz, stereo, fltp, 112 kb/s
170    Metadata:
171      handler_name    : SoundHandler
172Stream mapping:
173  Stream #0:0 -> #0:0 (h264 -> libx264)
174  Stream #0:1 -> #0:1 (aac -> aac)
175Press [q] to stop, [?] for help
176[h264 @ 0x22344c0] no picture
177*** 1 dup!
178[libx264 @ 0x2243f40] frame=   0 QP=12.00 NAL=3 Slice:I Poc:0   I:2584 P:0    SKIP:0    size=2650 bytes
179[stream_segment,ssegment @ 0x2244ce0] segment:'hlsAV_base_0000.ts' starts with packet stream:1 pts:-1920 pts_time:-0.0213333 frame:0
180[adts @ 0x2526b00] Encoder did not produce proper pts, making some up.
181[libx264 @ 0x2243f40] frame=   1 QP=13.00 NAL=2 Slice:P Poc:2   I:0    P:0    SKIP:2584 size=12 bytes
182frame=   43 fps=0.0 q=28.0 size=N/A time=00:00:01.72 bitrate=N/A dup=1 drop=0   
183frame=   2 QP=11.00 NAL=2 Slice:P Poc:4   I:5    P:102  SKIP:2477 size=151 bytes
184[libx264 @ 0x2243f40] frame=   3 QP=11.00 NAL=2 Slice:P Poc:6   I:0    P:0    SKIP:2584 size=12 bytes
185[libx264 @ 0x2243f40] frame=   4 QP=11.00 NAL=2 Slice:P Poc:8   I:2    P:0    SKIP:2582 size=22 bytes
186[libx264 @ 0x2243f40] frame=   5 QP=11.50 NAL=2 Slice:P Poc:10  I:0    P:1    SKIP:2583 size=17 bytes
187[libx264 @ 0x2243f40] frame=   6 QP=14.43 NAL=2 Slice:P Poc:12  I:2132 P:3    SKIP:449  size=2902 bytes
188[libx264 @ 0x2243f40] frame=   7 QP=15.13 NAL=2 Slice:P Poc:14  I:2041 P:200  SKIP:343  size=3294 bytes
189[libx264 @ 0x2243f40] frame=   8 QP=16.64 NAL=2 Slice:P Poc:16  I:801  P:128  SKIP:1655 size=1843 bytes
190[libx264 @ 0x2243f40] frame=   9 QP=17.18 NAL=2 Slice:P Poc:18  I:837  P:172  SKIP:1575 size=1694 bytes
191[libx264 @ 0x2243f40] frame=  10 QP=14.84 NAL=2 Slice:P Poc:20  I:2066 P:52   SKIP:466  size=2989 bytes
192[libx264 @ 0x2243f40] frame=  11 QP=16.20 NAL=2 Slice:P Poc:22  I:2051 P:101  SKIP:432  size=3011 bytes
193[libx264 @ 0x2243f40] frame=  12 QP=15.38 NAL=2 Slice:P Poc:24  I:2510 P:41   SKIP:33   size=3564 bytes
194[libx264 @ 0x2243f40] frame=  13 QP=13.88 NAL=2 Slice:P Poc:26  I:2496 P:63   SKIP:25   size=3556 bytes
195[libx264 @ 0x2243f40] frame=  14 QP=14.13 NAL=2 Slice:P Poc:28  I:2508 P:65   SKIP:11   size=3768 bytes
196[libx264 @ 0x2243f40] frame=  15 QP=14.34 NAL=2 Slice:P Poc:30  I:2474 P:98   SKIP:12   size=3808 bytes
197frame=   57 fps= 52 q=28.0 size=N/A time=00:00:02.32 bitrate=N/A dup=1 drop=0   
198frame=  16 QP=14.64 NAL=2 Slice:P Poc:32  I:2507 P:76   SKIP:1    size=4179 bytes
199[libx264 @ 0x2243f40] frame=  17 QP=13.50 NAL=2 Slice:P Poc:34  I:2452 P:113  SKIP:19   size=4384 bytes
200[libx264 @ 0x2243f40] frame=  18 QP=13.85 NAL=2 Slice:P Poc:36  I:2502 P:81   SKIP:1    size=4846 bytes
201[libx264 @ 0x2243f40] frame=  19 QP=14.83 NAL=2 Slice:P Poc:38  I:2432 P:145  SKIP:7    size=4752 bytes
202[libx264 @ 0x2243f40] frame=  20 QP=15.47 NAL=2 Slice:P Poc:40  I:2478 P:106  SKIP:0    size=5451 bytes
203[libx264 @ 0x2243f40] frame=  21 QP=15.06 NAL=2 Slice:P Poc:42  I:2436 P:147  SKIP:1    size=5532 bytes
204[libx264 @ 0x2243f40] frame=  22 QP=14.34 NAL=2 Slice:P Poc:44  I:2443 P:141  SKIP:0    size=6017 bytes
205[libx264 @ 0x2243f40] frame=  23 QP=15.14 NAL=2 Slice:P Poc:46  I:2419 P:164  SKIP:1    size=5946 bytes
206[libx264 @ 0x2243f40] frame=  24 QP=15.34 NAL=2 Slice:P Poc:48  I:2434 P:150  SKIP:0    size=6361 bytes
207[libx264 @ 0x2243f40] frame=  25 QP=14.94 NAL=2 Slice:P Poc:50  I:2399 P:185  SKIP:0    size=6765 bytes
208frame=   67 fps= 41 q=28.0 size=N/A time=00:00:02.73 bitrate=N/A dup=1 drop=0   
209frame=  26 QP=14.98 NAL=2 Slice:P Poc:52  I:2409 P:175  SKIP:0    size=7094 bytes
210[libx264 @ 0x2243f40] frame=  27 QP=16.08 NAL=2 Slice:P Poc:54  I:2405 P:179  SKIP:0    size=6989 bytes
211[libx264 @ 0x2243f40] frame=  28 QP=16.16 NAL=2 Slice:P Poc:56  I:2399 P:185  SKIP:0    size=7427 bytes
212[libx264 @ 0x2243f40] frame=  29 QP=15.59 NAL=2 Slice:P Poc:58  I:2407 P:177  SKIP:0    size=7942 bytes
213[libx264 @ 0x2243f40] frame=  30 QP=15.48 NAL=2 Slice:P Poc:60  I:2390 P:194  SKIP:0    size=8021 bytes
214[libx264 @ 0x2243f40] frame=  31 QP=15.68 NAL=2 Slice:P Poc:62  I:2399 P:185  SKIP:0    size=8187 bytes
215[libx264 @ 0x2243f40] frame=  32 QP=15.70 NAL=2 Slice:P Poc:64  I:2384 P:200  SKIP:0    size=8510 bytes
216[libx264 @ 0x2243f40] frame=  33 QP=16.26 NAL=2 Slice:P Poc:66  I:2397 P:187  SKIP:0    size=8621 bytes
217[libx264 @ 0x2243f40] frame=  34 QP=16.41 NAL=2 Slice:P Poc:68  I:2378 P:206  SKIP:0    size=8784 bytes
218[libx264 @ 0x2243f40] frame=  35 QP=16.10 NAL=2 Slice:P Poc:70  I:2393 P:191  SKIP:0    size=9355 bytes
219frame=   77 fps= 36 q=28.0 size=N/A time=00:00:03.13 bitrate=N/A dup=1 drop=0   
220frame=  36 QP=16.41 NAL=2 Slice:P Poc:72  I:2375 P:209  SKIP:0    size=9428 bytes
221[libx264 @ 0x2243f40] frame=  37 QP=16.85 NAL=2 Slice:P Poc:74  I:2378 P:206  SKIP:0    size=9970 bytes
222[libx264 @ 0x2243f40] frame=  38 QP=16.76 NAL=2 Slice:P Poc:76  I:2374 P:210  SKIP:0    size=9462 bytes
223[libx264 @ 0x2243f40] frame=  39 QP=16.57 NAL=2 Slice:P Poc:78  I:2370 P:214  SKIP:0    size=10509 bytes
224[libx264 @ 0x2243f40] frame=  40 QP=16.64 NAL=2 Slice:P Poc:80  I:2364 P:220  SKIP:0    size=10582 bytes
225[libx264 @ 0x2243f40] frame=  41 QP=16.62 NAL=2 Slice:P Poc:82  I:2364 P:219  SKIP:1    size=11366 bytes
226[libx264 @ 0x2243f40] frame=  42 QP=17.41 NAL=2 Slice:P Poc:84  I:2357 P:227  SKIP:0    size=10568 bytes
227[libx264 @ 0x2243f40] frame=  43 QP=17.11 NAL=2 Slice:P Poc:86  I:2358 P:226  SKIP:0    size=11889 bytes
228frame=   85 fps= 32 q=28.0 size=N/A time=00:00:03.47 bitrate=N/A dup=1 drop=0   
229frame=  44 QP=17.78 NAL=2 Slice:P Poc:88  I:2351 P:233  SKIP:0    size=11078 bytes
230[libx264 @ 0x2243f40] frame=  45 QP=17.89 NAL=2 Slice:P Poc:90  I:2346 P:233  SKIP:5    size=12495 bytes
231[libx264 @ 0x2243f40] frame=  46 QP=18.06 NAL=2 Slice:P Poc:92  I:2338 P:245  SKIP:1    size=11432 bytes
232[libx264 @ 0x2243f40] frame=  47 QP=18.31 NAL=2 Slice:P Poc:94  I:2333 P:248  SKIP:3    size=13165 bytes
233[libx264 @ 0x2243f40] frame=  48 QP=15.48 NAL=3 Slice:I Poc:0   I:2584 P:0    SKIP:0    size=25965 bytes
234[libx264 @ 0x2243f40] frame=  49 QP=18.47 NAL=2 Slice:P Poc:2   I:2339 P:245  SKIP:0    size=11691 bytes
235[libx264 @ 0x2243f40] frame=  50 QP=18.23 NAL=2 Slice:P Poc:4   I:2336 P:248  SKIP:0    size=12880 bytes
236[libx264 @ 0x2243f40] frame=  51 QP=15.96 NAL=2 Slice:P Poc:6   I:2323 P:261  SKIP:0    size=16232 bytes
237frame=   93 fps= 29 q=28.0 size=N/A time=00:00:03.81 bitrate=N/A dup=1 drop=0   
238frame=  52 QP=19.48 NAL=2 Slice:P Poc:8   I:23   P:661  SKIP:1900 size=3164 bytes
239[libx264 @ 0x2243f40] frame=  53 QP=21.21 NAL=2 Slice:P Poc:10  I:5    P:489  SKIP:2090 size=4371 bytes
240[libx264 @ 0x2243f40] frame=  54 QP=20.95 NAL=2 Slice:P Poc:12  I:28   P:623  SKIP:1933 size=2973 bytes
241[libx264 @ 0x2243f40] frame=  55 QP=20.86 NAL=2 Slice:P Poc:14  I:16   P:664  SKIP:1904 size=4838 bytes
242[libx264 @ 0x2243f40] frame=  56 QP=20.52 NAL=2 Slice:P Poc:16  I:42   P:640  SKIP:1902 size=3321 bytes
243[libx264 @ 0x2243f40] frame=  57 QP=21.40 NAL=2 Slice:P Poc:18  I:42   P:631  SKIP:1911 size=4536 bytes
244[libx264 @ 0x2243f40] frame=  58 QP=20.85 NAL=2 Slice:P Poc:20  I:34   P:644  SKIP:1906 size=3029 bytes
245[libx264 @ 0x2243f40] frame=  59 QP=21.22 NAL=2 Slice:P Poc:22  I:29   P:764  SKIP:1791 size=4595 bytes
246[libx264 @ 0x2243f40] frame=  60 QP=20.09 NAL=2 Slice:P Poc:24  I:50   P:701  SKIP:1833 size=3310 bytes
247[libx264 @ 0x2243f40] frame=  61 QP=20.34 NAL=2 Slice:P Poc:26  I:47   P:773  SKIP:1764 size=5187 bytes
248[libx264 @ 0x2243f40] frame=  62 QP=20.55 NAL=2 Slice:P Poc:28  I:44   P:711  SKIP:1829 size=3441 bytes
249[libx264 @ 0x2243f40] frame=  63 QP=20.94 NAL=2 Slice:P Poc:30  I:23   P:668  SKIP:1893 size=5021 bytes
250[libx264 @ 0x2243f40] frame=  64 QP=20.17 NAL=2 Slice:P Poc:32  I:65   P:796  SKIP:1723 size=3711 bytes
251[libx264 @ 0x2243f40] frame=  65 QP=20.06 NAL=2 Slice:P Poc:34  I:41   P:880  SKIP:1663 size=5501 bytes
252[libx264 @ 0x2243f40] frame=  66 QP=20.76 NAL=2 Slice:P Poc:36  I:75   P:792  SKIP:1717 size=3742 bytes
253[libx264 @ 0x2243f40] frame=  67 QP=20.19 NAL=2 Slice:P Poc:38  I:79   P:783  SKIP:1722 size=5635 bytes
254frame=  109 fps= 29 q=28.0 size=N/A time=00:00:04.45 bitrate=N/A dup=1 drop=0   
255frame=  68 QP=20.45 NAL=2 Slice:P Poc:40  I:69   P:750  SKIP:1765 size=3754 bytes
256[libx264 @ 0x2243f40] frame=  69 QP=20.53 NAL=2 Slice:P Poc:42  I:41   P:807  SKIP:1736 size=5281 bytes
257[libx264 @ 0x2243f40] frame=  70 QP=21.41 NAL=2 Slice:P Poc:44  I:37   P:680  SKIP:1867 size=3361 bytes
258[libx264 @ 0x2243f40] frame=  71 QP=21.31 NAL=2 Slice:P Poc:46  I:33   P:673  SKIP:1878 size=4529 bytes
259[libx264 @ 0x2243f40] frame=  72 QP=21.18 NAL=2 Slice:P Poc:48  I:92   P:860  SKIP:1632 size=5741 bytes
260[libx264 @ 0x2243f40] frame=  73 QP=17.20 NAL=2 Slice:P Poc:50  I:1430 P:1033 SKIP:121  size=15738 bytes
261[libx264 @ 0x2243f40] frame=  74 QP=19.79 NAL=2 Slice:P Poc:52  I:68   P:855  SKIP:1661 size=4696 bytes
262[libx264 @ 0x2243f40] frame=  75 QP=20.13 NAL=2 Slice:P Poc:54  I:46   P:769  SKIP:1769 size=5171 bytes
263[libx264 @ 0x2243f40] frame=  76 QP=20.45 NAL=2 Slice:P Poc:56  I:76   P:819  SKIP:1689 size=4573 bytes
264[libx264 @ 0x2243f40] frame=  77 QP=20.92 NAL=2 Slice:P Poc:58  I:64   P:871  SKIP:1649 size=6085 bytes
265[libx264 @ 0x2243f40] frame=  78 QP=20.01 NAL=2 Slice:P Poc:60  I:89   P:907  SKIP:1588 size=4796 bytes
266[libx264 @ 0x2243f40] frame=  79 QP=20.36 NAL=2 Slice:P Poc:62  I:68   P:908  SKIP:1608 size=5880 bytes
267frame=  121 fps= 29 q=28.0 size=N/A time=00:00:04.97 bitrate=N/A dup=1 drop=0   
268frame=  80 QP=20.25 NAL=2 Slice:P Poc:64  I:119  P:874  SKIP:1591 size=4599 bytes
269[libx264 @ 0x2243f40] frame=  81 QP=19.89 NAL=2 Slice:P Poc:66  I:60   P:953  SKIP:1571 size=6317 bytes
270[libx264 @ 0x2243f40] frame=  82 QP=20.41 NAL=2 Slice:P Poc:68  I:96   P:868  SKIP:1620 size=4569 bytes
271[libx264 @ 0x2243f40] frame=  83 QP=20.46 NAL=2 Slice:P Poc:70  I:91   P:970  SKIP:1523 size=6844 bytes
272[libx264 @ 0x2243f40] frame=  84 QP=20.79 NAL=2 Slice:P Poc:72  I:86   P:864  SKIP:1634 size=4443 bytes
273[libx264 @ 0x2243f40] frame=  85 QP=20.16 NAL=2 Slice:P Poc:74  I:101  P:992  SKIP:1491 size=6794 bytes
274[libx264 @ 0x2243f40] frame=  86 QP=20.21 NAL=2 Slice:P Poc:76  I:110  P:983  SKIP:1491 size=5192 bytes
275[libx264 @ 0x2243f40] frame=  87 QP=20.75 NAL=2 Slice:P Poc:78  I:93   P:938  SKIP:1553 size=7117 bytes
276[libx264 @ 0x2243f40] frame=  88 QP=20.70 NAL=2 Slice:P Poc:80  I:99   P:898  SKIP:1587 size=5021 bytes
277[libx264 @ 0x2243f40] frame=  89 QP=20.19 NAL=2 Slice:P Poc:82  I:107  P:1104 SKIP:1373 size=7396 bytes
278[libx264 @ 0x2243f40] frame=  90 QP=20.15 NAL=2 Slice:P Poc:84  I:141  P:990  SKIP:1453 size=5290 bytes
279[libx264 @ 0x2243f40] frame=  91 QP=20.54 NAL=2 Slice:P Poc:86  I:94   P:1018 SKIP:1472 size=7426 bytes
280frame=  133 fps= 28 q=28.0 size=N/A time=00:00:05.46 bitrate=N/A dup=1 drop=0   
281frame=  92 QP=19.92 NAL=2 Slice:P Poc:88  I:107  P:997  SKIP:1480 size=5479 bytes
282[libx264 @ 0x2243f40] frame=  93 QP=20.33 NAL=2 Slice:P Poc:90  I:88   P:1115 SKIP:1381 size=7507 bytes
283[libx264 @ 0x2243f40] frame=  94 QP=20.24 NAL=2 Slice:P Poc:92  I:106  P:1010 SKIP:1468 size=5473 bytes
284[libx264 @ 0x2243f40] frame=  95 QP=20.07 NAL=2 Slice:P Poc:94  I:96   P:1153 SKIP:1335 size=8044 bytes
285[libx264 @ 0x2243f40] frame=  96 QP=16.11 NAL=3 Slice:I Poc:0   I:2584 P:0    SKIP:0    size=48331 bytes
286[libx264 @ 0x2243f40] frame=  97 QP=20.89 NAL=2 Slice:P Poc:2   I:112  P:1160 SKIP:1312 size=4976 bytes
287[libx264 @ 0x2243f40] frame=  98 QP=21.40 NAL=2 Slice:P Poc:4   I:38   P:948  SKIP:1598 size=3942 bytes
288[libx264 @ 0x2243f40] frame=  99 QP=21.79 NAL=2 Slice:P Poc:6   I:55   P:1022 SKIP:1507 size=6398 bytes
289[libx264 @ 0x2243f40] frame= 100 QP=20.95 NAL=2 Slice:P Poc:8   I:165  P:1171 SKIP:1248 size=6718 bytes
290[libx264 @ 0x2243f40] frame= 101 QP=20.25 NAL=2 Slice:P Poc:10  I:188  P:1368 SKIP:1028 size=9260 bytes
291frame=  143 fps= 27 q=28.0 size=N/A time=00:00:05.90 bitrate=N/A dup=1 drop=0   
292frame= 102 QP=20.97 NAL=2 Slice:P Poc:12  I:89   P:1115 SKIP:1380 size=5932 bytes
293[libx264 @ 0x2243f40] frame= 103 QP=21.07 NAL=2 Slice:P Poc:14  I:88   P:1193 SKIP:1303 size=7935 bytes
294[libx264 @ 0x2243f40] frame= 104 QP=20.97 NAL=2 Slice:P Poc:16  I:84   P:1074 SKIP:1426 size=5568 bytes
295[libx264 @ 0x2243f40] frame= 105 QP=20.92 NAL=2 Slice:P Poc:18  I:114  P:1160 SKIP:1310 size=8295 bytes
296[libx264 @ 0x2243f40] frame= 106 QP=20.59 NAL=2 Slice:P Poc:20  I:106  P:1150 SKIP:1328 size=6059 bytes
297[libx264 @ 0x2243f40] frame= 107 QP=20.74 NAL=2 Slice:P Poc:22  I:99   P:1278 SKIP:1207 size=8355 bytes
298[libx264 @ 0x2243f40] frame= 108 QP=20.95 NAL=2 Slice:P Poc:24  I:86   P:1120 SKIP:1378 size=5609 bytes
299[libx264 @ 0x2243f40] frame= 109 QP=20.77 NAL=2 Slice:P Poc:26  I:112  P:1219 SKIP:1253 size=8539 bytes
300[libx264 @ 0x2243f40] frame= 110 QP=20.88 NAL=2 Slice:P Poc:28  I:104  P:1095 SKIP:1385 size=5899 bytes
301[libx264 @ 0x2243f40] frame= 111 QP=20.45 NAL=2 Slice:P Poc:30  I:136  P:1282 SKIP:1166 size=8741 bytes
302frame=  153 fps= 27 q=28.0 size=N/A time=00:00:06.31 bitrate=N/A dup=1 drop=0   
303frame= 112 QP=21.07 NAL=2 Slice:P Poc:32  I:94   P:1174 SKIP:1316 size=6164 bytes
304[libx264 @ 0x2243f40] frame= 113 QP=20.46 NAL=2 Slice:P Poc:34  I:114  P:1336 SKIP:1134 size=8904 bytes
305[libx264 @ 0x2243f40] frame= 114 QP=21.52 NAL=2 Slice:P Poc:36  I:61   P:1025 SKIP:1498 size=5128 bytes
306[libx264 @ 0x2243f40] frame= 115 QP=21.83 NAL=2 Slice:P Poc:38  I:61   P:1176 SKIP:1347 size=6875 bytes
307[libx264 @ 0x2243f40] frame= 116 QP=20.75 NAL=2 Slice:P Poc:40  I:134  P:1230 SKIP:1220 size=7396 bytes
308[libx264 @ 0x2243f40] frame= 117 QP=20.60 NAL=2 Slice:P Poc:42  I:139  P:1426 SKIP:1019 size=9491 bytes
309[libx264 @ 0x2243f40] frame= 118 QP=21.36 NAL=2 Slice:P Poc:44  I:71   P:1143 SKIP:1370 size=5888 bytes
310[libx264 @ 0x2243f40] frame= 119 QP=21.22 NAL=2 Slice:P Poc:46  I:90   P:1257 SKIP:1237 size=8732 bytes
311[libx264 @ 0x2243f40] frame= 120 QP=21.34 NAL=2 Slice:P Poc:48  I:86   P:1152 SKIP:1346 size=5964 bytes
312[libx264 @ 0x2243f40] frame= 121 QP=21.04 NAL=2 Slice:P Poc:50  I:87   P:1321 SKIP:1176 size=8931 bytes
313frame=  163 fps= 26 q=28.0 size=N/A time=00:00:06.74 bitrate=N/A dup=1 drop=0   
314frame= 122 QP=21.45 NAL=2 Slice:P Poc:52  I:74   P:1191 SKIP:1319 size=5970 bytes
315[libx264 @ 0x2243f40] frame= 123 QP=21.24 NAL=2 Slice:P Poc:54  I:98   P:1350 SKIP:1136 size=8732 bytes
316[libx264 @ 0x2243f40] frame= 124 QP=21.50 NAL=2 Slice:P Poc:56  I:43   P:1057 SKIP:1484 size=4957 bytes
317[libx264 @ 0x2243f40] frame= 125 QP=21.39 NAL=2 Slice:P Poc:58  I:49   P:1302 SKIP:1233 size=6686 bytes
318[libx264 @ 0x2243f40] frame= 126 QP=20.85 NAL=2 Slice:P Poc:60  I:137  P:1290 SKIP:1157 size=7387 bytes
319[libx264 @ 0x2243f40] frame= 127 QP=21.06 NAL=2 Slice:P Poc:62  I:121  P:1565 SKIP:898  size=9927 bytes
320[libx264 @ 0x2243f40] frame= 128 QP=21.34 NAL=2 Slice:P Poc:64  I:56   P:1168 SKIP:1360 size=5902 bytes
321[libx264 @ 0x2243f40] frame= 129 QP=21.29 NAL=2 Slice:P Poc:66  I:72   P:1415 SKIP:1097 size=9053 bytes
322frame=  171 fps= 25 q=28.0 size=N/A time=00:00:07.08 bitrate=N/A dup=1 drop=0   
323frame= 130 QP=21.29 NAL=2 Slice:P Poc:68  I:76   P:1182 SKIP:1326 size=6364 bytes
324[libx264 @ 0x2243f40] frame= 131 QP=21.56 NAL=2 Slice:P Poc:70  I:81   P:1455 SKIP:1048 size=9132 bytes
325[libx264 @ 0x2243f40] frame= 132 QP=21.28 NAL=2 Slice:P Poc:72  I:86   P:1197 SKIP:1301 size=6076 bytes
326[libx264 @ 0x2243f40] frame= 133 QP=21.22 NAL=2 Slice:P Poc:74  I:107  P:1455 SKIP:1022 size=9445 bytes
327[libx264 @ 0x2243f40] frame= 134 QP=21.60 NAL=2 Slice:P Poc:76  I:76   P:1205 SKIP:1303 size=6377 bytes
328[libx264 @ 0x2243f40] frame= 135 QP=21.10 NAL=2 Slice:P Poc:78  I:82   P:1407 SKIP:1095 size=9259 bytes
329[libx264 @ 0x2243f40] frame= 136 QP=21.35 NAL=2 Slice:P Poc:80  I:79   P:1238 SKIP:1267 size=6275 bytes
330[libx264 @ 0x2243f40] frame= 137 QP=21.15 NAL=2 Slice:P Poc:82  I:94   P:1487 SKIP:1003 size=9318 bytes
331[libx264 @ 0x2243f40] frame= 138 QP=21.83 NAL=2 Slice:P Poc:84  I:52   P:1141 SKIP:1391 size=5868 bytes
332[libx264 @ 0x2243f40] frame= 139 QP=21.47 NAL=2 Slice:P Poc:86  I:77   P:1511 SKIP:996  size=9254 bytes
333frame=  181 fps= 25 q=28.0 size=N/A time=00:00:07.48 bitrate=N/A dup=1 drop=0   
334frame= 140 QP=22.23 NAL=2 Slice:P Poc:88  I:29   P:1097 SKIP:1458 size=4900 bytes
335[libx264 @ 0x2243f40] frame= 141 QP=22.35 NAL=2 Slice:P Poc:90  I:47   P:1308 SKIP:1229 size=6704 bytes
336[libx264 @ 0x2243f40] frame= 142 QP=21.69 NAL=2 Slice:P Poc:92  I:103  P:1281 SKIP:1200 size=6685 bytes
337[libx264 @ 0x2243f40] frame= 143 QP=21.71 NAL=2 Slice:P Poc:94  I:129  P:1572 SKIP:883  size=10207 bytes
338[libx264 @ 0x2243f40] frame= 144 QP=19.02 NAL=3 Slice:I Poc:0   I:2584 P:0    SKIP:0    size=75039 bytes
339[libx264 @ 0x2243f40] frame= 145 QP=19.94 NAL=2 Slice:P Poc:2   I:881  P:1586 SKIP:117  size=25502 bytes
340[libx264 @ 0x2243f40] frame= 146 QP=22.14 NAL=2 Slice:P Poc:4   I:51   P:1213 SKIP:1320 size=6146 bytes
341[libx264 @ 0x2243f40] frame= 147 QP=22.55 NAL=2 Slice:P Poc:6   I:52   P:1401 SKIP:1131 size=7169 bytes
342[libx264 @ 0x2243f40] frame= 148 QP=21.70 NAL=2 Slice:P Poc:8   I:85   P:1285 SKIP:1214 size=6941 bytes
343[libx264 @ 0x2243f40] frame= 149 QP=21.78 NAL=2 Slice:P Poc:10  I:68   P:1409 SKIP:1107 size=7000 bytes
344frame=  191 fps= 24 q=28.0 size=N/A time=00:00:07.91 bitrate=N/A dup=1 drop=0   
345frame= 150 QP=21.66 NAL=2 Slice:P Poc:12  I:65   P:1039 SKIP:1480 size=4506 bytes
346[libx264 @ 0x2243f40] frame= 151 QP=22.60 NAL=2 Slice:P Poc:14  I:31   P:1453 SKIP:1100 size=6300 bytes
347[libx264 @ 0x2243f40] frame= 152 QP=22.05 NAL=2 Slice:P Poc:16  I:76   P:1303 SKIP:1205 size=6402 bytes
348[libx264 @ 0x2243f40] frame= 153 QP=21.84 NAL=2 Slice:P Poc:18  I:69   P:1480 SKIP:1035 size=8827 bytes
349[libx264 @ 0x2243f40] frame= 154 QP=21.70 NAL=2 Slice:P Poc:20  I:50   P:1208 SKIP:1326 size=5272 bytes
350[libx264 @ 0x2243f40] frame= 155 QP=22.25 NAL=2 Slice:P Poc:22  I:46   P:1503 SKIP:1035 size=8829 bytes
351[libx264 @ 0x2243f40] frame= 156 QP=22.03 NAL=2 Slice:P Poc:24  I:64   P:1239 SKIP:1281 size=5649 bytes
352[libx264 @ 0x2243f40] frame= 157 QP=21.97 NAL=2 Slice:P Poc:26  I:63   P:1483 SKIP:1038 size=8381 bytes
353[libx264 @ 0x2243f40] frame= 158 QP=21.54 NAL=2 Slice:P Poc:28  I:73   P:1216 SKIP:1295 size=5138 bytes
354[libx264 @ 0x2243f40] frame= 159 QP=22.29 NAL=2 Slice:P Poc:30  I:56   P:1499 SKIP:1029 size=8935 bytes
355frame=  201 fps= 24 q=28.0 size=N/A time=00:00:08.32 bitrate=N/A dup=1 drop=0   
356frame= 160 QP=21.78 NAL=2 Slice:P Poc:32  I:46   P:1116 SKIP:1422 size=5175 bytes
357[libx264 @ 0x2243f40] frame= 161 QP=21.55 NAL=2 Slice:P Poc:34  I:59   P:1536 SKIP:989  size=9293 bytes
358[libx264 @ 0x2243f40] frame= 162 QP=21.99 NAL=2 Slice:P Poc:36  I:37   P:1155 SKIP:1392 size=5123 bytes
359[libx264 @ 0x2243f40] frame= 163 QP=21.65 NAL=2 Slice:P Poc:38  I:45   P:1507 SKIP:1032 size=8799 bytes
360[libx264 @ 0x2243f40] frame= 164 QP=21.81 NAL=2 Slice:P Poc:40  I:59   P:1220 SKIP:1305 size=5906 bytes
361[libx264 @ 0x2243f40] frame= 165 QP=21.50 NAL=2 Slice:P Poc:42  I:64   P:1424 SKIP:1096 size=8121 bytes
362[libx264 @ 0x2243f40] frame= 166 QP=21.85 NAL=2 Slice:P Poc:44  I:19   P:946  SKIP:1619 size=3802 bytes
363[libx264 @ 0x2243f40] frame= 167 QP=22.26 NAL=2 Slice:P Poc:46  I:20   P:1309 SKIP:1255 size=6011 bytes
364[libx264 @ 0x2243f40] frame= 168 QP=21.81 NAL=2 Slice:P Poc:48  I:51   P:1311 SKIP:1222 size=6834 bytes
365[libx264 @ 0x2243f40] frame= 169 QP=21.64 NAL=2 Slice:P Poc:50  I:75   P:1516 SKIP:993  size=9671 bytes
366frame=  211 fps= 24 q=28.0 size=N/A time=00:00:08.74 bitrate=N/A dup=1 drop=0   
367frame= 170 QP=21.93 NAL=2 Slice:P Poc:52  I:42   P:1284 SKIP:1258 size=6240 bytes
368[libx264 @ 0x2243f40] frame= 171 QP=21.90 NAL=2 Slice:P Poc:54  I:41   P:1449 SKIP:1094 size=8922 bytes
369[libx264 @ 0x2243f40] frame= 172 QP=21.67 NAL=2 Slice:P Poc:56  I:51   P:1143 SKIP:1390 size=4844 bytes
370[libx264 @ 0x2243f40] frame= 173 QP=21.69 NAL=2 Slice:P Poc:58  I:50   P:1632 SKIP:902  size=9547 bytes
371[libx264 @ 0x2243f40] frame= 174 QP=21.91 NAL=2 Slice:P Poc:60  I:38   P:1205 SKIP:1341 size=5496 bytes
372[libx264 @ 0x2243f40] frame= 175 QP=21.97 NAL=2 Slice:P Poc:62  I:40   P:1454 SKIP:1090 size=8995 bytes
373[libx264 @ 0x2243f40] frame= 176 QP=22.14 NAL=2 Slice:P Poc:64  I:24   P:986  SKIP:1574 size=3965 bytes
374[libx264 @ 0x2243f40] frame= 177 QP=22.19 NAL=2 Slice:P Poc:66  I:44   P:1299 SKIP:1241 size=6062 bytes
375[libx264 @ 0x2243f40] frame= 178 QP=21.73 NAL=2 Slice:P Poc:68  I:67   P:1328 SKIP:1189 size=6754 bytes
376[libx264 @ 0x2243f40] frame= 179 QP=21.68 NAL=2 Slice:P Poc:70  I:84   P:1483 SKIP:1017 size=10129 bytes
377frame=  221 fps= 23 q=28.0 size=N/A time=00:00:09.13 bitrate=N/A dup=1 drop=0   
378frame= 180 QP=21.80 NAL=2 Slice:P Poc:72  I:52   P:1181 SKIP:1351 size=5543 bytes
379[libx264 @ 0x2243f40] frame= 181 QP=21.78 NAL=2 Slice:P Poc:74  I:50   P:1370 SKIP:1164 size=8442 bytes
380[libx264 @ 0x2243f40] frame= 182 QP=21.85 NAL=2 Slice:P Poc:76  I:60   P:1203 SKIP:1321 size=5777 bytes
381[libx264 @ 0x2243f40] frame= 183 QP=22.27 NAL=2 Slice:P Poc:78  I:47   P:1404 SKIP:1133 size=7958 bytes
382[libx264 @ 0x2243f40] frame= 184 QP=22.72 NAL=2 Slice:P Poc:80  I:38   P:913  SKIP:1633 size=3658 bytes
383[libx264 @ 0x2243f40] frame= 185 QP=22.89 NAL=2 Slice:P Poc:82  I:35   P:1182 SKIP:1367 size=5455 bytes
384[libx264 @ 0x2243f40] frame= 186 QP=22.35 NAL=2 Slice:P Poc:84  I:91   P:1295 SKIP:1198 size=6405 bytes
385[libx264 @ 0x2243f40] frame= 187 QP=22.02 NAL=2 Slice:P Poc:86  I:107  P:1584 SKIP:893  size=10356 bytes
386[libx264 @ 0x2243f40] frame= 188 QP=21.96 NAL=2 Slice:P Poc:88  I:79   P:1111 SKIP:1394 size=5271 bytes
387[libx264 @ 0x2243f40] frame= 189 QP=22.20 NAL=2 Slice:P Poc:90  I:64   P:1602 SKIP:918  size=10003 bytes
388frame=  231 fps= 23 q=28.0 size=N/A time=00:00:09.55 bitrate=N/A dup=1 drop=0   
389frame= 190 QP=22.11 NAL=2 Slice:P Poc:92  I:64   P:1318 SKIP:1202 size=6692 bytes
390[libx264 @ 0x2243f40] frame= 191 QP=21.98 NAL=2 Slice:P Poc:94  I:56   P:1611 SKIP:917  size=10836 bytes
391[libx264 @ 0x2243f40] frame= 192 QP=18.56 NAL=3 Slice:I Poc:0   I:2584 P:0    SKIP:0    size=90641 bytes
392[libx264 @ 0x2243f40] frame= 193 QP=22.71 NAL=2 Slice:P Poc:2   I:27   P:1130 SKIP:1427 size=4488 bytes
393[libx264 @ 0x2243f40] frame= 194 QP=22.38 NAL=2 Slice:P Poc:4   I:80   P:1501 SKIP:1003 size=6796 bytes
394[libx264 @ 0x2243f40] frame= 195 QP=22.18 NAL=2 Slice:P Poc:6   I:82   P:1613 SKIP:889  size=11249 bytes
395[libx264 @ 0x2243f40] frame= 196 QP=22.22 NAL=2 Slice:P Poc:8   I:66   P:1243 SKIP:1275 size=6319 bytes
396[libx264 @ 0x2243f40] frame= 197 QP=22.04 NAL=2 Slice:P Poc:10  I:71   P:1635 SKIP:878  size=11610 bytes
397frame=  239 fps= 23 q=28.0 size=N/A time=00:00:09.89 bitrate=N/A dup=1 drop=0   
398frame= 198 QP=22.33 NAL=2 Slice:P Poc:12  I:66   P:1342 SKIP:1176 size=7018 bytes
399[libx264 @ 0x2243f40] frame= 199 QP=22.09 NAL=2 Slice:P Poc:14  I:56   P:1614 SKIP:914  size=11121 bytes
400[libx264 @ 0x2243f40] frame= 200 QP=22.48 NAL=2 Slice:P Poc:16  I:63   P:1325 SKIP:1196 size=7261 bytes
401[libx264 @ 0x2243f40] frame= 201 QP=22.16 NAL=2 Slice:P Poc:18  I:55   P:1601 SKIP:928  size=11115 bytes
402[libx264 @ 0x2243f40] frame= 202 QP=22.67 NAL=2 Slice:P Poc:20  I:52   P:1113 SKIP:1419 size=5556 bytes
403[libx264 @ 0x2243f40] frame= 203 QP=23.26 NAL=2 Slice:P Poc:22  I:31   P:1515 SKIP:1038 size=7572 bytes
404[libx264 @ 0x2243f40] frame= 204 QP=21.80 NAL=2 Slice:P Poc:24  I:176  P:1497 SKIP:911  size=8424 bytes
405[libx264 @ 0x2243f40] frame= 205 QP=22.59 NAL=2 Slice:P Poc:26  I:94   P:1732 SKIP:758  size=13269 bytes
406[libx264 @ 0x2243f40] frame= 206 QP=22.54 NAL=2 Slice:P Poc:28  I:68   P:1335 SKIP:1181 size=6807 bytes
407[libx264 @ 0x2243f40] frame= 207 QP=22.56 NAL=2 Slice:P Poc:30  I:60   P:1661 SKIP:863  size=10721 bytes
408frame=  249 fps= 23 q=28.0 size=N/A time=00:00:10.30 bitrate=N/A dup=1 drop=0   
409frame= 208 QP=22.79 NAL=2 Slice:P Poc:32  I:63   P:1407 SKIP:1114 size=7155 bytes
410[libx264 @ 0x2243f40] frame= 209 QP=22.43 NAL=2 Slice:P Poc:34  I:68   P:1695 SKIP:821  size=12424 bytes
411[libx264 @ 0x2243f40] frame= 210 QP=22.45 NAL=2 Slice:P Poc:36  I:46   P:1104 SKIP:1434 size=5763 bytes
412[libx264 @ 0x2243f40] frame= 211 QP=23.44 NAL=2 Slice:P Poc:38  I:34   P:1541 SKIP:1009 size=9289 bytes
413[libx264 @ 0x2243f40] frame= 212 QP=22.35 NAL=2 Slice:P Poc:40  I:155  P:1530 SKIP:899  size=10013 bytes
414[libx264 @ 0x2243f40] frame= 213 QP=22.23 NAL=2 Slice:P Poc:42  I:151  P:1742 SKIP:691  size=15532 bytes
415[libx264 @ 0x2243f40] frame= 214 QP=22.46 NAL=2 Slice:P Poc:44  I:82   P:1428 SKIP:1074 size=8796 bytes
416[libx264 @ 0x2243f40] frame= 215 QP=22.64 NAL=2 Slice:P Poc:46  I:64   P:1659 SKIP:861  size=13793 bytes
417frame=  257 fps= 22 q=28.0 size=N/A time=00:00:10.66 bitrate=N/A dup=1 drop=0   
418frame= 216 QP=23.24 NAL=2 Slice:P Poc:48  I:60   P:1411 SKIP:1113 size=10612 bytes
419[libx264 @ 0x2243f40] frame= 217 QP=21.33 NAL=2 Slice:P Poc:50  I:706  P:1845 SKIP:33   size=42791 bytes
420[libx264 @ 0x2243f40] frame= 218 QP=21.94 NAL=2 Slice:P Poc:52  I:82   P:1592 SKIP:910  size=11413 bytes
421[libx264 @ 0x2243f40] frame= 219 QP=22.12 NAL=2 Slice:P Poc:54  I:38   P:1478 SKIP:1068 size=8802 bytes
422[libx264 @ 0x2243f40] frame= 220 QP=22.45 NAL=2 Slice:P Poc:56  I:31   P:1458 SKIP:1095 size=9916 bytes
423[libx264 @ 0x2243f40] frame= 221 QP=22.40 NAL=2 Slice:P Poc:58  I:33   P:1576 SKIP:975  size=10554 bytes
424[libx264 @ 0x2243f40] frame= 222 QP=22.49 NAL=2 Slice:P Poc:60  I:48   P:1351 SKIP:1185 size=9643 bytes
425[libx264 @ 0x2243f40] frame= 223 QP=22.96 NAL=2 Slice:P Poc:62  I:22   P:1583 SKIP:979  size=10371 bytes
426frame=  265 fps= 22 q=28.0 size=N/A time=00:00:10.98 bitrate=N/A dup=1 drop=0   
427frame= 224 QP=22.81 NAL=2 Slice:P Poc:64  I:47   P:1233 SKIP:1304 size=6892 bytes
428[libx264 @ 0x2243f40] frame= 225 QP=22.72 NAL=2 Slice:P Poc:66  I:42   P:1611 SKIP:931  size=10848 bytes
429[libx264 @ 0x2243f40] frame= 226 QP=22.93 NAL=2 Slice:P Poc:68  I:70   P:1354 SKIP:1160 size=7972 bytes
430[libx264 @ 0x2243f40] frame= 227 QP=22.86 NAL=2 Slice:P Poc:70  I:56   P:1743 SKIP:785  size=12328 bytes
431[libx264 @ 0x2243f40] frame= 228 QP=22.79 NAL=2 Slice:P Poc:72  I:85   P:1378 SKIP:1121 size=8356 bytes
432[libx264 @ 0x2243f40] frame= 229 QP=22.75 NAL=2 Slice:P Poc:74  I:63   P:1664 SKIP:857  size=10994 bytes
433[libx264 @ 0x2243f40] frame= 230 QP=22.73 NAL=2 Slice:P Poc:76  I:96   P:1472 SKIP:1016 size=9183 bytes
434[libx264 @ 0x2243f40] frame= 231 QP=22.92 NAL=2 Slice:P Poc:78  I:87   P:1696 SKIP:801  size=12556 bytes
435[libx264 @ 0x2243f40] frame= 232 QP=22.66 NAL=2 Slice:P Poc:80  I:139  P:1431 SKIP:1014 size=8547 bytes
436[libx264 @ 0x2243f40] frame= 233 QP=22.54 NAL=2 Slice:P Poc:82  I:109  P:1769 SKIP:706  size=13296 bytes
437frame=  275 fps= 22 q=28.0 size=N/A time=00:00:11.39 bitrate=N/A dup=1 drop=0   
438frame= 234 QP=22.60 NAL=2 Slice:P Poc:84  I:111  P:1444 SKIP:1029 size=8923 bytes
439[libx264 @ 0x2243f40] frame= 235 QP=22.57 NAL=2 Slice:P Poc:86  I:90   P:1787 SKIP:707  size=14865 bytes
440[libx264 @ 0x2243f40] frame= 236 QP=22.70 NAL=2 Slice:P Poc:88  I:113  P:1316 SKIP:1155 size=7689 bytes
441[libx264 @ 0x2243f40] frame= 237 QP=22.91 NAL=2 Slice:P Poc:90  I:77   P:1728 SKIP:779  size=11270 bytes
442[libx264 @ 0x2243f40] frame= 238 QP=22.35 NAL=2 Slice:P Poc:92  I:206  P:1641 SKIP:737  size=11612 bytes
443[libx264 @ 0x2243f40] frame= 239 QP=22.21 NAL=2 Slice:P Poc:94  I:193  P:1878 SKIP:513  size=17351 bytes
444[libx264 @ 0x2243f40] frame= 240 QP=18.99 NAL=3 Slice:I Poc:0   I:2584 P:0    SKIP:0    size=118847 bytes
445[mpegts @ 0x2527060] muxrate VBR, pcr every 2 pkts, sdt every 200, pat/pmt every 40 pkts
446[stream_segment,ssegment @ 0x2244ce0] segment:'hlsAV_base_0001.ts' starts with packet stream:0 pts:900000 pts_time:10 frame:240
447[libx264 @ 0x2243f40] frame= 241 QP=23.11 NAL=2 Slice:P Poc:2   I:57   P:1429 SKIP:1098 size=8111 bytes
448frame=  283 fps= 22 q=28.0 size=N/A time=00:00:11.71 bitrate=N/A dup=1 drop=0   
449frame= 242 QP=22.62 NAL=2 Slice:P Poc:4   I:63   P:1437 SKIP:1084 size=6556 bytes
450[libx264 @ 0x2243f40] frame= 243 QP=22.90 NAL=2 Slice:P Poc:6   I:59   P:1651 SKIP:874  size=10705 bytes
451[libx264 @ 0x2243f40] frame= 244 QP=22.61 NAL=2 Slice:P Poc:8   I:137  P:1734 SKIP:713  size=10923 bytes
452[libx264 @ 0x2243f40] frame= 245 QP=22.25 NAL=2 Slice:P Poc:10  I:129  P:1895 SKIP:560  size=19531 bytes
453[libx264 @ 0x2243f40] frame= 246 QP=23.11 NAL=2 Slice:P Poc:12  I:29   P:1299 SKIP:1256 size=6765 bytes
454[libx264 @ 0x2243f40] frame= 247 QP=22.86 NAL=2 Slice:P Poc:14  I:24   P:1590 SKIP:970  size=10045 bytes
455[libx264 @ 0x2243f40] frame= 248 QP=22.66 NAL=2 Slice:P Poc:16  I:134  P:1670 SKIP:780  size=11710 bytes
456[libx264 @ 0x2243f40] frame= 249 QP=22.26 NAL=2 Slice:P Poc:18  I:102  P:1821 SKIP:661  size=16605 bytes
457frame=  291 fps= 21 q=28.0 size=N/A time=00:00:12.07 bitrate=N/A dup=1 drop=0   
458frame= 250 QP=22.70 NAL=2 Slice:P Poc:20  I:66   P:1465 SKIP:1053 size=9593 bytes
459[libx264 @ 0x2243f40] frame= 251 QP=22.67 NAL=2 Slice:P Poc:22  I:59   P:1754 SKIP:771  size=14369 bytes
460[libx264 @ 0x2243f40] frame= 252 QP=22.69 NAL=2 Slice:P Poc:24  I:55   P:1370 SKIP:1159 size=8640 bytes
461[libx264 @ 0x2243f40] frame= 253 QP=22.54 NAL=2 Slice:P Poc:26  I:44   P:1705 SKIP:835  size=12177 bytes
462[libx264 @ 0x2243f40] frame= 254 QP=22.46 NAL=2 Slice:P Poc:28  I:87   P:1430 SKIP:1067 size=9100 bytes
463[libx264 @ 0x2243f40] frame= 255 QP=22.54 NAL=2 Slice:P Poc:30  I:54   P:1733 SKIP:797  size=12802 bytes
464[libx264 @ 0x2243f40] frame= 256 QP=22.51 NAL=2 Slice:P Poc:32  I:75   P:1530 SKIP:979  size=9180 bytes
465[libx264 @ 0x2243f40] frame= 257 QP=22.36 NAL=2 Slice:P Poc:34  I:55   P:1742 SKIP:787  size=12603 bytes
466frame=  299 fps= 21 q=28.0 size=N/A time=00:00:12.41 bitrate=N/A dup=1 drop=0   
467frame= 258 QP=22.42 NAL=2 Slice:P Poc:36  I:51   P:1492 SKIP:1041 size=8200 bytes
468[libx264 @ 0x2243f40] frame= 259 QP=22.65 NAL=2 Slice:P Poc:38  I:42   P:1722 SKIP:820  size=13611 bytes
469[libx264 @ 0x2243f40] frame= 260 QP=22.71 NAL=2 Slice:P Poc:40  I:31   P:1277 SKIP:1276 size=6897 bytes
470[libx264 @ 0x2243f40] frame= 261 QP=22.64 NAL=2 Slice:P Poc:42  I:30   P:1690 SKIP:864  size=12627 bytes
471[libx264 @ 0x2243f40] frame= 262 QP=23.43 NAL=2 Slice:P Poc:44  I:9    P:1005 SKIP:1570 size=4868 bytes
472[libx264 @ 0x2243f40] frame= 263 QP=23.87 NAL=2 Slice:P Poc:46  I:3    P:1521 SKIP:1060 size=8905 bytes
473[libx264 @ 0x2243f40] frame= 264 QP=22.48 NAL=2 Slice:P Poc:48  I:38   P:1323 SKIP:1223 size=7274 bytes
474[libx264 @ 0x2243f40] frame= 265 QP=22.62 NAL=2 Slice:P Poc:50  I:32   P:1673 SKIP:879  size=12966 bytes
475[libx264 @ 0x2243f40] frame= 266 QP=23.25 NAL=2 Slice:P Poc:52  I:19   P:1134 SKIP:1431 size=6216 bytes
476[libx264 @ 0x2243f40] frame= 267 QP=23.17 NAL=2 Slice:P Poc:54  I:17   P:1607 SKIP:960  size=13063 bytes
477frame=  309 fps= 21 q=28.0 size=N/A time=00:00:12.80 bitrate=N/A dup=1 drop=0   
478frame= 268 QP=23.40 NAL=2 Slice:P Poc:56  I:7    P:1002 SKIP:1575 size=4707 bytes
479[libx264 @ 0x2243f40] frame= 269 QP=23.89 NAL=2 Slice:P Poc:58  I:12   P:1525 SKIP:1047 size=10516 bytes
480[libx264 @ 0x2243f40] frame= 270 QP=23.23 NAL=2 Slice:P Poc:60  I:17   P:1421 SKIP:1146 size=8163 bytes
481[libx264 @ 0x2243f40] frame= 271 QP=22.77 NAL=2 Slice:P Poc:62  I:21   P:1676 SKIP:887  size=16365 bytes
482[libx264 @ 0x2243f40] frame= 272 QP=24.09 NAL=2 Slice:P Poc:64  I:2    P:1163 SKIP:1419 size=6224 bytes
483[libx264 @ 0x2243f40] frame= 273 QP=24.26 NAL=2 Slice:P Poc:66  I:2    P:1364 SKIP:1218 size=8716 bytes
484[libx264 @ 0x2243f40] frame= 274 QP=23.82 NAL=2 Slice:P Poc:68  I:9    P:1317 SKIP:1258 size=8208 bytes
485[libx264 @ 0x2243f40] frame= 275 QP=23.95 NAL=2 Slice:P Poc:70  I:8    P:1506 SKIP:1070 size=14221 bytes
486frame=  317 fps= 21 q=28.0 size=N/A time=00:00:13.16 bitrate=N/A dup=1 drop=0   
487frame= 276 QP=24.27 NAL=2 Slice:P Poc:72  I:2    P:997  SKIP:1585 size=5250 bytes
488[libx264 @ 0x2243f40] frame= 277 QP=24.41 NAL=2 Slice:P Poc:74  I:1    P:1209 SKIP:1374 size=7818 bytes
489[libx264 @ 0x2243f40] frame= 278 QP=22.72 NAL=2 Slice:P Poc:76  I:104  P:1543 SKIP:937  size=8568 bytes
490[libx264 @ 0x2243f40] frame= 279 QP=22.38 NAL=2 Slice:P Poc:78  I:107  P:1950 SKIP:527  size=23770 bytes
491[libx264 @ 0x2243f40] frame= 280 QP=24.66 NAL=2 Slice:P Poc:80  I:2    P:556  SKIP:2026 size=2458 bytes
492[libx264 @ 0x2243f40] frame= 281 QP=24.98 NAL=2 Slice:P Poc:82  I:2    P:737  SKIP:1845 size=4008 bytes
493[libx264 @ 0x2243f40] frame= 282 QP=25.71 NAL=2 Slice:P Poc:84  I:0    P:551  SKIP:2033 size=2138 bytes
494[libx264 @ 0x2243f40] frame= 283 QP=26.80 NAL=2 Slice:P Poc:86  I:0    P:840  SKIP:1744 size=3709 bytes
495[libx264 @ 0x2243f40] frame= 284 QP=25.21 NAL=2 Slice:P Poc:88  I:1    P:164  SKIP:2419 size=614 bytes
496[libx264 @ 0x2243f40] frame= 285 QP=27.96 NAL=2 Slice:P Poc:90  I:0    P:110  SKIP:2474 size=350 bytes
497[libx264 @ 0x2243f40] frame= 286 QP=23.87 NAL=2 Slice:P Poc:92  I:2581 P:3    SKIP:0    size=115119 bytes
498[libx264 @ 0x2243f40] frame= 287 QP=24.67 NAL=2 Slice:P Poc:94  I:12   P:927  SKIP:1645 size=5576 bytes
499frame=  329 fps= 21 q=28.0 size=N/A time=00:00:13.63 bitrate=N/A dup=1 drop=0   
500frame= 288 QP=21.24 NAL=3 Slice:I Poc:0   I:2584 P:0    SKIP:0    size=134333 bytes
501[libx264 @ 0x2243f40] frame= 289 QP=23.63 NAL=2 Slice:P Poc:2   I:38   P:2493 SKIP:53   size=33109 bytes
502[libx264 @ 0x2243f40] frame= 290 QP=24.14 NAL=2 Slice:P Poc:4   I:12   P:1622 SKIP:950  size=9902 bytes
503[libx264 @ 0x2243f40] frame= 291 QP=24.32 NAL=2 Slice:P Poc:6   I:21   P:1754 SKIP:809  size=9939 bytes
504[libx264 @ 0x2243f40] frame= 292 QP=24.17 NAL=2 Slice:P Poc:8   I:12   P:1601 SKIP:971  size=9012 bytes
505[libx264 @ 0x2243f40] frame= 293 QP=24.31 NAL=2 Slice:P Poc:10  I:23   P:1754 SKIP:807  size=10717 bytes
506[libx264 @ 0x2243f40] frame= 294 QP=24.19 NAL=2 Slice:P Poc:12  I:20   P:1559 SKIP:1005 size=9093 bytes
507[libx264 @ 0x2243f40] frame= 295 QP=24.26 NAL=2 Slice:P Poc:14  I:18   P:1919 SKIP:647  size=11814 bytes
508frame=  337 fps= 21 q=28.0 size=N/A time=00:00:13.97 bitrate=N/A dup=1 drop=0   
509frame= 296 QP=24.14 NAL=2 Slice:P Poc:16  I:11   P:1638 SKIP:935  size=8919 bytes
510[libx264 @ 0x2243f40] frame= 297 QP=24.17 NAL=2 Slice:P Poc:18  I:23   P:1929 SKIP:632  size=12276 bytes
511[libx264 @ 0x2243f40] frame= 298 QP=24.19 NAL=2 Slice:P Poc:20  I:15   P:1642 SKIP:927  size=8774 bytes
512[libx264 @ 0x2243f40] frame= 299 QP=24.16 NAL=2 Slice:P Poc:22  I:27   P:1895 SKIP:662  size=12252 bytes
513[libx264 @ 0x2243f40] frame= 300 QP=24.11 NAL=2 Slice:P Poc:24  I:8    P:1606 SKIP:970  size=8545 bytes
514[libx264 @ 0x2243f40] frame= 301 QP=24.11 NAL=2 Slice:P Poc:26  I:24   P:1893 SKIP:667  size=12144 bytes
515[libx264 @ 0x2243f40] frame= 302 QP=24.49 NAL=2 Slice:P Poc:28  I:7    P:1435 SKIP:1142 size=7496 bytes
516[libx264 @ 0x2243f40] frame= 303 QP=24.36 NAL=2 Slice:P Poc:30  I:17   P:1734 SKIP:833  size=9856 bytes
517frame=  345 fps= 21 q=28.0 size=N/A time=00:00:14.29 bitrate=N/A dup=1 drop=0   
518frame= 304 QP=24.09 NAL=2 Slice:P Poc:32  I:10   P:1758 SKIP:816  size=10074 bytes
519[libx264 @ 0x2243f40] frame= 305 QP=24.10 NAL=2 Slice:P Poc:34  I:36   P:2024 SKIP:524  size=14000 bytes
520[libx264 @ 0x2243f40] frame= 306 QP=24.16 NAL=2 Slice:P Poc:36  I:11   P:1677 SKIP:896  size=9429 bytes
521[libx264 @ 0x2243f40] frame= 307 QP=24.00 NAL=2 Slice:P Poc:38  I:25   P:1985 SKIP:574  size=14184 bytes
522[libx264 @ 0x2243f40] frame= 308 QP=24.18 NAL=2 Slice:P Poc:40  I:11   P:1577 SKIP:996  size=8658 bytes
523[libx264 @ 0x2243f40] frame= 309 QP=24.10 NAL=2 Slice:P Poc:42  I:29   P:1953 SKIP:602  size=13535 bytes
524[libx264 @ 0x2243f40] frame= 310 QP=24.25 NAL=2 Slice:P Poc:44  I:9    P:1595 SKIP:980  size=8796 bytes
525[libx264 @ 0x2243f40] frame= 311 QP=24.19 NAL=2 Slice:P Poc:46  I:20   P:1950 SKIP:614  size=13166 bytes
526frame=  353 fps= 20 q=28.0 size=N/A time=00:00:14.63 bitrate=N/A dup=1 drop=0   
527frame= 312 QP=24.17 NAL=2 Slice:P Poc:48  I:14   P:1523 SKIP:1047 size=8402 bytes
528[libx264 @ 0x2243f40] frame= 313 QP=24.12 NAL=2 Slice:P Poc:50  I:23   P:1992 SKIP:569  size=13910 bytes
529[libx264 @ 0x2243f40] frame= 314 QP=24.33 NAL=2 Slice:P Poc:52  I:11   P:1411 SKIP:1162 size=7677 bytes
530[libx264 @ 0x2243f40] frame= 315 QP=24.49 NAL=2 Slice:P Poc:54  I:23   P:1684 SKIP:877  size=9644 bytes
531[libx264 @ 0x2243f40] frame= 316 QP=24.05 NAL=2 Slice:P Poc:56  I:21   P:1779 SKIP:784  size=9966 bytes
532[libx264 @ 0x2243f40] frame= 317 QP=24.08 NAL=2 Slice:P Poc:58  I:29   P:2103 SKIP:452  size=14988 bytes
533[libx264 @ 0x2243f40] frame= 318 QP=24.08 NAL=2 Slice:P Poc:60  I:7    P:1591 SKIP:986  size=8938 bytes
534frame=  360 fps= 20 q=28.0 size=N/A time=00:00:14.95 bitrate=N/A dup=1 drop=0   
535frame= 319 QP=24.08 NAL=2 Slice:P Poc:62  I:36   P:1944 SKIP:604  size=13228 bytes
536[libx264 @ 0x2243f40] frame= 320 QP=24.21 NAL=2 Slice:P Poc:64  I:13   P:1585 SKIP:986  size=8912 bytes
537[libx264 @ 0x2243f40] frame= 321 QP=24.20 NAL=2 Slice:P Poc:66  I:30   P:2015 SKIP:539  size=13719 bytes
538[libx264 @ 0x2243f40] frame= 322 QP=24.26 NAL=2 Slice:P Poc:68  I:15   P:1582 SKIP:987  size=9178 bytes
539[libx264 @ 0x2243f40] frame= 323 QP=24.17 NAL=2 Slice:P Poc:70  I:27   P:1987 SKIP:570  size=13361 bytes
540[libx264 @ 0x2243f40] frame= 324 QP=24.08 NAL=2 Slice:P Poc:72  I:12   P:1661 SKIP:911  size=9229 bytes
541[libx264 @ 0x2243f40] frame= 325 QP=24.09 NAL=2 Slice:P Poc:74  I:22   P:2009 SKIP:553  size=13638 bytes
542[libx264 @ 0x2243f40] frame= 326 QP=24.23 NAL=2 Slice:P Poc:76  I:10   P:1637 SKIP:937  size=9210 bytes
543[libx264 @ 0x2243f40] frame= 327 QP=24.07 NAL=2 Slice:P Poc:78  I:30   P:2007 SKIP:547  size=14014 bytes
544frame=  369 fps= 20 q=28.0 size=N/A time=00:00:15.29 bitrate=N/A dup=1 drop=0   
545frame= 328 QP=24.48 NAL=2 Slice:P Poc:80  I:15   P:1410 SKIP:1159 size=7700 bytes
546[libx264 @ 0x2243f40] frame= 329 QP=24.47 NAL=2 Slice:P Poc:82  I:32   P:1715 SKIP:837  size=10065 bytes
547[libx264 @ 0x2243f40] frame= 330 QP=24.17 NAL=2 Slice:P Poc:84  I:15   P:1727 SKIP:842  size=9942 bytes
548[libx264 @ 0x2243f40] frame= 331 QP=23.98 NAL=2 Slice:P Poc:86  I:36   P:2120 SKIP:428  size=15508 bytes
549[libx264 @ 0x2243f40] frame= 332 QP=24.08 NAL=2 Slice:P Poc:88  I:11   P:1577 SKIP:996  size=9220 bytes
550[libx264 @ 0x2243f40] frame= 333 QP=24.05 NAL=2 Slice:P Poc:90  I:20   P:1980 SKIP:584  size=13646 bytes
551[libx264 @ 0x2243f40] frame= 334 QP=24.21 NAL=2 Slice:P Poc:92  I:10   P:1572 SKIP:1002 size=8853 bytes
552[libx264 @ 0x2243f40] frame= 335 QP=24.24 NAL=2 Slice:P Poc:94  I:19   P:1956 SKIP:609  size=13490 bytes
553frame=  377 fps= 20 q=28.0 size=N/A time=00:00:15.63 bitrate=N/A dup=1 drop=0   
554frame= 336 QP=20.76 NAL=3 Slice:I Poc:0   I:2584 P:0    SKIP:0    size=136808 bytes
555[libx264 @ 0x2243f40] frame= 337 QP=24.26 NAL=2 Slice:P Poc:2   I:16   P:1318 SKIP:1250 size=6503 bytes
556[libx264 @ 0x2243f40] frame= 338 QP=24.12 NAL=2 Slice:P Poc:4   I:10   P:1540 SKIP:1034 size=7436 bytes
557[libx264 @ 0x2243f40] frame= 339 QP=24.27 NAL=2 Slice:P Poc:6   I:23   P:1875 SKIP:686  size=12636 bytes
558[libx264 @ 0x2243f40] frame= 340 QP=24.57 NAL=2 Slice:P Poc:8   I:8    P:1358 SKIP:1218 size=7151 bytes
559[libx264 @ 0x2243f40] frame= 341 QP=24.30 NAL=2 Slice:P Poc:10  I:17   P:1568 SKIP:999  size=8933 bytes
560[libx264 @ 0x2243f40] frame= 342 QP=24.31 NAL=2 Slice:P Poc:12  I:15   P:1586 SKIP:983  size=8456 bytes
561[libx264 @ 0x2243f40] frame= 343 QP=24.21 NAL=2 Slice:P Poc:14  I:30   P:2060 SKIP:494  size=14356 bytes
562frame=  385 fps= 20 q=28.0 size=N/A time=00:00:15.97 bitrate=N/A dup=1 drop=0   
563frame= 344 QP=24.32 NAL=2 Slice:P Poc:16  I:16   P:1530 SKIP:1038 size=8352 bytes
564[libx264 @ 0x2243f40] frame= 345 QP=24.20 NAL=2 Slice:P Poc:18  I:36   P:1941 SKIP:607  size=13323 bytes
565[libx264 @ 0x2243f40] frame= 346 QP=24.43 NAL=2 Slice:P Poc:20  I:10   P:1481 SKIP:1093 size=8047 bytes
566[libx264 @ 0x2243f40] frame= 347 QP=24.26 NAL=2 Slice:P Poc:22  I:29   P:1884 SKIP:671  size=12327 bytes
567[libx264 @ 0x2243f40] frame= 348 QP=24.49 NAL=2 Slice:P Poc:24  I:18   P:1558 SKIP:1008 size=8429 bytes
568[libx264 @ 0x2243f40] frame= 349 QP=24.30 NAL=2 Slice:P Poc:26  I:23   P:1976 SKIP:585  size=12971 bytes
569[libx264 @ 0x2243f40] frame= 350 QP=24.35 NAL=2 Slice:P Poc:28  I:4    P:1570 SKIP:1010 size=8540 bytes
570[libx264 @ 0x2243f40] frame= 351 QP=24.45 NAL=2 Slice:P Poc:30  I:14   P:1915 SKIP:655  size=13054 bytes
571frame=  393 fps= 20 q=28.0 size=N/A time=00:00:16.29 bitrate=N/A dup=1 drop=0   
572frame= 352 QP=24.67 NAL=2 Slice:P Poc:32  I:5    P:1491 SKIP:1088 size=7980 bytes
573[libx264 @ 0x2243f40] frame= 353 QP=24.43 NAL=2 Slice:P Poc:34  I:32   P:1972 SKIP:580  size=13130 bytes
574[libx264 @ 0x2243f40] frame= 354 QP=24.98 NAL=2 Slice:P Poc:36  I:11   P:1289 SKIP:1284 size=6794 bytes
575[libx264 @ 0x2243f40] frame= 355 QP=24.87 NAL=2 Slice:P Poc:38  I:17   P:1612 SKIP:955  size=9138 bytes
576[libx264 @ 0x2243f40] frame= 356 QP=24.63 NAL=2 Slice:P Poc:40  I:10   P:1634 SKIP:940  size=8672 bytes
577[libx264 @ 0x2243f40] frame= 357 QP=24.77 NAL=2 Slice:P Poc:42  I:26   P:1953 SKIP:605  size=13613 bytes
578[libx264 @ 0x2243f40] frame= 358 QP=24.97 NAL=2 Slice:P Poc:44  I:9    P:1439 SKIP:1136 size=7604 bytes
579[libx264 @ 0x2243f40] frame= 359 QP=24.89 NAL=2 Slice:P Poc:46  I:23   P:1830 SKIP:731  size=11665 bytes
580frame=  401 fps= 20 q=28.0 size=N/A time=00:00:16.66 bitrate=N/A dup=1 drop=0   
581frame= 360 QP=25.22 NAL=2 Slice:P Poc:48  I:8    P:1644 SKIP:932  size=9743 bytes
582[libx264 @ 0x2243f40] frame= 361 QP=24.15 NAL=2 Slice:P Poc:50  I:97   P:2470 SKIP:17   size=39077 bytes
583[libx264 @ 0x2243f40] frame= 362 QP=24.42 NAL=2 Slice:P Poc:52  I:18   P:1734 SKIP:832  size=10721 bytes
584[libx264 @ 0x2243f40] frame= 363 QP=24.50 NAL=2 Slice:P Poc:54  I:23   P:1942 SKIP:619  size=11259 bytes
585[libx264 @ 0x2243f40] frame= 364 QP=24.73 NAL=2 Slice:P Poc:56  I:19   P:1572 SKIP:993  size=8838 bytes
586[libx264 @ 0x2243f40] frame= 365 QP=24.81 NAL=2 Slice:P Poc:58  I:28   P:1811 SKIP:745  size=10984 bytes
587[libx264 @ 0x2243f40] frame= 366 QP=24.93 NAL=2 Slice:P Poc:60  I:14   P:1526 SKIP:1044 size=8289 bytes
588[libx264 @ 0x2243f40] frame= 367 QP=24.94 NAL=2 Slice:P Poc:62  I:30   P:1951 SKIP:603  size=11645 bytes
589frame=  409 fps= 19 q=28.0 size=N/A time=00:00:16.98 bitrate=N/A dup=1 drop=0   
590frame= 368 QP=25.28 NAL=2 Slice:P Poc:64  I:14   P:1482 SKIP:1088 size=7650 bytes
591[libx264 @ 0x2243f40] frame= 369 QP=25.19 NAL=2 Slice:P Poc:66  I:29   P:1806 SKIP:749  size=10849 bytes
592[libx264 @ 0x2243f40] frame= 370 QP=25.34 NAL=2 Slice:P Poc:68  I:16   P:1439 SKIP:1129 size=7410 bytes
593[libx264 @ 0x2243f40] frame= 371 QP=25.57 NAL=2 Slice:P Poc:70  I:20   P:1848 SKIP:716  size=10672 bytes
594[libx264 @ 0x2243f40] frame= 372 QP=25.78 NAL=2 Slice:P Poc:72  I:7    P:1343 SKIP:1234 size=6774 bytes
595[libx264 @ 0x2243f40] frame= 373 QP=25.94 NAL=2 Slice:P Poc:74  I:19   P:1736 SKIP:829  size=9295 bytes
596[libx264 @ 0x2243f40] frame= 374 QP=26.57 NAL=2 Slice:P Poc:76  I:11   P:1198 SKIP:1375 size=5758 bytes
597[libx264 @ 0x2243f40] frame= 375 QP=26.52 NAL=2 Slice:P Poc:78  I:28   P:1738 SKIP:818  size=8714 bytes
598[libx264 @ 0x2243f40] frame= 376 QP=27.85 NAL=2 Slice:P Poc:80  I:14   P:914  SKIP:1656 size=4662 bytes
599[libx264 @ 0x2243f40] frame= 377 QP=28.32 NAL=2 Slice:P Poc:82  I:21   P:1153 SKIP:1410 size=5316 bytes
600frame=  419 fps= 19 q=28.0 size=N/A time=00:00:17.38 bitrate=N/A dup=1 drop=0   
601frame= 378 QP=30.63 NAL=2 Slice:P Poc:84  I:13   P:654  SKIP:1917 size=2758 bytes
602[libx264 @ 0x2243f40] frame= 379 QP=16.94 NAL=2 Slice:P Poc:86  I:2583 P:1    SKIP:0    size=40167 bytes
603[libx264 @ 0x2243f40] frame= 380 QP=20.05 NAL=2 Slice:P Poc:88  I:17   P:389  SKIP:2178 size=993 bytes
604[libx264 @ 0x2243f40] frame= 381 QP=21.19 NAL=2 Slice:P Poc:90  I:1    P:144  SKIP:2439 size=482 bytes
605[libx264 @ 0x2243f40] frame= 382 QP=21.24 NAL=2 Slice:P Poc:92  I:0    P:159  SKIP:2425 size=619 bytes
606[libx264 @ 0x2243f40] frame= 383 QP=22.03 NAL=2 Slice:P Poc:94  I:1    P:170  SKIP:2413 size=728 bytes
607[libx264 @ 0x2243f40] frame= 384 QP=14.47 NAL=3 Slice:I Poc:0   I:2584 P:0    SKIP:0    size=45728 bytes
608[libx264 @ 0x2243f40] frame= 385 QP=20.83 NAL=2 Slice:P Poc:2   I:9    P:321  SKIP:2254 size=683 bytes
609[libx264 @ 0x2243f40] frame= 386 QP=23.87 NAL=2 Slice:P Poc:4   I:22   P:354  SKIP:2208 size=1679 bytes
610[libx264 @ 0x2243f40] frame= 387 QP=24.40 NAL=2 Slice:P Poc:6   I:151  P:313  SKIP:2120 size=3402 bytes
611[libx264 @ 0x2243f40] frame= 388 QP=23.54 NAL=2 Slice:P Poc:8   I:101  P:410  SKIP:2073 size=3469 bytes
612[libx264 @ 0x2243f40] frame= 389 QP=23.14 NAL=2 Slice:P Poc:10  I:113  P:316  SKIP:2155 size=3486 bytes
613[libx264 @ 0x2243f40] frame= 390 QP=22.61 NAL=2 Slice:P Poc:12  I:52   P:441  SKIP:2091 size=3020 bytes
614[libx264 @ 0x2243f40] frame= 391 QP=23.60 NAL=2 Slice:P Poc:14  I:108  P:419  SKIP:2057 size=3832 bytes
615frame=  433 fps= 20 q=28.0 size=N/A time=00:00:17.98 bitrate=N/A dup=1 drop=0   
616frame= 392 QP=22.92 NAL=2 Slice:P Poc:16  I:92   P:464  SKIP:2028 size=4249 bytes
617[libx264 @ 0x2243f40] frame= 393 QP=23.51 NAL=2 Slice:P Poc:18  I:111  P:474  SKIP:1999 size=4743 bytes
618[libx264 @ 0x2243f40] frame= 394 QP=21.79 NAL=2 Slice:P Poc:20  I:180  P:542  SKIP:1862 size=8003 bytes
619[libx264 @ 0x2243f40] frame= 395 QP=22.00 NAL=2 Slice:P Poc:22  I:161  P:515  SKIP:1908 size=7620 bytes
620[libx264 @ 0x2243f40] frame= 396 QP=21.95 NAL=2 Slice:P Poc:24  I:23   P:520  SKIP:2041 size=4153 bytes
621[libx264 @ 0x2243f40] frame= 397 QP=22.06 NAL=2 Slice:P Poc:26  I:17   P:501  SKIP:2066 size=3152 bytes
622[libx264 @ 0x2243f40] frame= 398 QP=21.37 NAL=2 Slice:P Poc:28  I:20   P:481  SKIP:2083 size=3036 bytes
623[libx264 @ 0x2243f40] frame= 399 QP=21.71 NAL=2 Slice:P Poc:30  I:18   P:488  SKIP:2078 size=2907 bytes
624[libx264 @ 0x2243f40] frame= 400 QP=22.22 NAL=2 Slice:P Poc:32  I:4    P:422  SKIP:2158 size=1965 bytes
625[libx264 @ 0x2243f40] frame= 401 QP=21.96 NAL=2 Slice:P Poc:34  I:5    P:425  SKIP:2154 size=2066 bytes
626[libx264 @ 0x2243f40] frame= 402 QP=21.76 NAL=2 Slice:P Poc:36  I:2    P:472  SKIP:2110 size=2024 bytes
627[libx264 @ 0x2243f40] frame= 403 QP=21.93 NAL=2 Slice:P Poc:38  I:6    P:534  SKIP:2044 size=2545 bytes
628[libx264 @ 0x2243f40] frame= 404 QP=22.35 NAL=2 Slice:P Poc:40  I:1    P:386  SKIP:2197 size=1729 bytes
629[libx264 @ 0x2243f40] frame= 405 QP=22.53 NAL=2 Slice:P Poc:42  I:8    P:387  SKIP:2189 size=2104 bytes
630[libx264 @ 0x2243f40] frame= 406 QP=23.11 NAL=2 Slice:P Poc:44  I:3    P:333  SKIP:2248 size=1829 bytes
631[libx264 @ 0x2243f40] frame= 407 QP=23.06 NAL=2 Slice:P Poc:46  I:7    P:380  SKIP:2197 size=2127 bytes
632[libx264 @ 0x2243f40] frame= 408 QP=22.06 NAL=2 Slice:P Poc:48  I:8    P:388  SKIP:2188 size=1951 bytes
633[libx264 @ 0x2243f40] frame= 409 QP=23.37 NAL=2 Slice:P Poc:50  I:9    P:405  SKIP:2170 size=1994 bytes
634frame=  451 fps= 20 q=28.0 size=N/A time=00:00:18.73 bitrate=N/A dup=1 drop=0   
635frame= 410 QP=22.40 NAL=2 Slice:P Poc:52  I:6    P:329  SKIP:2249 size=1367 bytes
636[libx264 @ 0x2243f40] frame= 411 QP=23.14 NAL=2 Slice:P Poc:54  I:4    P:395  SKIP:2185 size=1631 bytes
637[libx264 @ 0x2243f40] frame= 412 QP=23.45 NAL=2 Slice:P Poc:56  I:5    P:339  SKIP:2240 size=1204 bytes
638[libx264 @ 0x2243f40] frame= 413 QP=23.13 NAL=2 Slice:P Poc:58  I:11   P:342  SKIP:2231 size=1398 bytes
639[libx264 @ 0x2243f40] frame= 414 QP=22.89 NAL=2 Slice:P Poc:60  I:2    P:292  SKIP:2290 size=910 bytes
640[libx264 @ 0x2243f40] frame= 415 QP=23.32 NAL=2 Slice:P Poc:62  I:1    P:309  SKIP:2274 size=983 bytes
641[libx264 @ 0x2243f40] frame= 416 QP=23.85 NAL=2 Slice:P Poc:64  I:51   P:457  SKIP:2076 size=3331 bytes
642[libx264 @ 0x2243f40] frame= 417 QP=23.06 NAL=2 Slice:P Poc:66  I:211  P:321  SKIP:2052 size=5533 bytes
643[libx264 @ 0x2243f40] frame= 418 QP=22.98 NAL=2 Slice:P Poc:68  I:58   P:468  SKIP:2058 size=4385 bytes
644[libx264 @ 0x2243f40] frame= 419 QP=23.45 NAL=2 Slice:P Poc:70  I:26   P:436  SKIP:2122 size=2340 bytes
645[libx264 @ 0x2243f40] frame= 420 QP=23.09 NAL=2 Slice:P Poc:72  I:63   P:481  SKIP:2040 size=3036 bytes
646[libx264 @ 0x2243f40] frame= 421 QP=23.17 NAL=2 Slice:P Poc:74  I:148  P:449  SKIP:1987 size=5062 bytes
647[libx264 @ 0x2243f40] frame= 422 QP=23.10 NAL=2 Slice:P Poc:76  I:130  P:549  SKIP:1905 size=5824 bytes
648[libx264 @ 0x2243f40] frame= 423 QP=23.08 NAL=2 Slice:P Poc:78  I:182  P:479  SKIP:1923 size=6843 bytes
649[libx264 @ 0x2243f40] frame= 424 QP=23.26 NAL=2 Slice:P Poc:80  I:66   P:582  SKIP:1936 size=4303 bytes
650[libx264 @ 0x2243f40] frame= 425 QP=22.91 NAL=2 Slice:P Poc:82  I:59   P:597  SKIP:1928 size=4019 bytes
651[libx264 @ 0x2243f40] frame= 426 QP=22.91 NAL=2 Slice:P Poc:84  I:36   P:620  SKIP:1928 size=4124 bytes
652[libx264 @ 0x2243f40] frame= 427 QP=23.08 NAL=2 Slice:P Poc:86  I:45   P:662  SKIP:1877 size=3958 bytes
653frame=  469 fps= 20 q=28.0 size=N/A time=00:00:19.49 bitrate=N/A dup=1 drop=0   
654frame= 428 QP=22.85 NAL=2 Slice:P Poc:88  I:27   P:533  SKIP:2024 size=2690 bytes
655[libx264 @ 0x2243f40] frame= 429 QP=22.72 NAL=2 Slice:P Poc:90  I:20   P:517  SKIP:2047 size=2307 bytes
656[libx264 @ 0x2243f40] frame= 430 QP=23.48 NAL=2 Slice:P Poc:92  I:25   P:549  SKIP:2010 size=2455 bytes
657[libx264 @ 0x2243f40] frame= 431 QP=24.68 NAL=2 Slice:P Poc:94  I:67   P:574  SKIP:1943 size=3355 bytes
658[libx264 @ 0x2243f40] frame= 432 QP=17.67 NAL=3 Slice:I Poc:0   I:2584 P:0    SKIP:0    size=43560 bytes
659[libx264 @ 0x2243f40] frame= 433 QP=19.74 NAL=2 Slice:P Poc:2   I:831  P:1309 SKIP:444  size=18029 bytes
660[libx264 @ 0x2243f40] frame= 434 QP=20.65 NAL=2 Slice:P Poc:4   I:507  P:627  SKIP:1450 size=8775 bytes
661[libx264 @ 0x2243f40] frame= 435 QP=20.62 NAL=2 Slice:P Poc:6   I:370  P:534  SKIP:1680 size=9172 bytes
662[libx264 @ 0x2243f40] frame= 436 QP=19.82 NAL=2 Slice:P Poc:8   I:167  P:614  SKIP:1803 size=7763 bytes
663[libx264 @ 0x2243f40] frame= 437 QP=19.36 NAL=2 Slice:P Poc:10  I:37   P:564  SKIP:1983 size=3182 bytes
664[libx264 @ 0x2243f40] frame= 438 QP=20.76 NAL=2 Slice:P Poc:12  I:17   P:461  SKIP:2106 size=2578 bytes
665No more output streams to write to, finishing.
666[libx264 @ 0x2243f40] frame= 439 QP=20.66 NAL=2 Slice:P Poc:14  I:11   P:428  SKIP:2145 size=2047 bytes
667[libx264 @ 0x2243f40] frame= 440 QP=21.15 NAL=2 Slice:P Poc:16  I:4    P:349  SKIP:2231 size=1754 bytes
668[libx264 @ 0x2243f40] frame= 441 QP=21.84 NAL=2 Slice:P Poc:18  I:9    P:373  SKIP:2202 size=1805 bytes
669[libx264 @ 0x2243f40] frame= 442 QP=21.11 NAL=2 Slice:P Poc:20  I:15   P:497  SKIP:2072 size=1795 bytes
670[libx264 @ 0x2243f40] frame= 443 QP=21.12 NAL=2 Slice:P Poc:22  I:5    P:375  SKIP:2204 size=1532 bytes
671[libx264 @ 0x2243f40] frame= 444 QP=22.08 NAL=2 Slice:P Poc:24  I:7    P:370  SKIP:2207 size=1958 bytes
672[libx264 @ 0x2243f40] frame= 445 QP=22.21 NAL=2 Slice:P Poc:26  I:21   P:380  SKIP:2183 size=2485 bytes
673[libx264 @ 0x2243f40] frame= 446 QP=21.25 NAL=2 Slice:P Poc:28  I:9    P:410  SKIP:2165 size=2355 bytes
674[libx264 @ 0x2243f40] frame= 447 QP=21.49 NAL=2 Slice:P Poc:30  I:10   P:432  SKIP:2142 size=2586 bytes
675[libx264 @ 0x2243f40] frame= 448 QP=21.48 NAL=2 Slice:P Poc:32  I:9    P:388  SKIP:2187 size=2586 bytes
676[libx264 @ 0x2243f40] frame= 449 QP=21.80 NAL=2 Slice:P Poc:34  I:7    P:331  SKIP:2246 size=1936 bytes
677[libx264 @ 0x2243f40] frame= 450 QP=21.39 NAL=2 Slice:P Poc:36  I:3    P:348  SKIP:2233 size=1600 bytes
678[libx264 @ 0x2243f40] frame= 451 QP=21.91 NAL=2 Slice:P Poc:38  I:5    P:367  SKIP:2212 size=1762 bytes
679[libx264 @ 0x2243f40] frame= 452 QP=21.67 NAL=2 Slice:P Poc:40  I:1    P:361  SKIP:2222 size=1594 bytes
680[libx264 @ 0x2243f40] frame= 453 QP=22.13 NAL=2 Slice:P Poc:42  I:5    P:357  SKIP:2222 size=1538 bytes
681[libx264 @ 0x2243f40] frame= 454 QP=21.71 NAL=2 Slice:P Poc:44  I:8    P:302  SKIP:2274 size=1677 bytes
682[libx264 @ 0x2243f40] frame= 455 QP=21.74 NAL=2 Slice:P Poc:46  I:13   P:313  SKIP:2258 size=1855 bytes
683[libx264 @ 0x2243f40] frame= 456 QP=21.21 NAL=2 Slice:P Poc:48  I:3    P:328  SKIP:2253 size=1597 bytes
684[libx264 @ 0x2243f40] frame= 457 QP=21.70 NAL=2 Slice:P Poc:50  I:4    P:363  SKIP:2217 size=1870 bytes
685[libx264 @ 0x2243f40] frame= 458 QP=20.99 NAL=2 Slice:P Poc:52  I:5    P:318  SKIP:2261 size=1873 bytes
686[libx264 @ 0x2243f40] frame= 459 QP=21.50 NAL=2 Slice:P Poc:54  I:3    P:319  SKIP:2262 size=1777 bytes
687[libx264 @ 0x2243f40] frame= 460 QP=21.38 NAL=2 Slice:P Poc:56  I:0    P:179  SKIP:2405 size=676 bytes
688[libx264 @ 0x2243f40] frame= 461 QP=21.93 NAL=2 Slice:P Poc:58  I:2    P:215  SKIP:2367 size=975 bytes
689[libx264 @ 0x2243f40] frame= 462 QP=22.43 NAL=2 Slice:P Poc:60  I:1    P:186  SKIP:2397 size=856 bytes
690[libx264 @ 0x2243f40] frame= 463 QP=22.26 NAL=2 Slice:P Poc:62  I:4    P:217  SKIP:2363 size=1163 bytes
691[libx264 @ 0x2243f40] frame= 464 QP=21.52 NAL=2 Slice:P Poc:64  I:3    P:200  SKIP:2381 size=955 bytes
692[libx264 @ 0x2243f40] frame= 465 QP=22.46 NAL=2 Slice:P Poc:66  I:3    P:237  SKIP:2344 size=1242 bytes
693[libx264 @ 0x2243f40] frame= 466 QP=22.31 NAL=2 Slice:P Poc:68  I:1    P:197  SKIP:2386 size=910 bytes
694[libx264 @ 0x2243f40] frame= 467 QP=22.37 NAL=2 Slice:P Poc:70  I:1    P:229  SKIP:2354 size=998 bytes
695[libx264 @ 0x2243f40] frame= 468 QP=21.92 NAL=2 Slice:P Poc:72  I:1    P:154  SKIP:2429 size=573 bytes
696[libx264 @ 0x2243f40] frame= 469 QP=22.25 NAL=2 Slice:P Poc:74  I:27   P:176  SKIP:2381 size=1846 bytes
697[libx264 @ 0x2243f40] frame= 470 QP=22.78 NAL=2 Slice:P Poc:76  I:9    P:179  SKIP:2396 size=1415 bytes
698[libx264 @ 0x2243f40] frame= 471 QP=24.04 NAL=2 Slice:P Poc:78  I:0    P:184  SKIP:2400 size=912 bytes
699[libx264 @ 0x2243f40] frame= 472 QP=21.50 NAL=2 Slice:P Poc:80  I:0    P:179  SKIP:2405 size=839 bytes
700[libx264 @ 0x2243f40] frame= 473 QP=21.58 NAL=2 Slice:P Poc:82  I:2    P:200  SKIP:2382 size=1124 bytes
701[libx264 @ 0x2243f40] frame= 474 QP=22.25 NAL=2 Slice:P Poc:84  I:0    P:188  SKIP:2396 size=1179 bytes
702[libx264 @ 0x2243f40] frame= 475 QP=23.34 NAL=2 Slice:P Poc:86  I:4    P:195  SKIP:2385 size=1117 bytes
703[libx264 @ 0x2243f40] frame= 476 QP=24.15 NAL=2 Slice:P Poc:88  I:10   P:224  SKIP:2350 size=1142 bytes
704[libx264 @ 0x2243f40] frame= 477 QP=25.25 NAL=2 Slice:P Poc:90  I:144  P:220  SKIP:2220 size=3383 bytes
705[libx264 @ 0x2243f40] frame= 478 QP=25.78 NAL=2 Slice:P Poc:92  I:279  P:304  SKIP:2001 size=4837 bytes
706[libx264 @ 0x2243f40] frame= 479 QP=27.87 NAL=2 Slice:P Poc:94  I:378  P:346  SKIP:1860 size=6314 bytes
707frame=  480 fps= 20 q=28.0 Lsize=N/A time=00:00:20.01 bitrate=N/A dup=1 drop=0   
708video:4186kB audio:288kB subtitle:0 global headers:0kB muxing overhead -100.000480%
709[libx264 @ 0x2243f40] frame I:10    Avg QP:17.43  size: 72190
710[libx264 @ 0x2243f40] frame P:470   Avg QP:21.82  size:  7583
711[libx264 @ 0x2243f40] mb I  I16..4: 44.7%  0.0% 55.3%
712[libx264 @ 0x2243f40] mb P  I16..4: 10.0%  0.0%  1.0%  P16..4: 28.7%  8.1%  3.5%  0.0%  0.0%    skip:48.7%
713[libx264 @ 0x2243f40] coded y,uvDC,uvAC intra: 14.3% 30.6% 11.7% inter: 11.7% 18.3% 2.1%
714[libx264 @ 0x2243f40] i16 v,h,dc,p: 64% 21%  9%  6%
715[libx264 @ 0x2243f40] i4 v,h,dc,ddl,ddr,vr,hd,vl,hu: 19% 18% 20%  6%  8%  7%  7%  7%  7%
716[libx264 @ 0x2243f40] i8c dc,h,v,p: 65% 19% 12%  4%
717[libx264 @ 0x2243f40] ref P L0: 68.9% 21.3%  9.8%
718[libx264 @ 0x2243f40] kb/s:1714.41
719Statistics: 4135679 bytes read, 2 seeks