Ticket #2080: sample.log

File sample.log, 15.2 KB (added by peterdeg, 4 years ago)

Output from conversion showing 'mpeg_decode_postinit() failure'

Line 
1ffmpeg version N-47062-g26c531c Copyright (c) 2000-2012 the FFmpeg developers
2  built on Nov 25 2012 12:25:21 with gcc 4.7.2 (GCC)
3  configuration: --enable-gpl --enable-version3 --disable-pthreads --enable-runtime-cpudetect --enable-avisynth --enable-bzlib --enable-frei0r --enable-libass --enable-libopencore-amrnb --enable-libopencore-amrwb --enable-libfreetype --enable-libgsm --enable-libmp3lame --enable-libnut --enable-libopenjpeg --enable-libopus --enable-librtmp --enable-libschroedinger --enable-libspeex --enable-libtheora --enable-libutvideo --enable-libvo-aacenc --enable-libvo-amrwbenc --enable-libvorbis --enable-libvpx --enable-libx264 --enable-libxavs --enable-libxvid --enable-zlib
4  libavutil      52.  9.100 / 52.  9.100
5  libavcodec     54. 77.100 / 54. 77.100
6  libavformat    54. 37.100 / 54. 37.100
7  libavdevice    54.  3.100 / 54.  3.100
8  libavfilter     3. 23.102 /  3. 23.102
9  libswscale      2.  1.102 /  2.  1.102
10  libswresample   0. 17.101 /  0. 17.101
11  libpostproc    52.  2.100 / 52.  2.100
12[mpeg2video @ 00000000037c0a00] mpeg_decode_postinit() failure
13    Last message repeated 2 times
14[mp2 @ 000000000238e500] Header missing
15[mpeg2video @ 00000000037c0a00] mpeg_decode_postinit() failure
16    Last message repeated 2 times
17Input #0, wtv, from 'Pat Callinan's 4x4 Adventures_Ten Digital_2012_12_23_11_57_18.wtv':
18  Metadata:
19    WM/MediaClassPrimaryID: db9830bd-3ab3-4fab-8a371a995f7ff74
20    WM/MediaClassSecondaryID: ba7f258a-62f7-47a9-b21f4651c42a000
21    Title           : Pat Callinan's 4x4 Adventures
22    WM/SubTitleDescription: Pat Callinan, the editor of 4WD Monthly Magazine, travels far and wide visiting remote places in Australia that are only accessible by 4 wheel drive. (Or by foot, but considering this is a car show, walking might get short shrift.) This is what these cars
23    genre           : Adventure;Lifestyle;Travel;Other
24    WM/OriginalReleaseTime: 0
25    WM/MediaCredits : ;;;
26    service_provider: Ten Digital
27    service_name    : Ten Digital
28    WM/MediaNetworkAffiliation: IceTV
29    WM/MediaOriginalChannel: 10
30    WM/MediaOriginalChannelSubNumber: 0
31    WM/MediaOriginalBroadcastDateTime: 2012-12-22T13:00:00Z
32    WM/MediaOriginalRunTime: 46575157557
33    WM/MediaIsStereo: false
34    WM/MediaIsRepeat: false
35    WM/MediaIsLive  : false
36    WM/MediaIsTape  : false
37    WM/MediaIsDelay : false
38    WM/MediaIsSubtitled: false
39    WM/MediaIsMovie : false
40    WM/MediaIsPremiere: false
41    WM/MediaIsFinale: false
42    WM/MediaIsSAP   : false
43    WM/MediaIsSport : false
44    WM/ParentalRating: PG
45    WM/Provider     : MediaCenterDefault
46    WM/VideoClosedCaptioning: false
47    WM/WMRVEncodeTime: 2012-12-23 00:57:22
48    WM/WMRVSeriesUID: !Series!14502
49    WM/WMRVServiceID: !Service!5
50    WM/WMRVProgramID: !Program!107052805
51    WM/WMRVRequestID: 0
52    WM/WMRVScheduleItemID: 0
53    WM/WMRVQuality  : 0
54    WM/WMRVOriginalSoftPrePadding: 480
55    WM/WMRVOriginalSoftPostPadding: 900
56    WM/WMRVHardPrePadding: -300
57    WM/WMRVHardPostPadding: 0
58    WM/WMRVATSCContent: false
59    WM/WMRVDTVContent: true
60    WM/WMRVHDContent: false
61    Duration        : 46579041045
62    WM/WMRVEndTime  : 2012-12-23 02:15:00
63    WM/WMRVBitrate  : 5.441091
64    WM/WMRVKeepUntil: -1
65    WM/WMRVActualSoftPrePadding: 457
66    WM/WMRVActualSoftPostPadding: 900
67    WM/WMRVContentProtected: false
68    WM/WMRVContentProtectedPercent: 0
69    WM/WMRVExpirationSpan: 9223372036854775807
70    WM/WMRVInBandRatingSystem: 255
71    WM/WMRVInBandRatingLevel: 255
72    WM/WMRVInBandRatingAttributes: 0
73    WM/WMRVWatched  : false
74    WM/MediaThumbWidth: 352
75    WM/MediaThumbHeight: 281
76    WM/MediaThumbStride: 1056
77    WM/MediaThumbRet: 0
78    WM/MediaThumbRatingSystem: 255
79    WM/MediaThumbRatingLevel: 255
80    WM/MediaThumbRatingAttributes: 0
81    WM/MediaThumbAspectRatioX: 16
82    WM/MediaThumbAspectRatioY: 9
83    WM/MediaThumbTimeStamp: -4616189618054758400
84    WM/MediaThumbType: 2
85  Duration: 01:17:37.32, start: 1.638778, bitrate: 5441 kb/s
86    Stream #0:0[0x1f](eng): Subtitle: dvb_teletext
87    Stream #0:1[0x21](eng): Audio: mp2 (P[0][0][0] / 0x0050), 48000 Hz, stereo, s16, 256 kb/s
88    Stream #0:2[0x22]: Video: mpeg2video (Main), yuv420p, 720x576 [SAR 64:45 DAR 16:9], 25 fps, 25 tbr, 10000k tbn, 50 tbc
89    Stream #0:3[0x0]: Attachment: mjpeg
90    Metadata:
91      title           : TV Thumbnail
92Output #0, dvd, to 'Pat Callinan's 4x4 Adventures_Ten Digital_2012_12_23_11_57_18.mpg':
93  Metadata:
94    WM/MediaClassPrimaryID: db9830bd-3ab3-4fab-8a371a995f7ff74
95    WM/MediaClassSecondaryID: ba7f258a-62f7-47a9-b21f4651c42a000
96    Title           : Pat Callinan's 4x4 Adventures
97    WM/SubTitleDescription: Pat Callinan, the editor of 4WD Monthly Magazine, travels far and wide visiting remote places in Australia that are only accessible by 4 wheel drive. (Or by foot, but considering this is a car show, walking might get short shrift.) This is what these cars
98    genre           : Adventure;Lifestyle;Travel;Other
99    WM/OriginalReleaseTime: 0
100    WM/MediaCredits : ;;;
101    service_provider: Ten Digital
102    service_name    : Ten Digital
103    WM/MediaNetworkAffiliation: IceTV
104    WM/MediaOriginalChannel: 10
105    WM/MediaOriginalChannelSubNumber: 0
106    WM/MediaOriginalBroadcastDateTime: 2012-12-22T13:00:00Z
107    WM/MediaOriginalRunTime: 46575157557
108    WM/MediaIsStereo: false
109    WM/MediaIsRepeat: false
110    WM/MediaIsLive  : false
111    WM/MediaIsTape  : false
112    WM/MediaIsDelay : false
113    WM/MediaIsSubtitled: false
114    WM/MediaIsMovie : false
115    WM/MediaIsPremiere: false
116    WM/MediaIsFinale: false
117    WM/MediaIsSAP   : false
118    WM/MediaIsSport : false
119    WM/ParentalRating: PG
120    WM/Provider     : MediaCenterDefault
121    WM/VideoClosedCaptioning: false
122    WM/WMRVEncodeTime: 2012-12-23 00:57:22
123    WM/WMRVSeriesUID: !Series!14502
124    WM/WMRVServiceID: !Service!5
125    WM/WMRVProgramID: !Program!107052805
126    WM/WMRVRequestID: 0
127    WM/WMRVScheduleItemID: 0
128    WM/WMRVQuality  : 0
129    WM/WMRVOriginalSoftPrePadding: 480
130    WM/WMRVOriginalSoftPostPadding: 900
131    WM/WMRVHardPrePadding: -300
132    WM/WMRVHardPostPadding: 0
133    WM/WMRVATSCContent: false
134    WM/WMRVDTVContent: true
135    WM/WMRVHDContent: false
136    Duration        : 46579041045
137    WM/WMRVEndTime  : 2012-12-23 02:15:00
138    WM/WMRVBitrate  : 5.441091
139    WM/WMRVKeepUntil: -1
140    WM/WMRVActualSoftPrePadding: 457
141    WM/WMRVActualSoftPostPadding: 900
142    WM/WMRVContentProtected: false
143    WM/WMRVContentProtectedPercent: 0
144    WM/WMRVExpirationSpan: 9223372036854775807
145    WM/WMRVInBandRatingSystem: 255
146    WM/WMRVInBandRatingLevel: 255
147    WM/WMRVInBandRatingAttributes: 0
148    WM/WMRVWatched  : false
149    WM/MediaThumbWidth: 352
150    WM/MediaThumbHeight: 281
151    WM/MediaThumbStride: 1056
152    WM/MediaThumbRet: 0
153    WM/MediaThumbRatingSystem: 255
154    WM/MediaThumbRatingLevel: 255
155    WM/MediaThumbRatingAttributes: 0
156    WM/MediaThumbAspectRatioX: 16
157    WM/MediaThumbAspectRatioY: 9
158    WM/MediaThumbTimeStamp: -4616189618054758400
159    WM/MediaThumbType: 2
160    encoder         : Lavf54.37.100
161    Stream #0:0: Video: mpeg2video, yuv420p, 720x576 [SAR 64:45 DAR 16:9], q=2-31, 25 fps, 90k tbn, 25 tbc
162    Stream #0:1(eng): Audio: mp2 (P[0][0][0] / 0x0050), 48000 Hz, stereo, 256 kb/s
163Stream mapping:
164  Stream #0:2 -> #0:0 (copy)
165  Stream #0:1 -> #0:1 (copy)
166Press [q] to stop, [?] for help
167frame= 2721 fps=0.0 q=-1.0 size=   66268kB time=00:01:49.36 bitrate=4964.0kbits/s   
168frame= 6249 fps=6248 q=-1.0 size=  139598kB time=00:04:10.92 bitrate=4557.6kbits/s   
169frame= 9847 fps=6564 q=-1.0 size=  216910kB time=00:06:34.84 bitrate=4500.4kbits/s   
170frame=13447 fps=6723 q=-1.0 size=  297952kB time=00:08:58.84 bitrate=4529.8kbits/s   
171frame=16659 fps=6663 q=-1.0 size=  379758kB time=00:11:07.32 bitrate=4661.9kbits/s   
172frame=19625 fps=6541 q=-1.0 size=  459572kB time=00:13:05.96 bitrate=4790.1kbits/s   
173frame=23417 fps=6690 q=-1.0 size=  538920kB time=00:15:37.64 bitrate=4708.4kbits/s   
174frame=26567 fps=6641 q=-1.0 size=  616966kB time=00:17:43.64 bitrate=4751.8kbits/s   
175frame=29637 fps=6585 q=-1.0 size=  694888kB time=00:19:46.44 bitrate=4798.0kbits/s   
176frame=32814 fps=6562 q=-1.0 size=  776032kB time=00:21:53.84 bitrate=4838.7kbits/s   
177frame=36494 fps=6634 q=-1.0 size=  852584kB time=00:24:21.04 bitrate=4780.4kbits/s   
178frame=39627 fps=6604 q=-1.0 size=  929746kB time=00:26:26.36 bitrate=4801.2kbits/s   
179frame=42617 fps=6556 q=-1.0 size= 1007238kB time=00:28:25.96 bitrate=4836.7kbits/s   
180frame=45751 fps=6535 q=-1.0 size= 1081066kB time=00:30:31.32 bitrate=4835.9kbits/s   
181frame=49065 fps=6541 q=-1.0 size= 1152080kB time=00:32:43.88 bitrate=4805.7kbits/s   
182frame=52120 fps=6514 q=-1.0 size= 1222724kB time=00:34:46.08 bitrate=4801.6kbits/s   
183frame=55476 fps=6526 q=-1.0 size= 1293172kB time=00:37:00.32 bitrate=4771.2kbits/s   
184frame=58948 fps=6549 q=-1.0 size= 1364028kB time=00:39:19.20 bitrate=4736.4kbits/s   
185frame=62045 fps=6530 q=-1.0 size= 1438716kB time=00:41:23.08 bitrate=4746.5kbits/s   
186frame=65426 fps=6542 q=-1.0 size= 1514062kB time=00:43:38.60 bitrate=4736.6kbits/s   
187frame=68770 fps=6549 q=-1.0 size= 1589002kB time=00:45:52.36 bitrate=4729.4kbits/s   
188frame=71865 fps=6532 q=-1.0 size= 1665356kB time=00:47:56.16 bitrate=4743.3kbits/s   
189frame=73688 fps=6403 q=-1.0 size= 1711850kB time=00:49:09.08 bitrate=4755.2kbits/s   
190frame=75254 fps=6266 q=-1.0 size= 1756492kB time=00:50:11.72 bitrate=4777.7kbits/s   
191frame=76409 fps=6105 q=-1.0 size= 1789554kB time=00:50:57.92 bitrate=4794.1kbits/s   
192frame=76637 fps=5870 q=-1.0 size= 1797190kB time=00:51:07.04 bitrate=4800.3kbits/s   
193frame=76694 fps=5582 q=-1.0 size= 1799096kB time=00:51:09.32 bitrate=4801.8kbits/s   
194frame=76778 fps=5237 q=-1.0 size= 1801816kB time=00:51:12.68 bitrate=4803.8kbits/s   
195frame=76855 fps=5037 q=-1.0 size= 1803634kB time=00:51:15.76 bitrate=4803.8kbits/s   
196frame=76979 fps=4823 q=-1.0 size= 1806900kB time=00:51:20.72 bitrate=4804.8kbits/s   
197frame=76993 fps=4623 q=-1.0 size= 1807220kB time=00:51:21.28 bitrate=4804.7kbits/s   
198frame=77240 fps=4496 q=-1.0 size= 1814462kB time=00:51:31.16 bitrate=4808.6kbits/s   
199frame=77594 fps=4383 q=-1.0 size= 1822208kB time=00:51:45.32 bitrate=4807.1kbits/s   
200frame=77696 fps=4255 q=-1.0 size= 1824426kB time=00:51:49.40 bitrate=4806.6kbits/s   
201frame=77860 fps=4150 q=-1.0 size= 1828470kB time=00:51:55.96 bitrate=4807.1kbits/s   
202frame=77969 fps=4039 q=-1.0 size= 1831182kB time=00:52:00.32 bitrate=4807.5kbits/s   
203frame=78153 fps=3946 q=-1.0 size= 1834552kB time=00:52:07.68 bitrate=4805.0kbits/s   
204frame=78235 fps=3847 q=-1.0 size= 1836508kB time=00:52:10.96 bitrate=4805.1kbits/s   
205frame=78433 fps=3758 q=-1.0 size= 1841804kB time=00:52:18.88 bitrate=4806.8kbits/s   
206frame=78594 fps=3663 q=-1.0 size= 1845572kB time=00:52:25.32 bitrate=4806.8kbits/s   
207frame=78617 fps=3565 q=-1.0 size= 1846182kB time=00:52:26.24 bitrate=4807.0kbits/s   
208frame=78876 fps=3489 q=-1.0 size= 1852086kB time=00:52:36.60 bitrate=4806.5kbits/s   
209frame=78969 fps=3416 q=-1.0 size= 1854082kB time=00:52:40.32 bitrate=4806.0kbits/s   
210frame=79798 fps=3379 q=-1.0 size= 1871956kB time=00:53:13.48 bitrate=4802.0kbits/s   
211frame=81660 fps=3386 q=-1.0 size= 1911326kB time=00:54:27.96 bitrate=4791.2kbits/s   
212frame=83278 fps=3383 q=-1.0 size= 1947204kB time=00:55:32.68 bitrate=4786.4kbits/s   
213frame=83636 fps=3323 q=-1.0 size= 1955658kB time=00:55:47.00 bitrate=4786.6kbits/s   
214frame=83795 fps=3264 q=-1.0 size= 1959858kB time=00:55:53.36 bitrate=4787.8kbits/s   
215frame=84803 fps=3235 q=-1.0 size= 1983698kB time=00:56:33.68 bitrate=4788.4kbits/s   
216frame=84811 fps=3162 q=-1.0 size= 1983926kB time=00:56:34.00 bitrate=4788.5kbits/s   
217frame=85311 fps=3123 q=-1.0 size= 1998238kB time=00:56:54.00 bitrate=4794.8kbits/s   
218frame=85613 fps=3078 q=-1.0 size= 2005596kB time=00:57:06.08 bitrate=4795.5kbits/s   
219frame=87064 fps=3063 q=-1.0 size= 2042402kB time=00:58:04.12 bitrate=4802.2kbits/s   
220frame=87497 fps=3022 q=-1.0 size= 2052392kB time=00:58:21.44 bitrate=4801.8kbits/s   
221frame=87536 fps=2972 q=-1.0 size= 2053338kB time=00:58:23.00 bitrate=4801.9kbits/s   
222frame=87953 fps=2936 q=-1.0 size= 2062420kB time=00:58:39.68 bitrate=4800.2kbits/s   
223frame=88318 fps=2896 q=-1.0 size= 2070980kB time=00:58:54.28 bitrate=4800.3kbits/s   
224frame=88358 fps=2850 q=-1.0 size= 2071858kB time=00:58:55.88 bitrate=4800.1kbits/s   
225frame=89715 fps=2844 q=-1.0 size= 2104080kB time=00:59:50.16 bitrate=4801.1kbits/s   
226frame=89974 fps=2808 q=-1.0 size= 2109830kB time=01:00:00.52 bitrate=4800.3kbits/s   
227frame=91764 fps=2819 q=-1.0 size= 2147586kB time=01:01:12.12 bitrate=4791.0kbits/s   
228frame=92468 fps=2784 q=-1.0 size= 2163274kB time=01:01:40.28 bitrate=4789.2kbits/s   
229frame=93050 fps=2754 q=-1.0 size= 2173448kB time=01:02:03.56 bitrate=4781.7kbits/s   
230frame=94207 fps=2748 q=-1.0 size= 2199198kB time=01:02:49.84 bitrate=4778.9kbits/s   
231frame=94703 fps=2723 q=-1.0 size= 2210822kB time=01:03:09.68 bitrate=4779.0kbits/s   
232frame=96446 fps=2733 q=-1.0 size= 2248562kB time=01:04:19.40 bitrate=4772.8kbits/s   
233frame=97351 fps=2716 q=-1.0 size= 2268500kB time=01:04:55.60 bitrate=4770.4kbits/s   
234frame=97615 fps=2684 q=-1.0 size= 2274186kB time=01:05:06.16 bitrate=4769.4kbits/s   
235frame=99105 fps=2688 q=-1.0 size= 2304674kB time=01:06:05.76 bitrate=4760.7kbits/s   
236frame=99212 fps=2652 q=-1.0 size= 2307044kB time=01:06:10.04 bitrate=4760.5kbits/s   
237frame=99640 fps=2628 q=-1.0 size= 2317948kB time=01:06:27.16 bitrate=4762.4kbits/s   
238frame=100838 fps=2624 q=-1.0 size= 2342970kB time=01:07:15.08 bitrate=4756.7kbits/s   
239frame=100853 fps=2586 q=-1.0 size= 2343222kB time=01:07:15.68 bitrate=4756.5kbits/s   
240frame=101271 fps=2564 q=-1.0 size= 2352072kB time=01:07:32.40 bitrate=4754.8kbits/s   
241frame=101894 fps=2547 q=-1.0 size= 2365048kB time=01:07:57.32 bitrate=4751.8kbits/s   
242frame=103618 fps=2558 q=-1.0 size= 2404960kB time=01:09:06.28 bitrate=4751.6kbits/s   
243frame=104922 fps=2559 q=-1.0 size= 2435870kB time=01:09:58.44 bitrate=4752.9kbits/s   
244frame=105037 fps=2530 q=-1.0 size= 2438602kB time=01:10:03.04 bitrate=4753.0kbits/s   
245frame=105973 fps=2522 q=-1.0 size= 2460112kB time=01:10:40.48 bitrate=4752.6kbits/s   
246frame=107071 fps=2517 q=-1.0 size= 2484806kB time=01:11:24.40 bitrate=4751.1kbits/s   
247frame=107141 fps=2489 q=-1.0 size= 2486098kB time=01:11:27.20 bitrate=4750.4kbits/s   
248frame=108736 fps=2497 q=-1.0 size= 2514502kB time=01:12:31.00 bitrate=4734.3kbits/s   
249frame=109199 fps=2479 q=-1.0 size= 2524856kB time=01:12:49.52 bitrate=4733.6kbits/s   
250frame=109585 fps=2460 q=-1.0 size= 2532008kB time=01:13:04.96 bitrate=4730.3kbits/s   
251frame=111283 fps=2468 q=-1.0 size= 2564654kB time=01:14:12.88 bitrate=4718.2kbits/s   
252frame=111505 fps=2444 q=-1.0 size= 2570032kB time=01:14:21.76 bitrate=4718.7kbits/s   
253frame=113061 fps=2451 q=-1.0 size= 2606898kB time=01:15:24.00 bitrate=4720.5kbits/s   
254frame=114057 fps=2446 q=-1.0 size= 2628882kB time=01:16:03.84 bitrate=4718.8kbits/s   
255frame=114149 fps=2414 q=-1.0 size= 2631170kB time=01:16:07.52 bitrate=4719.1kbits/s   
256frame=115707 fps=2422 q=-1.0 size= 2666554kB time=01:17:09.84 bitrate=4718.2kbits/s   
257frame=115735 fps=2397 q=-1.0 size= 2667272kB time=01:17:10.96 bitrate=4718.3kbits/s   
258frame=116396 fps=2389 q=-1.0 Lsize= 2681662kB time=01:17:37.40 bitrate=4716.8kbits/s   
259
260video:2474475kB audio:145527kB subtitle:0 global headers:0kB muxing overhead 2.353426%