Ticket #1997: ffmpeg_gitHead_output_ubuntu32bit_incorrect_dar.txt

File ffmpeg_gitHead_output_ubuntu32bit_incorrect_dar.txt, 33.3 KB (added by kahphi, 4 years ago)
Line 
1$ ffmpeg -v debug -i mp4_test.mp4 -vcodec mpeg4 -an -vf setdar='4:3'  out_mp4-mkv.mkv
2ffmpeg version N-35930-g8ca8b43 Copyright (c) 2000-2012 the FFmpeg developers
3  built on Dec  7 2012 14:26:25 with gcc 4.6 (Ubuntu/Linaro 4.6.3-1ubuntu5)
4  configuration: --prefix=/usr/local/ --enable-shared --enable-avfilter --enable-libvorbis --enable-pthreads --enable-libvpx --enable-gpl --enable-pic
5  libavutil      52. 11.102 / 52. 11.102
6  libavcodec     54. 79.100 / 54. 79.100
7  libavformat    54. 47.100 / 54. 47.100
8  libavdevice    54.  3.102 / 54.  3.102
9  libavfilter     3. 25.101 /  3. 25.101
10  libswscale      2.  1.103 /  2.  1.103
11  libswresample   0. 17.102 /  0. 17.102
12  libpostproc    52.  2.100 / 52.  2.100
13[mov,mp4,m4a,3gp,3g2,mj2 @ 0x8da1500] Format mov,mp4,m4a,3gp,3g2,mj2 probed with size=2048 and score=100
14[mov,mp4,m4a,3gp,3g2,mj2 @ 0x8da1500] ISO: File Type Major Brand: isom
15[mov,mp4,m4a,3gp,3g2,mj2 @ 0x8da1500] File position before avformat_find_stream_info() is 7551734
16[aac @ 0x8da8c00] skip whole frame, skip left: 0
17[mov,mp4,m4a,3gp,3g2,mj2 @ 0x8da1500] All info found
18[mov,mp4,m4a,3gp,3g2,mj2 @ 0x8da1500] File position after avformat_find_stream_info() is 34562
19Input #0, mov,mp4,m4a,3gp,3g2,mj2, from 'mp4_test.mp4':
20  Metadata:
21    major_brand     : isom
22    minor_version   : 512
23    compatible_brands: isomiso2mp41
24    creation_time   : 1970-01-01 00:00:00
25    encoder         : Umile Encoder 3
26  Duration: 00:00:10.40, start: 0.000000, bitrate: 5809 kb/s
27    Stream #0:0(und), 1, 1/25: Video: mpeg4 (Simple Profile) (mp4v / 0x7634706D), yuv420p, 720x576 [SAR 1:1 DAR 5:4], 1/25, 5612 kb/s, 25 fps, 25 tbr, 25 tbn, 25 tbc
28    Metadata:
29      creation_time   : 1970-01-01 00:00:00
30      handler_name    : VideoHandler
31    Stream #0:1(und), 1, 1/48000: Audio: aac (mp4a / 0x6134706D), 48000 Hz, stereo, fltp, 192 kb/s
32    Metadata:
33      creation_time   : 1970-01-01 00:00:00
34      handler_name    : SoundHandler
35File 'out_mp4-mkv.mkv' already exists. Overwrite ? [y/N] y
36num:den syntax is deprecated, please use num/den or named options instead
37[Parsed_setdar_0 @ 0x8dba5c0] a:4/3
38[buffer @ 0x8dc8640] Setting entry with key 'video_size' to value '720x576'
39[buffer @ 0x8dc8640] Setting entry with key 'pix_fmt' to value '0'
40[buffer @ 0x8dc8640] Setting entry with key 'time_base' to value '1/25'
41[buffer @ 0x8dc8640] Setting entry with key 'pixel_aspect' to value '1/1'
42[buffer @ 0x8dc8640] Setting entry with key 'sws_param' to value 'flags=2'
43[buffer @ 0x8dc8640] Setting entry with key 'frame_rate' to value '25/1'
44[graph 0 input from stream 0:0 @ 0x8dc8a80] w:720 h:576 pixfmt:yuv420p tb:1/25 fr:25/1 sar:1/1 sws_param:flags=2
45[Parsed_setdar_0 @ 0x8dba5c0] w:720 h:576 -> dar:4/3 sar:16/15
46[mpeg4 @ 0x8db9b20] detected 2 logical cores
47[mpeg4 @ 0x8db9b20] intra_quant_bias = 0 inter_quant_bias = -64
48[mpeg4 @ 0x8da7f00] detected 2 logical cores
49Output #0, matroska, to 'out_mp4-mkv.mkv':
50  Metadata:
51    major_brand     : isom
52    minor_version   : 512
53    compatible_brands: isomiso2mp41
54    encoder         : Lavf54.47.100
55    Stream #0:0(und), 0, 1/1000: Video: mpeg4, yuv420p, 720x576 [SAR 16:15 DAR 4:3], 1/25, q=2-31, 200 kb/s, 1k tbn, 25 tbc
56    Metadata:
57      creation_time   : 1970-01-01 00:00:00
58      handler_name    : VideoHandler
59Stream mapping:
60  Stream #0:0 -> #0:0 (mpeg4 -> mpeg4)
61Press [q] to stop, [?] for help
62[matroska @ 0x8db9440] Writing block at offset 838, size 33824, pts 0, dts 0, duration 40, flags 128
63[matroska @ 0x8db9440] Writing block at offset 34670, size 39641, pts 40, dts 40, duration 40, flags 0
64[matroska @ 0x8db9440] Writing block at offset 74319, size 41057, pts 80, dts 80, duration 40, flags 0
65[matroska @ 0x8db9440] Writing block at offset 115384, size 43230, pts 120, dts 120, duration 40, flags 0
66[matroska @ 0x8db9440] Writing block at offset 158622, size 15749, pts 160, dts 160, duration 40, flags 0
67[matroska @ 0x8db9440] Writing block at offset 174378, size 6993, pts 200, dts 200, duration 40, flags 0
68[matroska @ 0x8db9440] Writing block at offset 181378, size 3333, pts 240, dts 240, duration 40, flags 0
69[matroska @ 0x8db9440] Writing block at offset 184718, size 2980, pts 280, dts 280, duration 40, flags 0
70[matroska @ 0x8db9440] Writing block at offset 187705, size 1826, pts 320, dts 320, duration 40, flags 0
71[matroska @ 0x8db9440] Writing block at offset 189538, size 1290, pts 360, dts 360, duration 40, flags 0
72[matroska @ 0x8db9440] Writing block at offset 190835, size 894, pts 400, dts 400, duration 40, flags 0
73[matroska @ 0x8db9440] Writing block at offset 191736, size 773, pts 440, dts 440, duration 40, flags 0
74[matroska @ 0x8db9440] Starting new cluster at offset 192516 bytes, pts 480
75[matroska @ 0x8db9440] Writing block at offset 192532, size 8015, pts 480, dts 480, duration 40, flags 128
76[matroska @ 0x8db9440] Writing block at offset 200554, size 1054, pts 520, dts 520, duration 40, flags 0
77[matroska @ 0x8db9440] Writing block at offset 201615, size 568, pts 560, dts 560, duration 40, flags 0
78[matroska @ 0x8db9440] Writing block at offset 202190, size 448, pts 600, dts 600, duration 40, flags 0
79[matroska @ 0x8db9440] Writing block at offset 202645, size 442, pts 640, dts 640, duration 40, flags 0
80[matroska @ 0x8db9440] Writing block at offset 203094, size 457, pts 680, dts 680, duration 40, flags 0
81[matroska @ 0x8db9440] Writing block at offset 203558, size 545, pts 720, dts 720, duration 40, flags 0
82[matroska @ 0x8db9440] Writing block at offset 204110, size 507, pts 760, dts 760, duration 40, flags 0
83[matroska @ 0x8db9440] Writing block at offset 204624, size 771, pts 800, dts 800, duration 40, flags 0
84[matroska @ 0x8db9440] Writing block at offset 205402, size 585, pts 840, dts 840, duration 40, flags 0
85[matroska @ 0x8db9440] Writing block at offset 205994, size 499, pts 880, dts 880, duration 40, flags 0
86[matroska @ 0x8db9440] Writing block at offset 206500, size 617, pts 920, dts 920, duration 40, flags 0
87[matroska @ 0x8db9440] Starting new cluster at offset 207124 bytes, pts 960
88[matroska @ 0x8db9440] Writing block at offset 207140, size 8422, pts 960, dts 960, duration 40, flags 128
89[matroska @ 0x8db9440] Writing block at offset 215569, size 869, pts 1000, dts 1000, duration 40, flags 0
90[matroska @ 0x8db9440] Writing block at offset 216445, size 482, pts 1040, dts 1040, duration 40, flags 0
91[matroska @ 0x8db9440] Writing block at offset 216934, size 566, pts 1080, dts 1080, duration 40, flags 0
92[matroska @ 0x8db9440] Writing block at offset 217507, size 704, pts 1120, dts 1120, duration 40, flags 0
93[matroska @ 0x8db9440] Writing block at offset 218218, size 582, pts 1160, dts 1160, duration 40, flags 0
94[matroska @ 0x8db9440] Writing block at offset 218807, size 492, pts 1200, dts 1200, duration 40, flags 0
95[matroska @ 0x8db9440] Writing block at offset 219306, size 636, pts 1240, dts 1240, duration 40, flags 0
96[matroska @ 0x8db9440] Writing block at offset 219949, size 822, pts 1280, dts 1280, duration 40, flags 0
97[matroska @ 0x8db9440] Writing block at offset 220778, size 619, pts 1320, dts 1320, duration 40, flags 0
98[matroska @ 0x8db9440] Writing block at offset 221404, size 785, pts 1360, dts 1360, duration 40, flags 0
99[matroska @ 0x8db9440] Writing block at offset 222196, size 916, pts 1400, dts 1400, duration 40, flags 0
100[matroska @ 0x8db9440] Starting new cluster at offset 223119 bytes, pts 1440
101[matroska @ 0x8db9440] Writing block at offset 223135, size 7742, pts 1440, dts 1440, duration 40, flags 128
102[matroska @ 0x8db9440] Writing block at offset 230884, size 1497, pts 1480, dts 1480, duration 40, flags 0
103[matroska @ 0x8db9440] Writing block at offset 232388, size 1283, pts 1520, dts 1520, duration 40, flags 0
104[matroska @ 0x8db9440] Writing block at offset 233678, size 957, pts 1560, dts 1560, duration 40, flags 0
105[matroska @ 0x8db9440] Writing block at offset 234642, size 925, pts 1600, dts 1600, duration 40, flags 0
106[matroska @ 0x8db9440] Writing block at offset 235574, size 948, pts 1640, dts 1640, duration 40, flags 0
107[matroska @ 0x8db9440] Writing block at offset 236529, size 812, pts 1680, dts 1680, duration 40, flags 0
108[matroska @ 0x8db9440] Writing block at offset 237348, size 673, pts 1720, dts 1720, duration 40, flags 0
109[matroska @ 0x8db9440] Writing block at offset 238028, size 547, pts 1760, dts 1760, duration 40, flags 0
110[matroska @ 0x8db9440] Writing block at offset 238582, size 562, pts 1800, dts 1800, duration 40, flags 0
111[matroska @ 0x8db9440] Writing block at offset 239151, size 747, pts 1840, dts 1840, duration 40, flags 0
112[matroska @ 0x8db9440] Writing block at offset 239905, size 568, pts 1880, dts 1880, duration 40, flags 0
113[matroska @ 0x8db9440] Starting new cluster at offset 240480 bytes, pts 1920
114[matroska @ 0x8db9440] Writing block at offset 240496, size 7676, pts 1920, dts 1920, duration 40, flags 128
115[matroska @ 0x8db9440] Writing block at offset 248179, size 926, pts 1960, dts 1960, duration 40, flags 0
116[matroska @ 0x8db9440] Writing block at offset 249112, size 630, pts 2000, dts 2000, duration 40, flags 0
117[matroska @ 0x8db9440] Writing block at offset 249749, size 660, pts 2040, dts 2040, duration 40, flags 0
118[matroska @ 0x8db9440] Writing block at offset 250416, size 599, pts 2080, dts 2080, duration 40, flags 0
119[matroska @ 0x8db9440] Writing block at offset 251022, size 630, pts 2120, dts 2120, duration 40, flags 0
120[matroska @ 0x8db9440] Writing block at offset 251659, size 630, pts 2160, dts 2160, duration 40, flags 0
121[matroska @ 0x8db9440] Writing block at offset 252296, size 589, pts 2200, dts 2200, duration 40, flags 0
122[matroska @ 0x8db9440] Writing block at offset 252892, size 560, pts 2240, dts 2240, duration 40, flags 0
123[matroska @ 0x8db9440] Writing block at offset 253459, size 509, pts 2280, dts 2280, duration 40, flags 0
124[matroska @ 0x8db9440] Writing block at offset 253975, size 491, pts 2320, dts 2320, duration 40, flags 0
125[matroska @ 0x8db9440] Writing block at offset 254473, size 697, pts 2360, dts 2360, duration 40, flags 0
126[matroska @ 0x8db9440] Starting new cluster at offset 255177 bytes, pts 2400
127[matroska @ 0x8db9440] Writing block at offset 255193, size 7625, pts 2400, dts 2400, duration 40, flags 128
128[matroska @ 0x8db9440] Writing block at offset 262825, size 913, pts 2440, dts 2440, duration 40, flags 0
129[matroska @ 0x8db9440] Writing block at offset 263745, size 579, pts 2480, dts 2480, duration 40, flags 0
130[matroska @ 0x8db9440] Writing block at offset 264331, size 616, pts 2520, dts 2520, duration 40, flags 0
131[matroska @ 0x8db9440] Writing block at offset 264954, size 719, pts 2560, dts 2560, duration 40, flags 0
132[matroska @ 0x8db9440] Writing block at offset 265680, size 847, pts 2600, dts 2600, duration 40, flags 0
133[matroska @ 0x8db9440] Writing block at offset 266534, size 764, pts 2640, dts 2640, duration 40, flags 0
134[matroska @ 0x8db9440] Writing block at offset 267305, size 652, pts 2680, dts 2680, duration 40, flags 0
135[matroska @ 0x8db9440] Writing block at offset 267964, size 656, pts 2720, dts 2720, duration 40, flags 0
136[matroska @ 0x8db9440] Writing block at offset 268627, size 684, pts 2760, dts 2760, duration 40, flags 0
137[matroska @ 0x8db9440] Writing block at offset 269318, size 706, pts 2800, dts 2800, duration 40, flags 0
138[matroska @ 0x8db9440] Writing block at offset 270031, size 638, pts 2840, dts 2840, duration 40, flags 0
139[matroska @ 0x8db9440] Starting new cluster at offset 270676 bytes, pts 2880
140[matroska @ 0x8db9440] Writing block at offset 270692, size 7243, pts 2880, dts 2880, duration 40, flags 128
141[matroska @ 0x8db9440] Writing block at offset 277942, size 851, pts 2920, dts 2920, duration 40, flags 0
142[matroska @ 0x8db9440] Writing block at offset 278800, size 695, pts 2960, dts 2960, duration 40, flags 0
143[matroska @ 0x8db9440] Writing block at offset 279502, size 550, pts 3000, dts 3000, duration 40, flags 0
144[matroska @ 0x8db9440] Writing block at offset 280059, size 575, pts 3040, dts 3040, duration 40, flags 0
145[matroska @ 0x8db9440] Writing block at offset 280641, size 580, pts 3080, dts 3080, duration 40, flags 0
146[matroska @ 0x8db9440] Writing block at offset 281228, size 642, pts 3120, dts 3120, duration 40, flags 0
147[matroska @ 0x8db9440] Writing block at offset 281877, size 690, pts 3160, dts 3160, duration 40, flags 0
148[matroska @ 0x8db9440] Writing block at offset 282574, size 637, pts 3200, dts 3200, duration 40, flags 0
149[matroska @ 0x8db9440] Writing block at offset 283218, size 754, pts 3240, dts 3240, duration 40, flags 0
150[matroska @ 0x8db9440] Writing block at offset 283979, size 660, pts 3280, dts 3280, duration 40, flags 0
151[matroska @ 0x8db9440] Writing block at offset 284646, size 540, pts 3320, dts 3320, duration 40, flags 0
152[matroska @ 0x8db9440] Starting new cluster at offset 285193 bytes, pts 3360
153[matroska @ 0x8db9440] Writing block at offset 285209, size 7287, pts 3360, dts 3360, duration 40, flags 128
154[matroska @ 0x8db9440] Writing block at offset 292503, size 861, pts 3400, dts 3400, duration 40, flags 0
155[matroska @ 0x8db9440] Writing block at offset 293371, size 606, pts 3440, dts 3440, duration 40, flags 0
156[matroska @ 0x8db9440] Writing block at offset 293984, size 598, pts 3480, dts 3480, duration 40, flags 0
157[matroska @ 0x8db9440] Writing block at offset 294589, size 763, pts 3520, dts 3520, duration 40, flags 0
158[matroska @ 0x8db9440] Writing block at offset 295359, size 693, pts 3560, dts 3560, duration 40, flags 0
159[matroska @ 0x8db9440] Writing block at offset 296059, size 582, pts 3600, dts 3600, duration 40, flags 0
160[matroska @ 0x8db9440] Writing block at offset 296648, size 508, pts 3640, dts 3640, duration 40, flags 0
161[matroska @ 0x8db9440] Writing block at offset 297163, size 641, pts 3680, dts 3680, duration 40, flags 0
162[matroska @ 0x8db9440] Writing block at offset 297811, size 665, pts 3720, dts 3720, duration 40, flags 0
163[matroska @ 0x8db9440] Writing block at offset 298483, size 542, pts 3760, dts 3760, duration 40, flags 0
164[matroska @ 0x8db9440] Writing block at offset 299032, size 493, pts 3800, dts 3800, duration 40, flags 0
165[matroska @ 0x8db9440] Starting new cluster at offset 299532 bytes, pts 3840
166[matroska @ 0x8db9440] Writing block at offset 299548, size 7497, pts 3840, dts 3840, duration 40, flags 128
167[matroska @ 0x8db9440] Writing block at offset 307052, size 903, pts 3880, dts 3880, duration 40, flags 0
168[matroska @ 0x8db9440] Writing block at offset 307962, size 499, pts 3920, dts 3920, duration 40, flags 0
169[matroska @ 0x8db9440] Writing block at offset 308468, size 498, pts 3960, dts 3960, duration 40, flags 0
170[matroska @ 0x8db9440] Writing block at offset 308973, size 519, pts 4000, dts 4000, duration 40, flags 0
171[matroska @ 0x8db9440] Writing block at offset 309499, size 522, pts 4040, dts 4040, duration 40, flags 0
172[matroska @ 0x8db9440] Writing block at offset 310028, size 649, pts 4080, dts 4080, duration 40, flags 0
173[matroska @ 0x8db9440] Writing block at offset 310684, size 579, pts 4120, dts 4120, duration 40, flags 0
174[matroska @ 0x8db9440] Writing block at offset 311270, size 566, pts 4160, dts 4160, duration 40, flags 0
175[matroska @ 0x8db9440] Writing block at offset 311843, size 515, pts 4200, dts 4200, duration 40, flags 0
176[matroska @ 0x8db9440] Writing block at offset 312365, size 660, pts 4240, dts 4240, duration 40, flags 0
177Writing block at offset 313032, size 534, pts 4280, dts 4280, duration 40, flags 0   
178[matroska @ 0x8db9440] Starting new cluster at offset 313573 bytes, pts 4320
179[matroska @ 0x8db9440] Writing block at offset 313589, size 7729, pts 4320, dts 4320, duration 40, flags 128
180[matroska @ 0x8db9440] Writing block at offset 321325, size 810, pts 4360, dts 4360, duration 40, flags 0
181[matroska @ 0x8db9440] Writing block at offset 322142, size 429, pts 4400, dts 4400, duration 40, flags 0
182[matroska @ 0x8db9440] Writing block at offset 322578, size 598, pts 4440, dts 4440, duration 40, flags 0
183[matroska @ 0x8db9440] Writing block at offset 323183, size 561, pts 4480, dts 4480, duration 40, flags 0
184[matroska @ 0x8db9440] Writing block at offset 323751, size 608, pts 4520, dts 4520, duration 40, flags 0
185[matroska @ 0x8db9440] Writing block at offset 324366, size 459, pts 4560, dts 4560, duration 40, flags 0
186[matroska @ 0x8db9440] Writing block at offset 324832, size 533, pts 4600, dts 4600, duration 40, flags 0
187[matroska @ 0x8db9440] Writing block at offset 325372, size 603, pts 4640, dts 4640, duration 40, flags 0
188[matroska @ 0x8db9440] Writing block at offset 325982, size 583, pts 4680, dts 4680, duration 40, flags 0
189[matroska @ 0x8db9440] Writing block at offset 326572, size 661, pts 4720, dts 4720, duration 40, flags 0
190[matroska @ 0x8db9440] Writing block at offset 327240, size 638, pts 4760, dts 4760, duration 40, flags 0
191[matroska @ 0x8db9440] Starting new cluster at offset 327885 bytes, pts 4800
192[matroska @ 0x8db9440] Writing block at offset 327901, size 7205, pts 4800, dts 4800, duration 40, flags 128
193[matroska @ 0x8db9440] Writing block at offset 335113, size 859, pts 4840, dts 4840, duration 40, flags 0
194[matroska @ 0x8db9440] Writing block at offset 335979, size 581, pts 4880, dts 4880, duration 40, flags 0
195[matroska @ 0x8db9440] Writing block at offset 336567, size 666, pts 4920, dts 4920, duration 40, flags 0
196[matroska @ 0x8db9440] Writing block at offset 337240, size 669, pts 4960, dts 4960, duration 40, flags 0
197[matroska @ 0x8db9440] Writing block at offset 337916, size 564, pts 5000, dts 5000, duration 40, flags 0
198[matroska @ 0x8db9440] Writing block at offset 338487, size 655, pts 5040, dts 5040, duration 40, flags 0
199[matroska @ 0x8db9440] Writing block at offset 339149, size 676, pts 5080, dts 5080, duration 40, flags 0
200[matroska @ 0x8db9440] Writing block at offset 339832, size 688, pts 5120, dts 5120, duration 40, flags 0
201[matroska @ 0x8db9440] Writing block at offset 340527, size 737, pts 5160, dts 5160, duration 40, flags 0
202[matroska @ 0x8db9440] Writing block at offset 341271, size 871, pts 5200, dts 5200, duration 40, flags 0
203[matroska @ 0x8db9440] Writing block at offset 342149, size 736, pts 5240, dts 5240, duration 40, flags 0
204[matroska @ 0x8db9440] Starting new cluster at offset 342892 bytes, pts 5280
205[matroska @ 0x8db9440] Writing block at offset 342908, size 7314, pts 5280, dts 5280, duration 40, flags 128
206[matroska @ 0x8db9440] Writing block at offset 350229, size 1030, pts 5320, dts 5320, duration 40, flags 0
207[matroska @ 0x8db9440] Writing block at offset 351266, size 651, pts 5360, dts 5360, duration 40, flags 0
208[matroska @ 0x8db9440] Writing block at offset 351924, size 767, pts 5400, dts 5400, duration 40, flags 0
209[matroska @ 0x8db9440] Writing block at offset 352698, size 864, pts 5440, dts 5440, duration 40, flags 0
210[matroska @ 0x8db9440] Writing block at offset 353569, size 722, pts 5480, dts 5480, duration 40, flags 0
211[matroska @ 0x8db9440] Writing block at offset 354298, size 787, pts 5520, dts 5520, duration 40, flags 0
212[matroska @ 0x8db9440] Writing block at offset 355092, size 883, pts 5560, dts 5560, duration 40, flags 0
213[matroska @ 0x8db9440] Writing block at offset 355982, size 844, pts 5600, dts 5600, duration 40, flags 0
214[matroska @ 0x8db9440] Writing block at offset 356833, size 831, pts 5640, dts 5640, duration 40, flags 0
215[matroska @ 0x8db9440] Writing block at offset 357671, size 760, pts 5680, dts 5680, duration 40, flags 0
216[matroska @ 0x8db9440] Writing block at offset 358438, size 749, pts 5720, dts 5720, duration 40, flags 0
217[matroska @ 0x8db9440] Starting new cluster at offset 359194 bytes, pts 5760
218[matroska @ 0x8db9440] Writing block at offset 359210, size 6679, pts 5760, dts 5760, duration 40, flags 128
219[matroska @ 0x8db9440] Writing block at offset 365896, size 843, pts 5800, dts 5800, duration 40, flags 0
220[matroska @ 0x8db9440] Writing block at offset 366746, size 574, pts 5840, dts 5840, duration 40, flags 0
221[matroska @ 0x8db9440] Writing block at offset 367327, size 685, pts 5880, dts 5880, duration 40, flags 0
222[matroska @ 0x8db9440] Writing block at offset 368019, size 528, pts 5920, dts 5920, duration 40, flags 0
223[matroska @ 0x8db9440] Writing block at offset 368554, size 520, pts 5960, dts 5960, duration 40, flags 0
224[matroska @ 0x8db9440] Writing block at offset 369081, size 511, pts 6000, dts 6000, duration 40, flags 0
225[matroska @ 0x8db9440] Writing block at offset 369599, size 627, pts 6040, dts 6040, duration 40, flags 0
226[matroska @ 0x8db9440] Writing block at offset 370233, size 507, pts 6080, dts 6080, duration 40, flags 0
227[matroska @ 0x8db9440] Writing block at offset 370747, size 477, pts 6120, dts 6120, duration 40, flags 0
228[matroska @ 0x8db9440] Writing block at offset 371231, size 620, pts 6160, dts 6160, duration 40, flags 0
229[matroska @ 0x8db9440] Writing block at offset 371858, size 611, pts 6200, dts 6200, duration 40, flags 0
230[matroska @ 0x8db9440] Starting new cluster at offset 372476 bytes, pts 6240
231[matroska @ 0x8db9440] Writing block at offset 372492, size 7376, pts 6240, dts 6240, duration 40, flags 128
232[matroska @ 0x8db9440] Writing block at offset 379875, size 1054, pts 6280, dts 6280, duration 40, flags 0
233[matroska @ 0x8db9440] Writing block at offset 380936, size 827, pts 6320, dts 6320, duration 40, flags 0
234[matroska @ 0x8db9440] Writing block at offset 381770, size 844, pts 6360, dts 6360, duration 40, flags 0
235[matroska @ 0x8db9440] Writing block at offset 382621, size 648, pts 6400, dts 6400, duration 40, flags 0
236[matroska @ 0x8db9440] Writing block at offset 383276, size 550, pts 6440, dts 6440, duration 40, flags 0
237[matroska @ 0x8db9440] Writing block at offset 383833, size 599, pts 6480, dts 6480, duration 40, flags 0
238[matroska @ 0x8db9440] Writing block at offset 384439, size 465, pts 6520, dts 6520, duration 40, flags 0
239[matroska @ 0x8db9440] Writing block at offset 384911, size 568, pts 6560, dts 6560, duration 40, flags 0
240[matroska @ 0x8db9440] Writing block at offset 385486, size 472, pts 6600, dts 6600, duration 40, flags 0
241[matroska @ 0x8db9440] Writing block at offset 385965, size 491, pts 6640, dts 6640, duration 40, flags 0
242[matroska @ 0x8db9440] Writing block at offset 386463, size 514, pts 6680, dts 6680, duration 40, flags 0
243[matroska @ 0x8db9440] Starting new cluster at offset 386984 bytes, pts 6720
244[matroska @ 0x8db9440] Writing block at offset 387000, size 7208, pts 6720, dts 6720, duration 40, flags 128
245[matroska @ 0x8db9440] Writing block at offset 394215, size 864, pts 6760, dts 6760, duration 40, flags 0
246[matroska @ 0x8db9440] Writing block at offset 395086, size 564, pts 6800, dts 6800, duration 40, flags 0
247[matroska @ 0x8db9440] Writing block at offset 395657, size 613, pts 6840, dts 6840, duration 40, flags 0
248[matroska @ 0x8db9440] Writing block at offset 396277, size 535, pts 6880, dts 6880, duration 40, flags 0
249[matroska @ 0x8db9440] Writing block at offset 396819, size 483, pts 6920, dts 6920, duration 40, flags 0
250[matroska @ 0x8db9440] Writing block at offset 397309, size 464, pts 6960, dts 6960, duration 40, flags 0
251[matroska @ 0x8db9440] Writing block at offset 397780, size 512, pts 7000, dts 7000, duration 40, flags 0
252[matroska @ 0x8db9440] Writing block at offset 398299, size 570, pts 7040, dts 7040, duration 40, flags 0
253[matroska @ 0x8db9440] Writing block at offset 398876, size 658, pts 7080, dts 7080, duration 40, flags 0
254[matroska @ 0x8db9440] Writing block at offset 399541, size 667, pts 7120, dts 7120, duration 40, flags 0
255[matroska @ 0x8db9440] Writing block at offset 400215, size 690, pts 7160, dts 7160, duration 40, flags 0
256[matroska @ 0x8db9440] Starting new cluster at offset 400912 bytes, pts 7200
257[matroska @ 0x8db9440] Writing block at offset 400928, size 7488, pts 7200, dts 7200, duration 40, flags 128
258[matroska @ 0x8db9440] Writing block at offset 408423, size 987, pts 7240, dts 7240, duration 40, flags 0
259[matroska @ 0x8db9440] Writing block at offset 409417, size 756, pts 7280, dts 7280, duration 40, flags 0
260[matroska @ 0x8db9440] Writing block at offset 410180, size 618, pts 7320, dts 7320, duration 40, flags 0
261[matroska @ 0x8db9440] Writing block at offset 410805, size 747, pts 7360, dts 7360, duration 40, flags 0
262[matroska @ 0x8db9440] Writing block at offset 411559, size 806, pts 7400, dts 7400, duration 40, flags 0
263[matroska @ 0x8db9440] Writing block at offset 412372, size 763, pts 7440, dts 7440, duration 40, flags 0
264[matroska @ 0x8db9440] Writing block at offset 413142, size 648, pts 7480, dts 7480, duration 40, flags 0
265[matroska @ 0x8db9440] Writing block at offset 413797, size 716, pts 7520, dts 7520, duration 40, flags 0
266[matroska @ 0x8db9440] Writing block at offset 414520, size 791, pts 7560, dts 7560, duration 40, flags 0
267[matroska @ 0x8db9440] Writing block at offset 415318, size 768, pts 7600, dts 7600, duration 40, flags 0
268[matroska @ 0x8db9440] Writing block at offset 416093, size 760, pts 7640, dts 7640, duration 40, flags 0
269[matroska @ 0x8db9440] Starting new cluster at offset 416860 bytes, pts 7680
270[matroska @ 0x8db9440] Writing block at offset 416876, size 7459, pts 7680, dts 7680, duration 40, flags 128
271[matroska @ 0x8db9440] Writing block at offset 424342, size 785, pts 7720, dts 7720, duration 40, flags 0
272[matroska @ 0x8db9440] Writing block at offset 425134, size 587, pts 7760, dts 7760, duration 40, flags 0
273[matroska @ 0x8db9440] Writing block at offset 425728, size 604, pts 7800, dts 7800, duration 40, flags 0
274[matroska @ 0x8db9440] Writing block at offset 426339, size 704, pts 7840, dts 7840, duration 40, flags 0
275[matroska @ 0x8db9440] Writing block at offset 427050, size 913, pts 7880, dts 7880, duration 40, flags 0
276[matroska @ 0x8db9440] Writing block at offset 427970, size 1074, pts 7920, dts 7920, duration 40, flags 0
277[matroska @ 0x8db9440] Writing block at offset 429051, size 1098, pts 7960, dts 7960, duration 40, flags 0
278[matroska @ 0x8db9440] Writing block at offset 430156, size 1023, pts 8000, dts 8000, duration 40, flags 0
279[matroska @ 0x8db9440] Writing block at offset 431186, size 1262, pts 8040, dts 8040, duration 40, flags 0
280[matroska @ 0x8db9440] Writing block at offset 432455, size 1404, pts 8080, dts 8080, duration 40, flags 0
281[matroska @ 0x8db9440] Writing block at offset 433866, size 1184, pts 8120, dts 8120, duration 40, flags 0
282[matroska @ 0x8db9440] Starting new cluster at offset 435057 bytes, pts 8160
283[matroska @ 0x8db9440] Writing block at offset 435073, size 7466, pts 8160, dts 8160, duration 40, flags 128
284[matroska @ 0x8db9440] Writing block at offset 442546, size 1041, pts 8200, dts 8200, duration 40, flags 0
285[matroska @ 0x8db9440] Writing block at offset 443594, size 718, pts 8240, dts 8240, duration 40, flags 0
286[matroska @ 0x8db9440] Writing block at offset 444319, size 793, pts 8280, dts 8280, duration 40, flags 0
287[matroska @ 0x8db9440] Writing block at offset 445119, size 687, pts 8320, dts 8320, duration 40, flags 0
288[matroska @ 0x8db9440] Writing block at offset 445813, size 649, pts 8360, dts 8360, duration 40, flags 0
289[matroska @ 0x8db9440] Writing block at offset 446469, size 648, pts 8400, dts 8400, duration 40, flags 0
290[matroska @ 0x8db9440] Writing block at offset 447124, size 809, pts 8440, dts 8440, duration 40, flags 0
291[matroska @ 0x8db9440] Writing block at offset 447940, size 756, pts 8480, dts 8480, duration 40, flags 0
292[matroska @ 0x8db9440] Writing block at offset 448703, size 792, pts 8520, dts 8520, duration 40, flags 0
293[matroska @ 0x8db9440] Writing block at offset 449502, size 684, pts 8560, dts 8560, duration 40, flags 0
294[matroska @ 0x8db9440] Writing block at offset 450193, size 695, pts 8600, dts 8600, duration 40, flags 0
295[matroska @ 0x8db9440] Starting new cluster at offset 450895 bytes, pts 8640
296[matroska @ 0x8db9440] Writing block at offset 450911, size 7128, pts 8640, dts 8640, duration 40, flags 128
297[matroska @ 0x8db9440] Writing block at offset 458046, size 762, pts 8680, dts 8680, duration 40, flags 0
298[matroska @ 0x8db9440] Writing block at offset 458815, size 666, pts 8720, dts 8720, duration 40, flags 0
299[matroska @ 0x8db9440] Writing block at offset 459488, size 622, pts 8760, dts 8760, duration 40, flags 0
300[matroska @ 0x8db9440] Writing block at offset 460117, size 609, pts 8800, dts 8800, duration 40, flags 0
301[matroska @ 0x8db9440] Writing block at offset 460733, size 640, pts 8840, dts 8840, duration 40, flags 0
302[matroska @ 0x8db9440] Writing block at offset 461380, size 612, pts 8880, dts 8880, duration 40, flags 0
303[matroska @ 0x8db9440] Writing block at offset 461999, size 681, pts 8920, dts 8920, duration 40, flags 0
304[matroska @ 0x8db9440] Writing block at offset 462687, size 649, pts 8960, dts 8960, duration 40, flags 0
305[matroska @ 0x8db9440] Writing block at offset 463343, size 658, pts 9000, dts 9000, duration 40, flags 0
306Writing block at offset 464008, size 764, pts 9040, dts 9040, duration 40, flags 0   
307[matroska @ 0x8db9440] Writing block at offset 464779, size 584, pts 9080, dts 9080, duration 40, flags 0
308[matroska @ 0x8db9440] Starting new cluster at offset 465370 bytes, pts 9120
309[matroska @ 0x8db9440] Writing block at offset 465386, size 7355, pts 9120, dts 9120, duration 40, flags 128
310[matroska @ 0x8db9440] Writing block at offset 472748, size 849, pts 9160, dts 9160, duration 40, flags 0
311[matroska @ 0x8db9440] Writing block at offset 473604, size 576, pts 9200, dts 9200, duration 40, flags 0
312[matroska @ 0x8db9440] Writing block at offset 474187, size 673, pts 9240, dts 9240, duration 40, flags 0
313[matroska @ 0x8db9440] Writing block at offset 474867, size 565, pts 9280, dts 9280, duration 40, flags 0
314[matroska @ 0x8db9440] Writing block at offset 475439, size 575, pts 9320, dts 9320, duration 40, flags 0
315[matroska @ 0x8db9440] Writing block at offset 476021, size 581, pts 9360, dts 9360, duration 40, flags 0
316[matroska @ 0x8db9440] Writing block at offset 476609, size 576, pts 9400, dts 9400, duration 40, flags 0
317[matroska @ 0x8db9440] Writing block at offset 477192, size 491, pts 9440, dts 9440, duration 40, flags 0
318[matroska @ 0x8db9440] Writing block at offset 477690, size 501, pts 9480, dts 9480, duration 40, flags 0
319[matroska @ 0x8db9440] Writing block at offset 478198, size 504, pts 9520, dts 9520, duration 40, flags 0
320[matroska @ 0x8db9440] Writing block at offset 478709, size 529, pts 9560, dts 9560, duration 40, flags 0
321[matroska @ 0x8db9440] Starting new cluster at offset 479245 bytes, pts 9600
322[matroska @ 0x8db9440] Writing block at offset 479261, size 7047, pts 9600, dts 9600, duration 40, flags 128
323[matroska @ 0x8db9440] Writing block at offset 486315, size 857, pts 9640, dts 9640, duration 40, flags 0
324[matroska @ 0x8db9440] Writing block at offset 487179, size 522, pts 9680, dts 9680, duration 40, flags 0
325[matroska @ 0x8db9440] Writing block at offset 487708, size 514, pts 9720, dts 9720, duration 40, flags 0
326[matroska @ 0x8db9440] Writing block at offset 488229, size 608, pts 9760, dts 9760, duration 40, flags 0
327[matroska @ 0x8db9440] Writing block at offset 488844, size 477, pts 9800, dts 9800, duration 40, flags 0
328[matroska @ 0x8db9440] Writing block at offset 489328, size 491, pts 9840, dts 9840, duration 40, flags 0
329[matroska @ 0x8db9440] Writing block at offset 489826, size 431, pts 9880, dts 9880, duration 40, flags 0
330[matroska @ 0x8db9440] Writing block at offset 490264, size 475, pts 9920, dts 9920, duration 40, flags 0
331[matroska @ 0x8db9440] Writing block at offset 490746, size 503, pts 9960, dts 9960, duration 40, flags 0
332[matroska @ 0x8db9440] Writing block at offset 491256, size 471, pts 10000, dts 10000, duration 40, flags 0
333[matroska @ 0x8db9440] Writing block at offset 491734, size 540, pts 10040, dts 10040, duration 40, flags 0
334[matroska @ 0x8db9440] Starting new cluster at offset 492281 bytes, pts 10080
335[matroska @ 0x8db9440] Writing block at offset 492297, size 6964, pts 10080, dts 10080, duration 40, flags 128
336[matroska @ 0x8db9440] Writing block at offset 499268, size 745, pts 10120, dts 10120, duration 40, flags 0
337[matroska @ 0x8db9440] Writing block at offset 500020, size 620, pts 10160, dts 10160, duration 40, flags 0
338[matroska @ 0x8db9440] Writing block at offset 500647, size 753, pts 10200, dts 10200, duration 40, flags 0
339[matroska @ 0x8db9440] Writing block at offset 501407, size 633, pts 10240, dts 10240, duration 40, flags 0
340[matroska @ 0x8db9440] Writing block at offset 502047, size 699, pts 10280, dts 10280, duration 40, flags 0
341[output stream 0:0 @ 0x8dc8720] EOF on sink link output stream 0:0:default.
342[matroska @ 0x8db9440] Writing block at offset 502753, size 670, pts 10320, dts 10320, duration 40, flags 0
343[matroska @ 0x8db9440] Writing block at offset 503430, size 582, pts 10360, dts 10360, duration 40, flags 0
344No more output streams to write to, finishing.
345end duration = 10400
346frame=  260 fps=227 q=31.0 Lsize=     493kB time=00:00:10.40 bitrate= 388.0kbits/s   
347video:489kB audio:0kB subtitle:0 global headers:0kB muxing overhead 0.660786%
348Statistics: 7591620 bytes read, 2 seeks
349
350
351$ ffprobe out_mp4-mkv.mkv
352ffprobe version N-35930-g8ca8b43 Copyright (c) 2007-2012 the FFmpeg developers
353  built on Dec  7 2012 14:26:25 with gcc 4.6 (Ubuntu/Linaro 4.6.3-1ubuntu5)
354  configuration: --prefix=/usr/local/ --enable-shared --enable-avfilter --enable-libvorbis --enable-pthreads --enable-libvpx --enable-gpl --enable-pic
355  libavutil      52. 11.102 / 52. 11.102
356  libavcodec     54. 79.100 / 54. 79.100
357  libavformat    54. 47.100 / 54. 47.100
358  libavdevice    54.  3.102 / 54.  3.102
359  libavfilter     3. 25.101 /  3. 25.101
360  libswscale      2.  1.103 /  2.  1.103
361  libswresample   0. 17.102 /  0. 17.102
362  libpostproc    52.  2.100 / 52.  2.100
363Input #0, matroska,webm, from 'out_mp4-mkv.mkv':
364  Metadata:
365    MAJOR_BRAND     : isom
366    MINOR_VERSION   : 512
367    COMPATIBLE_BRANDS: isomiso2mp41
368    ENCODER         : Lavf54.47.100
369  Duration: 00:00:10.40, start: 0.000000, bitrate: 387 kb/s
370    Stream #0:0(und): Video: mpeg4 (Simple Profile), yuv420p, 720x576 [SAR 16:15 DAR 4:3], SAR 212:199 DAR 265:199, 25 fps, 25 tbr, 1k tbn, 25 tbc (default)
371    Metadata:
372      CREATION_TIME   : 1970-01-01 00:00:00
373      LANGUAGE        : und
374      HANDLER_NAME    : VideoHandler
375