Ticket #1975: ffmpeg-20121128-163042-yadif.log

File ffmpeg-20121128-163042-yadif.log, 58.1 KB (added by dpury, 4 years ago)

Here's the log of an interlaced HDV file source being converted to mp4

Line 
1ffmpeg started on 2012-11-28 at 16:30:42
2Report written to "ffmpeg-20121128-163042.log"
3Command line:
4ffmpeg -report -i "C:\\temp\\in\\162915.mov" -t 5 -vf "yadif=0" "C:\\temp\\in\\162915.mp4"
5ffmpeg version N-47062-g26c531c Copyright (c) 2000-2012 the FFmpeg developers
6  built on Nov 25 2012 12:25:21 with gcc 4.7.2 (GCC)
7  configuration: --enable-gpl --enable-version3 --disable-pthreads --enable-runtime-cpudetect --enable-avisynth --enable-bzlib --enable-frei0r --enable-libass --enable-libopencore-amrnb --enable-libopencore-amrwb --enable-libfreetype --enable-libgsm --enable-libmp3lame --enable-libnut --enable-libopenjpeg --enable-libopus --enable-librtmp --enable-libschroedinger --enable-libspeex --enable-libtheora --enable-libutvideo --enable-libvo-aacenc --enable-libvo-amrwbenc --enable-libvorbis --enable-libvpx --enable-libx264 --enable-libxavs --enable-libxvid --enable-zlib
8  libavutil      52.  9.100 / 52.  9.100
9  libavcodec     54. 77.100 / 54. 77.100
10  libavformat    54. 37.100 / 54. 37.100
11  libavdevice    54.  3.100 / 54.  3.100
12  libavfilter     3. 23.102 /  3. 23.102
13  libswscale      2.  1.102 /  2.  1.102
14  libswresample   0. 17.101 /  0. 17.101
15  libpostproc    52.  2.100 / 52.  2.100
16[mov,mp4,m4a,3gp,3g2,mj2 @ 0000000001f2ef80] Format mov,mp4,m4a,3gp,3g2,mj2 probed with size=2048 and score=100
17[mov,mp4,m4a,3gp,3g2,mj2 @ 0000000001f2ef80] ISO: File Type Major Brand: qt 
18[mov,mp4,m4a,3gp,3g2,mj2 @ 0000000001f2ef80] File position before avformat_find_stream_info() is 3544297
19[mov,mp4,m4a,3gp,3g2,mj2 @ 0000000001f2ef80] All info found
20[mov,mp4,m4a,3gp,3g2,mj2 @ 0000000001f2ef80] File position after avformat_find_stream_info() is 3842332
21Guessed Channel Layout for  Input Stream #0.0 : stereo
22Input #0, mov,mp4,m4a,3gp,3g2,mj2, from 'C:\temp\in\162915.mov':
23  Metadata:
24    major_brand     : qt 
25    minor_version   : 537199360
26    compatible_brands: qt 
27    creation_time   : 2012-10-20 13:19:33
28  Duration: 02:17:02.66, start: 0.000000, bitrate: 26410 kb/s
29    Stream #0:0(eng), 43, 1/44100: Audio: pcm_s16le (sowt / 0x74776F73), 44100 Hz, stereo, s16, 1411 kb/s
30    Metadata:
31      creation_time   : 2012-10-20 13:19:33
32      handler_name    : Apple Alias Data Handler
33    Stream #0:1(eng), 1, 1/2997: Video: mpeg2video (Main) (hdv2 / 0x32766468), yuv420p, 1440x1080 [SAR 4:3 DAR 16:9], 24995 kb/s, 29.97 fps, 29.97 tbr, 2997 tbn, 59.94 tbc
34    Metadata:
35      creation_time   : 2012-10-20 13:19:33
36      handler_name    : Apple Alias Data Handler
37[Parsed_yadif_0 @ 0000000001fc7680] mode:0 parity:-1 auto_enable:0
38[buffer @ 0000000001ff0ca0] Setting entry with key 'video_size' to value '1440x1080'
39[buffer @ 0000000001ff0ca0] Setting entry with key 'pix_fmt' to value '0'
40[buffer @ 0000000001ff0ca0] Setting entry with key 'time_base' to value '1/2997'
41[buffer @ 0000000001ff0ca0] Setting entry with key 'pixel_aspect' to value '4/3'
42[buffer @ 0000000001ff0ca0] Setting entry with key 'sws_param' to value 'flags=2'
43[buffer @ 0000000001ff0ca0] Setting entry with key 'frame_rate' to value '2997/100'
44[graph 0 input from stream 0:1 @ 0000000001fc77a0] w:1440 h:1080 pixfmt:yuv420p tb:1/2997 fr:2997/100 sar:4/3 sws_param:flags=2
45[abuffer @ 0000000001fb2d00] Setting entry with key 'time_base' to value '1/44100'
46[abuffer @ 0000000001fb2d00] Setting entry with key 'sample_rate' to value '44100'
47[abuffer @ 0000000001fb2d00] Setting entry with key 'sample_fmt' to value 's16'
48[abuffer @ 0000000001fb2d00] Setting entry with key 'channel_layout' to value '0x3'
49[graph 1 input from stream 0:0 @ 0000000001fc79e0] tb:1/44100 samplefmt:s16 samplerate:44100 chlayout:0x3
50[aformat @ 0000000001f9b8e0] Setting entry with key 'sample_fmts' to value 's16'
51[aformat @ 0000000001f9b8e0] Setting entry with key 'sample_rates' to value '96000,88200,64000,48000,44100,32000,24000,22050,16000,12000,11025,8000,7350'
52[libx264 @ 0000000001feea00] using mv_range_thread = 40
53[libx264 @ 0000000001feea00] using SAR=4/3
54[libx264 @ 0000000001feea00] using cpu capabilities: MMX2 SSE2Fast SSSE3 FastShuffle SSE4.2
55[libx264 @ 0000000001feea00] profile High, level 4.0
56[libx264 @ 0000000001feea00] 264 - core 128 r2216 198a7ea - H.264/MPEG-4 AVC codec - Copyleft 2003-2012 - http://www.videolan.org/x264.html - options: cabac=1 ref=3 deblock=1:0:0 analyse=0x3:0x113 me=hex subme=7 psy=1 psy_rd=1.00:0.00 mixed_ref=1 me_range=16 chroma_me=1 trellis=1 8x8dct=1 cqm=0 deadzone=21,11 fast_pskip=1 chroma_qp_offset=-2 threads=12 lookahead_threads=2 sliced_threads=0 nr=0 decimate=1 interlaced=0 bluray_compat=0 constrained_intra=0 bframes=3 b_pyramid=2 b_adapt=1 b_bias=0 direct=1 weightb=1 open_gop=0 weightp=2 keyint=250 keyint_min=25 scenecut=40 intra_refresh=0 rc_lookahead=40 rc=crf mbtree=1 crf=23.0 qcomp=0.60 qpmin=0 qpmax=69 qpstep=4 ip_ratio=1.40 aq=1:1.00
57[mpeg2video @ 0000000001fa0ce0] detected 8 logical cores
58Output #0, mp4, to 'C:\temp\in\162915.mp4':
59  Metadata:
60    major_brand     : qt 
61    minor_version   : 537199360
62    compatible_brands: qt 
63    encoder         : Lavf54.37.100
64    Stream #0:0(eng), 0, 1/11988: Video: h264 ([33][0][0][0] / 0x0021), yuv420p, 1440x1080 [SAR 4:3 DAR 16:9], q=-1--1, 11988 tbn, 29.97 tbc
65    Metadata:
66      creation_time   : 2012-10-20 13:19:33
67      handler_name    : Apple Alias Data Handler
68    Stream #0:1(eng), 0, 1/44100: Audio: aac ([64][0][0][0] / 0x0040), 44100 Hz, stereo, s16, 128 kb/s
69    Metadata:
70      creation_time   : 2012-10-20 13:19:33
71      handler_name    : Apple Alias Data Handler
72Stream mapping:
73  Stream #0:1 -> #0:0 (mpeg2video -> libx264)
74  Stream #0:0 -> #0:1 (pcm_s16le -> libvo_aacenc)
75Press [q] to stop, [?] for help
76[mpeg2video @ 0000000001fa0ce0] warning: first frame is no keyframe
77DTS 46134, next:1046121 st:0 invalid dropping
78PTS 46134, next:1046121 invalid dropping st:0
79DTS 200, next:66734 st:1 invalid dropping
80PTS 500, next:66734 invalid dropping st:1
81DTS 47158, next:1069340 st:0 invalid dropping
82PTS 47158, next:1069340 invalid dropping st:0
83DTS 48182, next:1092559 st:0 invalid dropping
84PTS 48182, next:1092559 invalid dropping st:0
85DTS 300, next:100101 st:1 invalid dropping
86PTS 300, next:100101 invalid dropping st:1
87DTS 49206, next:1115778 st:0 invalid dropping
88PTS 49206, next:1115778 invalid dropping st:0
89DTS 400, next:133468 st:1 invalid dropping
90PTS 400, next:133468 invalid dropping st:1
91DTS 50230, next:1138997 st:0 invalid dropping
92PTS 50230, next:1138997 invalid dropping st:0
93DTS 51254, next:1162216 st:0 invalid dropping
94PTS 51254, next:1162216 invalid dropping st:0
95DTS 500, next:166835 st:1 invalid dropping
96PTS 800, next:166835 invalid dropping st:1
97DTS 52278, next:1185435 st:0 invalid dropping
98PTS 52278, next:1185435 invalid dropping st:0
99DTS 600, next:200202 st:1 invalid dropping
100PTS 600, next:200202 invalid dropping st:1
101DTS 53302, next:1208654 st:0 invalid dropping
102PTS 53302, next:1208654 invalid dropping st:0
103DTS 54326, next:1231873 st:0 invalid dropping
104PTS 54326, next:1231873 invalid dropping st:0
105DTS 700, next:233569 st:1 invalid dropping
106PTS 700, next:233569 invalid dropping st:1
107DTS 55350, next:1255092 st:0 invalid dropping
108PTS 55350, next:1255092 invalid dropping st:0
109DTS 800, next:266936 st:1 invalid dropping
110PTS 1100, next:266936 invalid dropping st:1
111DTS 56374, next:1278311 st:0 invalid dropping
112PTS 56374, next:1278311 invalid dropping st:0
113DTS 900, next:300303 st:1 invalid dropping
114PTS 900, next:300303 invalid dropping st:1
115DTS 57398, next:1301530 st:0 invalid dropping
116PTS 57398, next:1301530 invalid dropping st:0
117DTS 58422, next:1324749 st:0 invalid dropping
118PTS 58422, next:1324749 invalid dropping st:0
119DTS 1000, next:333670 st:1 invalid dropping
120PTS 1000, next:333670 invalid dropping st:1
121DTS 59446, next:1347968 st:0 invalid dropping
122PTS 59446, next:1347968 invalid dropping st:0
123DTS 1100, next:367037 st:1 invalid dropping
124PTS 1400, next:367037 invalid dropping st:1
125DTS 60470, next:1371187 st:0 invalid dropping
126PTS 60470, next:1371187 invalid dropping st:0
127DTS 61494, next:1394406 st:0 invalid dropping
128PTS 61494, next:1394406 invalid dropping st:0
129DTS 1200, next:400404 st:1 invalid dropping
130PTS 1200, next:400404 invalid dropping st:1
131DTS 62518, next:1417625 st:0 invalid dropping
132PTS 62518, next:1417625 invalid dropping st:0
133DTS 1300, next:433771 st:1 invalid dropping
134PTS 1300, next:433771 invalid dropping st:1
135DTS 63542, next:1440844 st:0 invalid dropping
136PTS 63542, next:1440844 invalid dropping st:0
137DTS 64566, next:1464063 st:0 invalid dropping
138PTS 64566, next:1464063 invalid dropping st:0
139DTS 1400, next:467138 st:1 invalid dropping
140PTS 1700, next:467138 invalid dropping st:1
141DTS 65590, next:1487282 st:0 invalid dropping
142PTS 65590, next:1487282 invalid dropping st:0
143DTS 66128, next:1499481 st:0 invalid dropping
144PTS 66128, next:1499481 invalid dropping st:0
145DTS 1500, next:500505 st:1 invalid dropping
146PTS 1500, next:500505 invalid dropping st:1
147DTS 67152, next:1522700 st:0 invalid dropping
148PTS 67152, next:1522700 invalid dropping st:0
149DTS 1600, next:533872 st:1 invalid dropping
150PTS 1600, next:533872 invalid dropping st:1
151DTS 68176, next:1545919 st:0 invalid dropping
152PTS 68176, next:1545919 invalid dropping st:0
153DTS 1700, next:567239 st:1 invalid dropping
154PTS 2000, next:567239 invalid dropping st:1
155DTS 69200, next:1569138 st:0 invalid dropping
156PTS 69200, next:1569138 invalid dropping st:0
157DTS 70224, next:1592357 st:0 invalid dropping
158PTS 70224, next:1592357 invalid dropping st:0
159DTS 1800, next:600606 st:1 invalid dropping
160PTS 1800, next:600606 invalid dropping st:1
161DTS 71248, next:1615576 st:0 invalid dropping
162PTS 71248, next:1615576 invalid dropping st:0
163DTS 1900, next:633973 st:1 invalid dropping
164PTS 1900, next:633973 invalid dropping st:1
165DTS 72272, next:1638795 st:0 invalid dropping
166PTS 72272, next:1638795 invalid dropping st:0
167DTS 73296, next:1662014 st:0 invalid dropping
168PTS 73296, next:1662014 invalid dropping st:0
169DTS 2000, next:667340 st:1 invalid dropping
170PTS 2300, next:667340 invalid dropping st:1
171DTS 74320, next:1685233 st:0 invalid dropping
172PTS 74320, next:1685233 invalid dropping st:0
173DTS 2100, next:700707 st:1 invalid dropping
174PTS 2100, next:700707 invalid dropping st:1
175DTS 75344, next:1708452 st:0 invalid dropping
176PTS 75344, next:1708452 invalid dropping st:0
177DTS 76368, next:1731671 st:0 invalid dropping
178PTS 76368, next:1731671 invalid dropping st:0
179DTS 2200, next:734074 st:1 invalid dropping
180PTS 2200, next:734074 invalid dropping st:1
181DTS 77392, next:1754890 st:0 invalid dropping
182PTS 77392, next:1754890 invalid dropping st:0
183DTS 2300, next:767441 st:1 invalid dropping
184PTS 2600, next:767441 invalid dropping st:1
185DTS 78416, next:1778109 st:0 invalid dropping
186PTS 78416, next:1778109 invalid dropping st:0
187DTS 2400, next:800808 st:1 invalid dropping
188PTS 2400, next:800808 invalid dropping st:1
189DTS 79440, next:1801328 st:0 invalid dropping
190PTS 79440, next:1801328 invalid dropping st:0
191DTS 80464, next:1824547 st:0 invalid dropping
192PTS 80464, next:1824547 invalid dropping st:0
193DTS 2500, next:834175 st:1 invalid dropping
194PTS 2500, next:834175 invalid dropping st:1
195DTS 81488, next:1847766 st:0 invalid dropping
196PTS 81488, next:1847766 invalid dropping st:0
197DTS 2600, next:867542 st:1 invalid dropping
198PTS 2900, next:867542 invalid dropping st:1
199DTS 82512, next:1870985 st:0 invalid dropping
200PTS 82512, next:1870985 invalid dropping st:0
201DTS 83536, next:1894204 st:0 invalid dropping
202PTS 83536, next:1894204 invalid dropping st:0
203DTS 2700, next:900909 st:1 invalid dropping
204PTS 2700, next:900909 invalid dropping st:1
205DTS 84560, next:1917423 st:0 invalid dropping
206PTS 84560, next:1917423 invalid dropping st:0
207DTS 2800, next:934276 st:1 invalid dropping
208PTS 2800, next:934276 invalid dropping st:1
209DTS 85584, next:1940642 st:0 invalid dropping
210PTS 85584, next:1940642 invalid dropping st:0
211DTS 86608, next:1963861 st:0 invalid dropping
212PTS 86608, next:1963861 invalid dropping st:0
213DTS 2900, next:967643 st:1 invalid dropping
214PTS 3200, next:967643 invalid dropping st:1
215DTS 87632, next:1987080 st:0 invalid dropping
216PTS 87632, next:1987080 invalid dropping st:0
217DTS 88171, next:1999302 st:0 invalid dropping
218PTS 88171, next:1999302 invalid dropping st:0
219DTS 3000, next:1001010 st:1 invalid dropping
220PTS 3000, next:1001010 invalid dropping st:1
221DTS 89195, next:2022521 st:0 invalid dropping
222PTS 89195, next:2022521 invalid dropping st:0
223DTS 3100, next:1034377 st:1 invalid dropping
224PTS 3100, next:1034377 invalid dropping st:1
225DTS 90219, next:2045740 st:0 invalid dropping
226PTS 90219, next:2045740 invalid dropping st:0
227DTS 3200, next:1067744 st:1 invalid dropping
228PTS 3500, next:1067744 invalid dropping st:1
229DTS 91243, next:2068959 st:0 invalid dropping
230PTS 91243, next:2068959 invalid dropping st:0
231DTS 92267, next:2092178 st:0 invalid dropping
232PTS 92267, next:2092178 invalid dropping st:0
233DTS 3300, next:1101111 st:1 invalid dropping
234PTS 3300, next:1101111 invalid dropping st:1
235DTS 93291, next:2115397 st:0 invalid dropping
236PTS 93291, next:2115397 invalid dropping st:0
237DTS 3400, next:1134478 st:1 invalid dropping
238PTS 3400, next:1134478 invalid dropping st:1
239DTS 94315, next:2138616 st:0 invalid dropping
240PTS 94315, next:2138616 invalid dropping st:0
241DTS 95339, next:2161835 st:0 invalid dropping
242PTS 95339, next:2161835 invalid dropping st:0
243DTS 3500, next:1167845 st:1 invalid dropping
244PTS 3800, next:1167845 invalid dropping st:1
245DTS 96363, next:2185054 st:0 invalid dropping
246PTS 96363, next:2185054 invalid dropping st:0
247DTS 3600, next:1201212 st:1 invalid dropping
248PTS 3600, next:1201212 invalid dropping st:1
249DTS 97387, next:2208273 st:0 invalid dropping
250PTS 97387, next:2208273 invalid dropping st:0
251DTS 98411, next:2231492 st:0 invalid dropping
252PTS 98411, next:2231492 invalid dropping st:0
253DTS 3700, next:1234579 st:1 invalid dropping
254PTS 3700, next:1234579 invalid dropping st:1
255DTS 99435, next:2254711 st:0 invalid dropping
256PTS 99435, next:2254711 invalid dropping st:0
257DTS 3800, next:1267946 st:1 invalid dropping
258PTS 4100, next:1267946 invalid dropping st:1
259DTS 100459, next:2277930 st:0 invalid dropping
260PTS 100459, next:2277930 invalid dropping st:0
261DTS 101483, next:2301149 st:0 invalid dropping
262PTS 101483, next:2301149 invalid dropping st:0
263DTS 3900, next:1301313 st:1 invalid dropping
264PTS 3900, next:1301313 invalid dropping st:1
265DTS 102507, next:2324368 st:0 invalid dropping
266PTS 102507, next:2324368 invalid dropping st:0
267DTS 4000, next:1334680 st:1 invalid dropping
268PTS 4000, next:1334680 invalid dropping st:1
269DTS 103531, next:2347587 st:0 invalid dropping
270PTS 103531, next:2347587 invalid dropping st:0
271DTS 4100, next:1368047 st:1 invalid dropping
272PTS 4400, next:1368047 invalid dropping st:1
273DTS 104555, next:2370806 st:0 invalid dropping
274PTS 104555, next:2370806 invalid dropping st:0
275DTS 105579, next:2394025 st:0 invalid dropping
276PTS 105579, next:2394025 invalid dropping st:0
277DTS 4200, next:1401414 st:1 invalid dropping
278PTS 4200, next:1401414 invalid dropping st:1
279DTS 106603, next:2417244 st:0 invalid dropping
280PTS 106603, next:2417244 invalid dropping st:0
281DTS 4300, next:1434781 st:1 invalid dropping
282PTS 4300, next:1434781 invalid dropping st:1
283DTS 107627, next:2440463 st:0 invalid dropping
284PTS 107627, next:2440463 invalid dropping st:0
285frame=   43 fps=0.0 q=0.0 size=       0kB time=00:00:02.42 bitrate=   0.2kbits/s   
286DTS 108651, next:2463682 st:0 invalid dropping
287PTS 108651, next:2463682 invalid dropping st:0
288DTS 4400, next:1468148 st:1 invalid dropping
289PTS 4700, next:1468148 invalid dropping st:1
290DTS 109675, next:2486901 st:0 invalid dropping
291PTS 109675, next:2486901 invalid dropping st:0
292DTS 110214, next:2499123 st:0 invalid dropping
293PTS 110214, next:2499123 invalid dropping st:0
294DTS 4500, next:1501515 st:1 invalid dropping
295PTS 4500, next:1501515 invalid dropping st:1
296DTS 111238, next:2522342 st:0 invalid dropping
297PTS 111238, next:2522342 invalid dropping st:0
298DTS 4600, next:1534882 st:1 invalid dropping
299PTS 4600, next:1534882 invalid dropping st:1
300DTS 112262, next:2545561 st:0 invalid dropping
301PTS 112262, next:2545561 invalid dropping st:0
302DTS 4700, next:1568249 st:1 invalid dropping
303PTS 5000, next:1568249 invalid dropping st:1
304DTS 113286, next:2568780 st:0 invalid dropping
305PTS 113286, next:2568780 invalid dropping st:0
306DTS 114310, next:2591999 st:0 invalid dropping
307PTS 114310, next:2591999 invalid dropping st:0
308DTS 4800, next:1601616 st:1 invalid dropping
309PTS 4800, next:1601616 invalid dropping st:1
310DTS 115334, next:2615218 st:0 invalid dropping
311PTS 115334, next:2615218 invalid dropping st:0
312DTS 4900, next:1634983 st:1 invalid dropping
313PTS 4900, next:1634983 invalid dropping st:1
314DTS 116358, next:2638437 st:0 invalid dropping
315PTS 116358, next:2638437 invalid dropping st:0
316DTS 117382, next:2661656 st:0 invalid dropping
317PTS 117382, next:2661656 invalid dropping st:0
318DTS 5000, next:1668350 st:1 invalid dropping
319PTS 5300, next:1668350 invalid dropping st:1
320DTS 118406, next:2684875 st:0 invalid dropping
321PTS 118406, next:2684875 invalid dropping st:0
322DTS 5100, next:1701717 st:1 invalid dropping
323PTS 5100, next:1701717 invalid dropping st:1
324DTS 119430, next:2708094 st:0 invalid dropping
325PTS 119430, next:2708094 invalid dropping st:0
326DTS 120454, next:2731313 st:0 invalid dropping
327PTS 120454, next:2731313 invalid dropping st:0
328DTS 5200, next:1735084 st:1 invalid dropping
329PTS 5200, next:1735084 invalid dropping st:1
330DTS 121478, next:2754532 st:0 invalid dropping
331PTS 121478, next:2754532 invalid dropping st:0
332DTS 5300, next:1768451 st:1 invalid dropping
333PTS 5600, next:1768451 invalid dropping st:1
334DTS 122502, next:2777751 st:0 invalid dropping
335PTS 122502, next:2777751 invalid dropping st:0
336DTS 123526, next:2800970 st:0 invalid dropping
337PTS 123526, next:2800970 invalid dropping st:0
338DTS 5400, next:1801818 st:1 invalid dropping
339PTS 5400, next:1801818 invalid dropping st:1
340DTS 124550, next:2824189 st:0 invalid dropping
341PTS 124550, next:2824189 invalid dropping st:0
342DTS 5500, next:1835185 st:1 invalid dropping
343PTS 5500, next:1835185 invalid dropping st:1
344DTS 125574, next:2847408 st:0 invalid dropping
345PTS 125574, next:2847408 invalid dropping st:0
346DTS 5600, next:1868552 st:1 invalid dropping
347PTS 5900, next:1868552 invalid dropping st:1
348DTS 126598, next:2870627 st:0 invalid dropping
349PTS 126598, next:2870627 invalid dropping st:0
350DTS 127622, next:2893846 st:0 invalid dropping
351PTS 127622, next:2893846 invalid dropping st:0
352DTS 5700, next:1901919 st:1 invalid dropping
353PTS 5700, next:1901919 invalid dropping st:1
354[libx264 @ 0000000001feea00] frame=   0 QP=10.00 NAL=3 Slice:I Poc:0   I:6120 P:0    SKIP:0    size=328 bytes
355DTS 128646, next:2917065 st:0 invalid dropping
356PTS 128646, next:2917065 invalid dropping st:0
357DTS 5800, next:1935286 st:1 invalid dropping
358PTS 5800, next:1935286 invalid dropping st:1
359[libx264 @ 0000000001feea00] frame=   1 QP=29.00 NAL=2 Slice:P Poc:8   I:0    P:0    SKIP:6120 size=55 bytes
360DTS 129670, next:2940284 st:0 invalid dropping
361PTS 129670, next:2940284 invalid dropping st:0
362DTS 130694, next:2963503 st:0 invalid dropping
363PTS 130694, next:2963503 invalid dropping st:0
364DTS 5900, next:1968653 st:1 invalid dropping
365PTS 6200, next:1968653 invalid dropping st:1
366[libx264 @ 0000000001feea00] frame=   2 QP=29.00 NAL=2 Slice:B Poc:4   I:0    P:0    SKIP:6120 size=53 bytes
367DTS 131718, next:2986722 st:0 invalid dropping
368PTS 131718, next:2986722 invalid dropping st:0
369DTS 132256, next:2998921 st:0 invalid dropping
370PTS 132256, next:2998921 invalid dropping st:0
371DTS 6000, next:2002020 st:1 invalid dropping
372PTS 6000, next:2002020 invalid dropping st:1
373[libx264 @ 0000000001feea00] frame=   3 QP=29.00 NAL=0 Slice:B Poc:2   I:0    P:0    SKIP:6120 size=53 bytes
374DTS 133280, next:3022140 st:0 invalid dropping
375PTS 133280, next:3022140 invalid dropping st:0
376DTS 6100, next:2035387 st:1 invalid dropping
377PTS 6100, next:2035387 invalid dropping st:1
378[libx264 @ 0000000001feea00] frame=   4 QP=29.00 NAL=0 Slice:B Poc:6   I:0    P:0    SKIP:6120 size=53 bytes
379DTS 134304, next:3045359 st:0 invalid dropping
380PTS 134304, next:3045359 invalid dropping st:0
381DTS 135328, next:3068578 st:0 invalid dropping
382PTS 135328, next:3068578 invalid dropping st:0
383DTS 6200, next:2068754 st:1 invalid dropping
384PTS 6500, next:2068754 invalid dropping st:1
385[libx264 @ 0000000001feea00] frame=   5 QP=29.00 NAL=2 Slice:P Poc:16  I:0    P:0    SKIP:6120 size=60 bytes
386DTS 136352, next:3091797 st:0 invalid dropping
387PTS 136352, next:3091797 invalid dropping st:0
388DTS 6300, next:2102121 st:1 invalid dropping
389PTS 6300, next:2102121 invalid dropping st:1
390[libx264 @ 0000000001feea00] frame=   6 QP=29.00 NAL=2 Slice:B Poc:12  I:0    P:0    SKIP:6120 size=54 bytes
391DTS 137376, next:3115016 st:0 invalid dropping
392PTS 137376, next:3115016 invalid dropping st:0
393DTS 6400, next:2135488 st:1 invalid dropping
394PTS 6400, next:2135488 invalid dropping st:1
395[libx264 @ 0000000001feea00] frame=   7 QP=29.00 NAL=0 Slice:B Poc:10  I:0    P:0    SKIP:6120 size=53 bytes
396DTS 138400, next:3138235 st:0 invalid dropping
397PTS 138400, next:3138235 invalid dropping st:0
398DTS 139424, next:3161454 st:0 invalid dropping
399PTS 139424, next:3161454 invalid dropping st:0
400DTS 6500, next:2168855 st:1 invalid dropping
401PTS 6800, next:2168855 invalid dropping st:1
402[libx264 @ 0000000001feea00] frame=   8 QP=29.00 NAL=0 Slice:B Poc:14  I:0    P:0    SKIP:6120 size=53 bytes
403DTS 140448, next:3184673 st:0 invalid dropping
404PTS 140448, next:3184673 invalid dropping st:0
405DTS 6600, next:2202222 st:1 invalid dropping
406PTS 6600, next:2202222 invalid dropping st:1
407[libx264 @ 0000000001feea00] frame=   9 QP=29.00 NAL=2 Slice:P Poc:24  I:0    P:0    SKIP:6120 size=60 bytes
408DTS 141472, next:3207892 st:0 invalid dropping
409PTS 141472, next:3207892 invalid dropping st:0
410DTS 142496, next:3231111 st:0 invalid dropping
411PTS 142496, next:3231111 invalid dropping st:0
412DTS 6700, next:2235589 st:1 invalid dropping
413PTS 6700, next:2235589 invalid dropping st:1
414[libx264 @ 0000000001feea00] frame=  10 QP=29.00 NAL=2 Slice:B Poc:20  I:0    P:0    SKIP:6120 size=54 bytes
415DTS 143520, next:3254330 st:0 invalid dropping
416PTS 143520, next:3254330 invalid dropping st:0
417DTS 6800, next:2268956 st:1 invalid dropping
418PTS 7100, next:2268956 invalid dropping st:1
419[libx264 @ 0000000001feea00] frame=  11 QP=29.00 NAL=0 Slice:B Poc:18  I:0    P:0    SKIP:6120 size=53 bytes
420DTS 144544, next:3277549 st:0 invalid dropping
421PTS 144544, next:3277549 invalid dropping st:0
422DTS 145568, next:3300768 st:0 invalid dropping
423PTS 145568, next:3300768 invalid dropping st:0
424DTS 6900, next:2302323 st:1 invalid dropping
425PTS 6900, next:2302323 invalid dropping st:1
426[libx264 @ 0000000001feea00] frame=  12 QP=29.00 NAL=0 Slice:B Poc:22  I:0    P:0    SKIP:6120 size=53 bytes
427DTS 146592, next:3323987 st:0 invalid dropping
428PTS 146592, next:3323987 invalid dropping st:0
429DTS 7000, next:2335690 st:1 invalid dropping
430PTS 7000, next:2335690 invalid dropping st:1
431[libx264 @ 0000000001feea00] frame=  13 QP=29.00 NAL=2 Slice:P Poc:32  I:0    P:0    SKIP:6120 size=60 bytes
432DTS 147616, next:3347206 st:0 invalid dropping
433PTS 147616, next:3347206 invalid dropping st:0
434DTS 7100, next:2369057 st:1 invalid dropping
435PTS 7400, next:2369057 invalid dropping st:1
436[libx264 @ 0000000001feea00] frame=  14 QP=29.00 NAL=2 Slice:B Poc:28  I:0    P:0    SKIP:6120 size=54 bytes
437DTS 148640, next:3370425 st:0 invalid dropping
438PTS 148640, next:3370425 invalid dropping st:0
439DTS 149664, next:3393644 st:0 invalid dropping
440PTS 149664, next:3393644 invalid dropping st:0
441DTS 7200, next:2402424 st:1 invalid dropping
442PTS 7200, next:2402424 invalid dropping st:1
443[libx264 @ 0000000001feea00] frame=  15 QP=29.00 NAL=0 Slice:B Poc:26  I:0    P:0    SKIP:6120 size=53 bytes
444DTS 150688, next:3416863 st:0 invalid dropping
445PTS 150688, next:3416863 invalid dropping st:0
446DTS 7300, next:2435791 st:1 invalid dropping
447PTS 7300, next:2435791 invalid dropping st:1
448[libx264 @ 0000000001feea00] frame=  16 QP=29.00 NAL=0 Slice:B Poc:30  I:0    P:0    SKIP:6120 size=53 bytes
449DTS 151712, next:3440082 st:0 invalid dropping
450PTS 151712, next:3440082 invalid dropping st:0
451DTS 152736, next:3463301 st:0 invalid dropping
452PTS 152736, next:3463301 invalid dropping st:0
453DTS 7400, next:2469158 st:1 invalid dropping
454PTS 7700, next:2469158 invalid dropping st:1
455[libx264 @ 0000000001feea00] frame=  17 QP=29.00 NAL=2 Slice:P Poc:40  I:0    P:0    SKIP:6120 size=60 bytes
456DTS 153760, next:3486520 st:0 invalid dropping
457PTS 153760, next:3486520 invalid dropping st:0
458DTS 154299, next:3498742 st:0 invalid dropping
459PTS 154299, next:3498742 invalid dropping st:0
460DTS 7500, next:2502525 st:1 invalid dropping
461PTS 7500, next:2502525 invalid dropping st:1
462[libx264 @ 0000000001feea00] frame=  18 QP=29.00 NAL=2 Slice:B Poc:36  I:0    P:0    SKIP:6120 size=54 bytes
463DTS 155323, next:3521961 st:0 invalid dropping
464PTS 155323, next:3521961 invalid dropping st:0
465DTS 7600, next:2535892 st:1 invalid dropping
466PTS 7600, next:2535892 invalid dropping st:1
467[libx264 @ 0000000001feea00] frame=  19 QP=29.00 NAL=0 Slice:B Poc:34  I:0    P:0    SKIP:6120 size=53 bytes
468DTS 156347, next:3545180 st:0 invalid dropping
469PTS 156347, next:3545180 invalid dropping st:0
470DTS 157371, next:3568399 st:0 invalid dropping
471PTS 157371, next:3568399 invalid dropping st:0
472DTS 7700, next:2569259 st:1 invalid dropping
473PTS 8000, next:2569259 invalid dropping st:1
474[libx264 @ 0000000001feea00] frame=  20 QP=29.00 NAL=0 Slice:B Poc:38  I:0    P:0    SKIP:6120 size=53 bytes
475DTS 158395, next:3591618 st:0 invalid dropping
476PTS 158395, next:3591618 invalid dropping st:0
477DTS 7800, next:2602626 st:1 invalid dropping
478PTS 7800, next:2602626 invalid dropping st:1
479[libx264 @ 0000000001feea00] frame=  21 QP=29.00 NAL=2 Slice:P Poc:48  I:0    P:0    SKIP:6120 size=60 bytes
480DTS 159419, next:3614837 st:0 invalid dropping
481PTS 159419, next:3614837 invalid dropping st:0
482DTS 7900, next:2635993 st:1 invalid dropping
483PTS 7900, next:2635993 invalid dropping st:1
484[libx264 @ 0000000001feea00] frame=  22 QP=29.00 NAL=2 Slice:B Poc:44  I:0    P:0    SKIP:6120 size=54 bytes
485DTS 160443, next:3638056 st:0 invalid dropping
486PTS 160443, next:3638056 invalid dropping st:0
487DTS 161467, next:3661275 st:0 invalid dropping
488PTS 161467, next:3661275 invalid dropping st:0
489DTS 8000, next:2669360 st:1 invalid dropping
490PTS 8300, next:2669360 invalid dropping st:1
491[libx264 @ 0000000001feea00] frame=  23 QP=29.00 NAL=0 Slice:B Poc:42  I:0    P:0    SKIP:6120 size=53 bytes
492DTS 162491, next:3684494 st:0 invalid dropping
493PTS 162491, next:3684494 invalid dropping st:0
494frame=   80 fps= 79 q=29.0 size=      14kB time=00:00:03.65 bitrate=  31.1kbits/s   
495DTS 8100, next:2702727 st:1 invalid dropping
496PTS 8100, next:2702727 invalid dropping st:1
497[libx264 @ 0000000001feea00] frame=  24 QP=29.00 NAL=0 Slice:B Poc:46  I:0    P:0    SKIP:6120 size=53 bytes
498DTS 163515, next:3707713 st:0 invalid dropping
499PTS 163515, next:3707713 invalid dropping st:0
500DTS 164539, next:3730932 st:0 invalid dropping
501PTS 164539, next:3730932 invalid dropping st:0
502DTS 8200, next:2736094 st:1 invalid dropping
503PTS 8200, next:2736094 invalid dropping st:1
504[libx264 @ 0000000001feea00] frame=  25 QP=29.00 NAL=2 Slice:P Poc:56  I:0    P:0    SKIP:6120 size=60 bytes
505DTS 165563, next:3754151 st:0 invalid dropping
506PTS 165563, next:3754151 invalid dropping st:0
507DTS 8300, next:2769461 st:1 invalid dropping
508PTS 8600, next:2769461 invalid dropping st:1
509[libx264 @ 0000000001feea00] frame=  26 QP=29.00 NAL=2 Slice:B Poc:52  I:0    P:0    SKIP:6120 size=54 bytes
510DTS 166587, next:3777370 st:0 invalid dropping
511PTS 166587, next:3777370 invalid dropping st:0
512DTS 167611, next:3800589 st:0 invalid dropping
513PTS 167611, next:3800589 invalid dropping st:0
514DTS 8400, next:2802828 st:1 invalid dropping
515PTS 8400, next:2802828 invalid dropping st:1
516[libx264 @ 0000000001feea00] frame=  27 QP=29.00 NAL=0 Slice:B Poc:50  I:0    P:0    SKIP:6120 size=53 bytes
517DTS 168635, next:3823808 st:0 invalid dropping
518PTS 168635, next:3823808 invalid dropping st:0
519DTS 8500, next:2836195 st:1 invalid dropping
520PTS 8500, next:2836195 invalid dropping st:1
521[libx264 @ 0000000001feea00] frame=  28 QP=29.00 NAL=0 Slice:B Poc:54  I:0    P:0    SKIP:6120 size=53 bytes
522DTS 169659, next:3847027 st:0 invalid dropping
523PTS 169659, next:3847027 invalid dropping st:0
524DTS 8600, next:2869562 st:1 invalid dropping
525PTS 8900, next:2869562 invalid dropping st:1
526[libx264 @ 0000000001feea00] frame=  29 QP=29.00 NAL=2 Slice:P Poc:64  I:0    P:0    SKIP:6120 size=60 bytes
527DTS 170683, next:3870246 st:0 invalid dropping
528PTS 170683, next:3870246 invalid dropping st:0
529DTS 171707, next:3893465 st:0 invalid dropping
530PTS 171707, next:3893465 invalid dropping st:0
531DTS 8700, next:2902929 st:1 invalid dropping
532PTS 8700, next:2902929 invalid dropping st:1
533[libx264 @ 0000000001feea00] frame=  30 QP=29.00 NAL=2 Slice:B Poc:60  I:0    P:0    SKIP:6120 size=54 bytes
534DTS 172731, next:3916684 st:0 invalid dropping
535PTS 172731, next:3916684 invalid dropping st:0
536DTS 8800, next:2936296 st:1 invalid dropping
537PTS 8800, next:2936296 invalid dropping st:1
538[libx264 @ 0000000001feea00] frame=  31 QP=29.00 NAL=0 Slice:B Poc:58  I:0    P:0    SKIP:6120 size=53 bytes
539DTS 173755, next:3939903 st:0 invalid dropping
540PTS 173755, next:3939903 invalid dropping st:0
541DTS 174779, next:3963122 st:0 invalid dropping
542PTS 174779, next:3963122 invalid dropping st:0
543DTS 8900, next:2969663 st:1 invalid dropping
544PTS 9200, next:2969663 invalid dropping st:1
545[libx264 @ 0000000001feea00] frame=  32 QP=29.00 NAL=0 Slice:B Poc:62  I:0    P:0    SKIP:6120 size=53 bytes
546DTS 175803, next:3986341 st:0 invalid dropping
547PTS 175803, next:3986341 invalid dropping st:0
548DTS 176342, next:3998563 st:0 invalid dropping
549PTS 176342, next:3998563 invalid dropping st:0
550DTS 9000, next:3003030 st:1 invalid dropping
551PTS 9000, next:3003030 invalid dropping st:1
552[libx264 @ 0000000001feea00] frame=  33 QP=29.00 NAL=2 Slice:P Poc:72  I:0    P:0    SKIP:6120 size=60 bytes
553DTS 177366, next:4021782 st:0 invalid dropping
554PTS 177366, next:4021782 invalid dropping st:0
555DTS 9100, next:3036397 st:1 invalid dropping
556PTS 9100, next:3036397 invalid dropping st:1
557[libx264 @ 0000000001feea00] frame=  34 QP=29.00 NAL=2 Slice:B Poc:68  I:0    P:0    SKIP:6120 size=54 bytes
558DTS 178390, next:4045001 st:0 invalid dropping
559PTS 178390, next:4045001 invalid dropping st:0
560DTS 179414, next:4068220 st:0 invalid dropping
561PTS 179414, next:4068220 invalid dropping st:0
562DTS 9200, next:3069764 st:1 invalid dropping
563PTS 9500, next:3069764 invalid dropping st:1
564[libx264 @ 0000000001feea00] frame=  35 QP=29.00 NAL=0 Slice:B Poc:66  I:0    P:0    SKIP:6120 size=53 bytes
565DTS 180438, next:4091439 st:0 invalid dropping
566PTS 180438, next:4091439 invalid dropping st:0
567DTS 9300, next:3103131 st:1 invalid dropping
568PTS 9300, next:3103131 invalid dropping st:1
569[libx264 @ 0000000001feea00] frame=  36 QP=29.00 NAL=0 Slice:B Poc:70  I:0    P:0    SKIP:6120 size=53 bytes
570DTS 181462, next:4114658 st:0 invalid dropping
571PTS 181462, next:4114658 invalid dropping st:0
572DTS 9400, next:3136498 st:1 invalid dropping
573PTS 9400, next:3136498 invalid dropping st:1
574[libx264 @ 0000000001feea00] frame=  37 QP=29.00 NAL=2 Slice:P Poc:80  I:0    P:0    SKIP:6120 size=60 bytes
575DTS 182486, next:4137877 st:0 invalid dropping
576PTS 182486, next:4137877 invalid dropping st:0
577DTS 183510, next:4161096 st:0 invalid dropping
578PTS 183510, next:4161096 invalid dropping st:0
579DTS 9500, next:3169865 st:1 invalid dropping
580PTS 9800, next:3169865 invalid dropping st:1
581[libx264 @ 0000000001feea00] frame=  38 QP=29.00 NAL=2 Slice:B Poc:76  I:0    P:0    SKIP:6120 size=54 bytes
582DTS 184534, next:4184315 st:0 invalid dropping
583PTS 184534, next:4184315 invalid dropping st:0
584DTS 9600, next:3203232 st:1 invalid dropping
585PTS 9600, next:3203232 invalid dropping st:1
586[libx264 @ 0000000001feea00] frame=  39 QP=29.00 NAL=0 Slice:B Poc:74  I:0    P:0    SKIP:6120 size=53 bytes
587DTS 185558, next:4207534 st:0 invalid dropping
588PTS 185558, next:4207534 invalid dropping st:0
589DTS 186582, next:4230753 st:0 invalid dropping
590PTS 186582, next:4230753 invalid dropping st:0
591DTS 9700, next:3236599 st:1 invalid dropping
592PTS 9700, next:3236599 invalid dropping st:1
593[libx264 @ 0000000001feea00] frame=  40 QP=29.00 NAL=0 Slice:B Poc:78  I:0    P:0    SKIP:6120 size=53 bytes
594DTS 187606, next:4253972 st:0 invalid dropping
595PTS 187606, next:4253972 invalid dropping st:0
596DTS 9800, next:3269966 st:1 invalid dropping
597PTS 10100, next:3269966 invalid dropping st:1
598[libx264 @ 0000000001feea00] frame=  41 QP=29.00 NAL=2 Slice:P Poc:88  I:0    P:0    SKIP:6120 size=60 bytes
599DTS 188630, next:4277191 st:0 invalid dropping
600PTS 188630, next:4277191 invalid dropping st:0
601DTS 189654, next:4300410 st:0 invalid dropping
602PTS 189654, next:4300410 invalid dropping st:0
603DTS 9900, next:3303333 st:1 invalid dropping
604PTS 9900, next:3303333 invalid dropping st:1
605[libx264 @ 0000000001feea00] frame=  42 QP=29.00 NAL=2 Slice:B Poc:84  I:0    P:0    SKIP:6120 size=54 bytes
606DTS 190678, next:4323629 st:0 invalid dropping
607PTS 190678, next:4323629 invalid dropping st:0
608DTS 10000, next:3336700 st:1 invalid dropping
609PTS 10000, next:3336700 invalid dropping st:1
610[libx264 @ 0000000001feea00] frame=  43 QP=29.00 NAL=0 Slice:B Poc:82  I:0    P:0    SKIP:6120 size=53 bytes
611DTS 191702, next:4346848 st:0 invalid dropping
612PTS 191702, next:4346848 invalid dropping st:0
613DTS 10100, next:3370067 st:1 invalid dropping
614PTS 10400, next:3370067 invalid dropping st:1
615[libx264 @ 0000000001feea00] frame=  44 QP=29.00 NAL=0 Slice:B Poc:86  I:0    P:0    SKIP:6120 size=53 bytes
616DTS 192726, next:4370067 st:0 invalid dropping
617PTS 192726, next:4370067 invalid dropping st:0
618DTS 193750, next:4393286 st:0 invalid dropping
619PTS 193750, next:4393286 invalid dropping st:0
620DTS 10200, next:3403434 st:1 invalid dropping
621PTS 10200, next:3403434 invalid dropping st:1
622[libx264 @ 0000000001feea00] frame=  45 QP=29.00 NAL=2 Slice:P Poc:96  I:0    P:0    SKIP:6120 size=60 bytes
623DTS 194774, next:4416505 st:0 invalid dropping
624PTS 194774, next:4416505 invalid dropping st:0
625DTS 10300, next:3436801 st:1 invalid dropping
626PTS 10300, next:3436801 invalid dropping st:1
627[libx264 @ 0000000001feea00] frame=  46 QP=29.00 NAL=2 Slice:B Poc:92  I:0    P:0    SKIP:6120 size=54 bytes
628DTS 195798, next:4439724 st:0 invalid dropping
629PTS 195798, next:4439724 invalid dropping st:0
630DTS 196822, next:4462943 st:0 invalid dropping
631PTS 196822, next:4462943 invalid dropping st:0
632DTS 10400, next:3470168 st:1 invalid dropping
633PTS 10700, next:3470168 invalid dropping st:1
634[libx264 @ 0000000001feea00] frame=  47 QP=29.00 NAL=0 Slice:B Poc:90  I:0    P:0    SKIP:6120 size=53 bytes
635DTS 197846, next:4486162 st:0 invalid dropping
636PTS 197846, next:4486162 invalid dropping st:0
637DTS 198384, next:4498361 st:0 invalid dropping
638PTS 198384, next:4498361 invalid dropping st:0
639DTS 10500, next:3503535 st:1 invalid dropping
640PTS 10500, next:3503535 invalid dropping st:1
641[libx264 @ 0000000001feea00] frame=  48 QP=29.00 NAL=0 Slice:B Poc:94  I:0    P:0    SKIP:6120 size=53 bytes
642DTS 199408, next:4521580 st:0 invalid dropping
643PTS 199408, next:4521580 invalid dropping st:0
644DTS 10600, next:3536902 st:1 invalid dropping
645PTS 10600, next:3536902 invalid dropping st:1
646[libx264 @ 0000000001feea00] frame=  49 QP=29.00 NAL=2 Slice:P Poc:104 I:0    P:0    SKIP:6120 size=60 bytes
647DTS 200432, next:4544799 st:0 invalid dropping
648PTS 200432, next:4544799 invalid dropping st:0
649DTS 201456, next:4568018 st:0 invalid dropping
650PTS 201456, next:4568018 invalid dropping st:0
651DTS 10700, next:3570269 st:1 invalid dropping
652PTS 11000, next:3570269 invalid dropping st:1
653[libx264 @ 0000000001feea00] frame=  50 QP=29.00 NAL=2 Slice:B Poc:100 I:0    P:0    SKIP:6120 size=54 bytes
654DTS 202480, next:4591237 st:0 invalid dropping
655PTS 202480, next:4591237 invalid dropping st:0
656DTS 10800, next:3603636 st:1 invalid dropping
657PTS 10800, next:3603636 invalid dropping st:1
658[libx264 @ 0000000001feea00] frame=  51 QP=29.00 NAL=0 Slice:B Poc:98  I:0    P:0    SKIP:6120 size=53 bytes
659DTS 203504, next:4614456 st:0 invalid dropping
660PTS 203504, next:4614456 invalid dropping st:0
661DTS 10900, next:3637003 st:1 invalid dropping
662PTS 10900, next:3637003 invalid dropping st:1
663[libx264 @ 0000000001feea00] frame=  52 QP=29.00 NAL=0 Slice:B Poc:102 I:0    P:0    SKIP:6120 size=53 bytes
664DTS 204528, next:4637675 st:0 invalid dropping
665PTS 204528, next:4637675 invalid dropping st:0
666DTS 205552, next:4660894 st:0 invalid dropping
667PTS 205552, next:4660894 invalid dropping st:0
668DTS 11000, next:3670370 st:1 invalid dropping
669PTS 11300, next:3670370 invalid dropping st:1
670[libx264 @ 0000000001feea00] frame=  53 QP=29.00 NAL=2 Slice:P Poc:112 I:0    P:0    SKIP:6120 size=60 bytes
671DTS 206576, next:4684113 st:0 invalid dropping
672PTS 206576, next:4684113 invalid dropping st:0
673DTS 11100, next:3703737 st:1 invalid dropping
674PTS 11100, next:3703737 invalid dropping st:1
675[libx264 @ 0000000001feea00] frame=  54 QP=29.00 NAL=2 Slice:B Poc:108 I:0    P:0    SKIP:6120 size=54 bytes
676DTS 207600, next:4707332 st:0 invalid dropping
677PTS 207600, next:4707332 invalid dropping st:0
678DTS 208624, next:4730551 st:0 invalid dropping
679PTS 208624, next:4730551 invalid dropping st:0
680DTS 11200, next:3737104 st:1 invalid dropping
681PTS 11200, next:3737104 invalid dropping st:1
682[libx264 @ 0000000001feea00] frame=  55 QP=29.00 NAL=0 Slice:B Poc:106 I:0    P:0    SKIP:6120 size=53 bytes
683DTS 209648, next:4753770 st:0 invalid dropping
684PTS 209648, next:4753770 invalid dropping st:0
685DTS 11300, next:3770471 st:1 invalid dropping
686PTS 11600, next:3770471 invalid dropping st:1
687[libx264 @ 0000000001feea00] frame=  56 QP=29.00 NAL=0 Slice:B Poc:110 I:0    P:0    SKIP:6120 size=53 bytes
688DTS 210672, next:4776989 st:0 invalid dropping
689PTS 210672, next:4776989 invalid dropping st:0
690DTS 211696, next:4800208 st:0 invalid dropping
691PTS 211696, next:4800208 invalid dropping st:0
692DTS 11400, next:3803838 st:1 invalid dropping
693PTS 11400, next:3803838 invalid dropping st:1
694[libx264 @ 0000000001feea00] frame=  57 QP=29.00 NAL=2 Slice:P Poc:120 I:0    P:0    SKIP:6120 size=60 bytes
695DTS 212720, next:4823427 st:0 invalid dropping
696PTS 212720, next:4823427 invalid dropping st:0
697DTS 11500, next:3837205 st:1 invalid dropping
698PTS 11500, next:3837205 invalid dropping st:1
699[libx264 @ 0000000001feea00] frame=  58 QP=29.00 NAL=2 Slice:B Poc:116 I:0    P:0    SKIP:6120 size=54 bytes
700DTS 213744, next:4846646 st:0 invalid dropping
701PTS 213744, next:4846646 invalid dropping st:0
702frame=  115 fps= 75 q=29.0 size=      34kB time=00:00:04.81 bitrate=  58.3kbits/s   
703DTS 214768, next:4869865 st:0 invalid dropping
704PTS 214768, next:4869865 invalid dropping st:0
705DTS 11600, next:3870572 st:1 invalid dropping
706PTS 11900, next:3870572 invalid dropping st:1
707[libx264 @ 0000000001feea00] frame=  59 QP=29.00 NAL=0 Slice:B Poc:114 I:0    P:0    SKIP:6120 size=53 bytes
708DTS 215792, next:4893084 st:0 invalid dropping
709PTS 215792, next:4893084 invalid dropping st:0
710DTS 11700, next:3903939 st:1 invalid dropping
711PTS 11700, next:3903939 invalid dropping st:1
712[libx264 @ 0000000001feea00] frame=  60 QP=29.00 NAL=0 Slice:B Poc:118 I:0    P:0    SKIP:6120 size=53 bytes
713DTS 216816, next:4916303 st:0 invalid dropping
714PTS 216816, next:4916303 invalid dropping st:0
715DTS 11800, next:3937306 st:1 invalid dropping
716PTS 11800, next:3937306 invalid dropping st:1
717[libx264 @ 0000000001feea00] frame=  61 QP=15.92 NAL=2 Slice:P Poc:128 I:395  P:158  SKIP:5567 size=605 bytes
718DTS 217840, next:4939522 st:0 invalid dropping
719PTS 217840, next:4939522 invalid dropping st:0
720DTS 218864, next:4962741 st:0 invalid dropping
721PTS 218864, next:4962741 invalid dropping st:0
722DTS 11900, next:3970673 st:1 invalid dropping
723PTS 12200, next:3970673 invalid dropping st:1
724[libx264 @ 0000000001feea00] frame=  62 QP=13.21 NAL=2 Slice:B Poc:124 I:0    P:417  SKIP:5703 size=354 bytes
725DTS 219888, next:4985960 st:0 invalid dropping
726PTS 219888, next:4985960 invalid dropping st:0
727DTS 220427, next:4998182 st:0 invalid dropping
728PTS 220427, next:4998182 invalid dropping st:0
729DTS 12000, next:4004040 st:1 invalid dropping
730PTS 12000, next:4004040 invalid dropping st:1
731[libx264 @ 0000000001feea00] frame=  63 QP=29.00 NAL=0 Slice:B Poc:122 I:0    P:0    SKIP:6120 size=53 bytes
732DTS 221451, next:5021401 st:0 invalid dropping
733PTS 221451, next:5021401 invalid dropping st:0
734DTS 12100, next:4037407 st:1 invalid dropping
735PTS 12100, next:4037407 invalid dropping st:1
736[libx264 @ 0000000001feea00] frame=  64 QP=14.19 NAL=0 Slice:B Poc:126 I:0    P:417  SKIP:5703 size=353 bytes
737DTS 222475, next:5044620 st:0 invalid dropping
738PTS 222475, next:5044620 invalid dropping st:0
739DTS 223499, next:5067839 st:0 invalid dropping
740PTS 223499, next:5067839 invalid dropping st:0
741DTS 12200, next:4070774 st:1 invalid dropping
742PTS 12500, next:4070774 invalid dropping st:1
743[libx264 @ 0000000001feea00] frame=  65 QP=16.29 NAL=2 Slice:P Poc:130 I:6119 P:1    SKIP:0    size=4155 bytes
744DTS 224523, next:5091058 st:0 invalid dropping
745PTS 224523, next:5091058 invalid dropping st:0
746DTS 12300, next:4104141 st:1 invalid dropping
747PTS 12300, next:4104141 invalid dropping st:1
748[libx264 @ 0000000001feea00] frame=  66 QP=16.78 NAL=2 Slice:P Poc:132 I:5273 P:190  SKIP:657  size=5995 bytes
749DTS 225547, next:5114277 st:0 invalid dropping
750PTS 225547, next:5114277 invalid dropping st:0
751DTS 12400, next:4137508 st:1 invalid dropping
752PTS 12400, next:4137508 invalid dropping st:1
753[libx264 @ 0000000001feea00] frame=  67 QP=17.70 NAL=2 Slice:P Poc:134 I:5215 P:503  SKIP:402  size=7870 bytes
754DTS 226571, next:5137496 st:0 invalid dropping
755PTS 226571, next:5137496 invalid dropping st:0
756DTS 227595, next:5160715 st:0 invalid dropping
757PTS 227595, next:5160715 invalid dropping st:0
758DTS 12500, next:4170875 st:1 invalid dropping
759PTS 12800, next:4170875 invalid dropping st:1
760[libx264 @ 0000000001feea00] frame=  68 QP=18.63 NAL=2 Slice:P Poc:136 I:5240 P:476  SKIP:404  size=9635 bytes
761DTS 228619, next:5183934 st:0 invalid dropping
762PTS 228619, next:5183934 invalid dropping st:0
763DTS 12600, next:4204242 st:1 invalid dropping
764PTS 12600, next:4204242 invalid dropping st:1
765[libx264 @ 0000000001feea00] frame=  69 QP=19.03 NAL=2 Slice:P Poc:138 I:5348 P:623  SKIP:149  size=10376 bytes
766DTS 229643, next:5207153 st:0 invalid dropping
767PTS 229643, next:5207153 invalid dropping st:0
768DTS 230667, next:5230372 st:0 invalid dropping
769PTS 230667, next:5230372 invalid dropping st:0
770DTS 12700, next:4237609 st:1 invalid dropping
771PTS 12700, next:4237609 invalid dropping st:1
772[libx264 @ 0000000001feea00] frame=  70 QP=21.89 NAL=2 Slice:P Poc:140 I:4616 P:1143 SKIP:361  size=14021 bytes
773DTS 231691, next:5253591 st:0 invalid dropping
774PTS 231691, next:5253591 invalid dropping st:0
775frame=  127 fps= 62 q=29.0 size=      93kB time=00:00:02.30 bitrate= 329.9kbits/s   
776DTS 12800, next:4270976 st:1 invalid dropping
777PTS 13100, next:4270976 invalid dropping st:1
778[libx264 @ 0000000001feea00] frame=  71 QP=21.99 NAL=2 Slice:P Poc:142 I:3129 P:2385 SKIP:606  size=14232 bytes
779DTS 232715, next:5276810 st:0 invalid dropping
780PTS 232715, next:5276810 invalid dropping st:0
781DTS 233739, next:5300029 st:0 invalid dropping
782PTS 233739, next:5300029 invalid dropping st:0
783DTS 12900, next:4304343 st:1 invalid dropping
784PTS 12900, next:4304343 invalid dropping st:1
785[libx264 @ 0000000001feea00] frame=  72 QP=21.11 NAL=2 Slice:P Poc:144 I:4714 P:1117 SKIP:289  size=14744 bytes
786DTS 234763, next:5323248 st:0 invalid dropping
787PTS 234763, next:5323248 invalid dropping st:0
788DTS 13000, next:4337710 st:1 invalid dropping
789PTS 13000, next:4337710 invalid dropping st:1
790[libx264 @ 0000000001feea00] frame=  73 QP=22.55 NAL=2 Slice:P Poc:146 I:2727 P:2433 SKIP:960  size=13883 bytes
791DTS 235787, next:5346467 st:0 invalid dropping
792PTS 235787, next:5346467 invalid dropping st:0
793DTS 236811, next:5369686 st:0 invalid dropping
794PTS 236811, next:5369686 invalid dropping st:0
795DTS 13100, next:4371077 st:1 invalid dropping
796PTS 13400, next:4371077 invalid dropping st:1
797[libx264 @ 0000000001feea00] frame=  74 QP=22.75 NAL=2 Slice:P Poc:148 I:1953 P:2978 SKIP:1189 size=12958 bytes
798DTS 237835, next:5392905 st:0 invalid dropping
799PTS 237835, next:5392905 invalid dropping st:0
800DTS 13200, next:4404444 st:1 invalid dropping
801PTS 13200, next:4404444 invalid dropping st:1
802[libx264 @ 0000000001feea00] frame=  75 QP=22.82 NAL=2 Slice:P Poc:150 I:2380 P:2903 SKIP:837  size=14677 bytes
803DTS 238859, next:5416124 st:0 invalid dropping
804PTS 238859, next:5416124 invalid dropping st:0
805DTS 13300, next:4437811 st:1 invalid dropping
806PTS 13300, next:4437811 invalid dropping st:1
807[libx264 @ 0000000001feea00] frame=  76 QP=22.94 NAL=2 Slice:P Poc:152 I:1860 P:3156 SKIP:1104 size=13204 bytes
808DTS 239883, next:5439343 st:0 invalid dropping
809PTS 239883, next:5439343 invalid dropping st:0
810DTS 240907, next:5462562 st:0 invalid dropping
811PTS 240907, next:5462562 invalid dropping st:0
812DTS 13400, next:4471178 st:1 invalid dropping
813PTS 13700, next:4471178 invalid dropping st:1
814[libx264 @ 0000000001feea00] frame=  77 QP=23.09 NAL=2 Slice:P Poc:154 I:1807 P:3263 SKIP:1050 size=13687 bytes
815DTS 241931, next:5485781 st:0 invalid dropping
816PTS 241931, next:5485781 invalid dropping st:0
817DTS 242470, next:5498003 st:0 invalid dropping
818PTS 242470, next:5498003 invalid dropping st:0
819DTS 13500, next:4504545 st:1 invalid dropping
820PTS 13500, next:4504545 invalid dropping st:1
821[libx264 @ 0000000001feea00] frame=  78 QP=23.20 NAL=2 Slice:P Poc:156 I:1722 P:3307 SKIP:1091 size=13363 bytes
822DTS 243494, next:5521222 st:0 invalid dropping
823PTS 243494, next:5521222 invalid dropping st:0
824DTS 13600, next:4537912 st:1 invalid dropping
825PTS 13600, next:4537912 invalid dropping st:1
826[libx264 @ 0000000001feea00] frame=  79 QP=23.21 NAL=2 Slice:P Poc:158 I:1358 P:3678 SKIP:1084 size=13408 bytes
827DTS 244518, next:5544441 st:0 invalid dropping
828PTS 244518, next:5544441 invalid dropping st:0
829DTS 245542, next:5567660 st:0 invalid dropping
830PTS 245542, next:5567660 invalid dropping st:0
831DTS 13700, next:4571279 st:1 invalid dropping
832PTS 14000, next:4571279 invalid dropping st:1
833[libx264 @ 0000000001feea00] frame=  80 QP=23.19 NAL=2 Slice:P Poc:160 I:698  P:3541 SKIP:1881 size=10996 bytes
834DTS 246566, next:5590879 st:0 invalid dropping
835PTS 246566, next:5590879 invalid dropping st:0
836DTS 13800, next:4604646 st:1 invalid dropping
837PTS 13800, next:4604646 invalid dropping st:1
838[libx264 @ 0000000001feea00] frame=  81 QP=23.38 NAL=2 Slice:P Poc:162 I:589  P:3453 SKIP:2078 size=10224 bytes
839DTS 247590, next:5614098 st:0 invalid dropping
840PTS 247590, next:5614098 invalid dropping st:0
841DTS 248614, next:5637317 st:0 invalid dropping
842PTS 248614, next:5637317 invalid dropping st:0
843DTS 13900, next:4638013 st:1 invalid dropping
844PTS 13900, next:4638013 invalid dropping st:1
845[libx264 @ 0000000001feea00] frame=  82 QP=23.20 NAL=2 Slice:P Poc:164 I:471  P:3806 SKIP:1843 size=10636 bytes
846DTS 249638, next:5660536 st:0 invalid dropping
847PTS 249638, next:5660536 invalid dropping st:0
848DTS 14000, next:4671380 st:1 invalid dropping
849PTS 14300, next:4671380 invalid dropping st:1
850[libx264 @ 0000000001feea00] frame=  83 QP=23.15 NAL=2 Slice:P Poc:166 I:486  P:3895 SKIP:1739 size=11023 bytes
851frame=  140 fps= 55 q=29.0 size=     262kB time=00:00:02.73 bitrate= 785.7kbits/s   
852DTS 250662, next:5683755 st:0 invalid dropping
853PTS 250662, next:5683755 invalid dropping st:0
854DTS 14100, next:4704747 st:1 invalid dropping
855PTS 14100, next:4704747 invalid dropping st:1
856[libx264 @ 0000000001feea00] frame=  84 QP=23.25 NAL=2 Slice:P Poc:168 I:550  P:3667 SKIP:1903 size=10461 bytes
857DTS 251686, next:5706974 st:0 invalid dropping
858PTS 251686, next:5706974 invalid dropping st:0
859DTS 252710, next:5730193 st:0 invalid dropping
860PTS 252710, next:5730193 invalid dropping st:0
861DTS 14200, next:4738114 st:1 invalid dropping
862PTS 14200, next:4738114 invalid dropping st:1
863[libx264 @ 0000000001feea00] frame=  85 QP=23.20 NAL=2 Slice:P Poc:170 I:434  P:3963 SKIP:1723 size=10710 bytes
864DTS 253734, next:5753412 st:0 invalid dropping
865PTS 253734, next:5753412 invalid dropping st:0
866DTS 14300, next:4771481 st:1 invalid dropping
867PTS 14600, next:4771481 invalid dropping st:1
868[libx264 @ 0000000001feea00] frame=  86 QP=23.11 NAL=2 Slice:P Poc:172 I:462  P:4022 SKIP:1636 size=11218 bytes
869DTS 254758, next:5776631 st:0 invalid dropping
870PTS 254758, next:5776631 invalid dropping st:0
871DTS 255782, next:5799850 st:0 invalid dropping
872PTS 255782, next:5799850 invalid dropping st:0
873DTS 14400, next:4804848 st:1 invalid dropping
874PTS 14400, next:4804848 invalid dropping st:1
875[libx264 @ 0000000001feea00] frame=  87 QP=23.21 NAL=2 Slice:P Poc:174 I:435  P:3924 SKIP:1761 size=10817 bytes
876DTS 256806, next:5823069 st:0 invalid dropping
877PTS 256806, next:5823069 invalid dropping st:0
878DTS 14500, next:4838215 st:1 invalid dropping
879PTS 14500, next:4838215 invalid dropping st:1
880[libx264 @ 0000000001feea00] frame=  88 QP=23.14 NAL=2 Slice:P Poc:176 I:445  P:3912 SKIP:1763 size=10658 bytes
881DTS 257830, next:5846288 st:0 invalid dropping
882PTS 257830, next:5846288 invalid dropping st:0
883DTS 258854, next:5869507 st:0 invalid dropping
884PTS 258854, next:5869507 invalid dropping st:0
885DTS 14600, next:4871582 st:1 invalid dropping
886PTS 14900, next:4871582 invalid dropping st:1
887[libx264 @ 0000000001feea00] frame=  89 QP=23.11 NAL=2 Slice:P Poc:178 I:431  P:3954 SKIP:1735 size=10911 bytes
888DTS 259878, next:5892726 st:0 invalid dropping
889PTS 259878, next:5892726 invalid dropping st:0
890DTS 14700, next:4904949 st:1 invalid dropping
891PTS 14700, next:4904949 invalid dropping st:1
892[libx264 @ 0000000001feea00] frame=  90 QP=23.17 NAL=2 Slice:P Poc:180 I:488  P:4015 SKIP:1617 size=11237 bytes
893DTS 260902, next:5915945 st:0 invalid dropping
894PTS 260902, next:5915945 invalid dropping st:0
895DTS 14800, next:4938316 st:1 invalid dropping
896PTS 14800, next:4938316 invalid dropping st:1
897[libx264 @ 0000000001feea00] frame=  91 QP=23.10 NAL=2 Slice:P Poc:182 I:447  P:3872 SKIP:1801 size=10709 bytes
898DTS 261926, next:5939164 st:0 invalid dropping
899PTS 261926, next:5939164 invalid dropping st:0
900DTS 262950, next:5962383 st:0 invalid dropping
901PTS 262950, next:5962383 invalid dropping st:0
902DTS 14900, next:4971683 st:1 invalid dropping
903PTS 15200, next:4971683 invalid dropping st:1
904[libx264 @ 0000000001feea00] frame=  92 QP=23.04 NAL=2 Slice:P Poc:184 I:469  P:3799 SKIP:1852 size=10762 bytes
905DTS 263974, next:5985602 st:0 invalid dropping
906PTS 263974, next:5985602 invalid dropping st:0
907DTS 264512, next:5997801 st:0 invalid dropping
908PTS 264512, next:5997801 invalid dropping st:0
909DTS 15000, next:5005050 st:1 invalid dropping
910PTS 15000, next:5005050 invalid dropping st:1
911[libx264 @ 0000000001feea00] frame=  93 QP=23.24 NAL=2 Slice:P Poc:186 I:497  P:3941 SKIP:1682 size=10851 bytes
912DTS 265536, next:6021020 st:0 invalid dropping
913PTS 265536, next:6021020 invalid dropping st:0
914DTS 15100, next:5038417 st:1 invalid dropping
915PTS 15100, next:5038417 invalid dropping st:1
916No more output streams to write to, finishing.
917[libx264 @ 0000000001feea00] frame=  94 QP=23.06 NAL=2 Slice:P Poc:188 I:572  P:3603 SKIP:1945 size=10254 bytes
918[libx264 @ 0000000001feea00] frame=  95 QP=23.01 NAL=2 Slice:P Poc:190 I:664  P:3531 SKIP:1925 size=10127 bytes
919[libx264 @ 0000000001feea00] frame=  96 QP=23.28 NAL=2 Slice:P Poc:192 I:515  P:3232 SKIP:2373 size=9368 bytes
920[libx264 @ 0000000001feea00] scene cut at 136 Icost:535941 Pcost:408106 ratio:0.2385 bias:0.2480 gop:136 (imb:3722 pmb:2086)
921[libx264 @ 0000000001feea00] frame=  97 QP=23.00 NAL=2 Slice:P Poc:194 I:486  P:3425 SKIP:2209 size=9421 bytes
922[libx264 @ 0000000001feea00] frame=  98 QP=22.94 NAL=2 Slice:P Poc:196 I:587  P:3516 SKIP:2017 size=9922 bytes
923[libx264 @ 0000000001feea00] frame=  99 QP=23.02 NAL=2 Slice:P Poc:198 I:603  P:3416 SKIP:2101 size=9556 bytes
924[libx264 @ 0000000001feea00] frame= 100 QP=22.95 NAL=2 Slice:P Poc:200 I:505  P:3437 SKIP:2178 size=9448 bytes
925[libx264 @ 0000000001feea00] frame= 101 QP=22.92 NAL=2 Slice:P Poc:202 I:566  P:3514 SKIP:2040 size=9809 bytes
926[libx264 @ 0000000001feea00] frame= 102 QP=22.93 NAL=2 Slice:P Poc:204 I:618  P:3597 SKIP:1905 size=10077 bytes
927[libx264 @ 0000000001feea00] frame= 103 QP=22.89 NAL=2 Slice:P Poc:206 I:529  P:3411 SKIP:2180 size=9398 bytes
928[libx264 @ 0000000001feea00] frame= 104 QP=22.89 NAL=2 Slice:P Poc:208 I:625  P:3397 SKIP:2098 size=9725 bytes
929[libx264 @ 0000000001feea00] frame= 105 QP=22.88 NAL=2 Slice:P Poc:210 I:594  P:3410 SKIP:2116 size=9622 bytes
930[libx264 @ 0000000001feea00] frame= 106 QP=22.88 NAL=2 Slice:P Poc:212 I:576  P:3448 SKIP:2096 size=9693 bytes
931[libx264 @ 0000000001feea00] frame= 107 QP=22.85 NAL=2 Slice:P Poc:214 I:666  P:3364 SKIP:2090 size=9920 bytes
932[libx264 @ 0000000001feea00] frame= 108 QP=22.88 NAL=2 Slice:P Poc:216 I:602  P:3376 SKIP:2142 size=9633 bytes
933[libx264 @ 0000000001feea00] frame= 109 QP=22.86 NAL=2 Slice:P Poc:218 I:690  P:3325 SKIP:2105 size=9892 bytes
934[libx264 @ 0000000001feea00] frame= 110 QP=22.82 NAL=2 Slice:P Poc:220 I:900  P:3797 SKIP:1423 size=11834 bytes
935[libx264 @ 0000000001feea00] frame= 111 QP=22.87 NAL=2 Slice:P Poc:222 I:700  P:3304 SKIP:2116 size=10024 bytes
936[libx264 @ 0000000001feea00] frame= 112 QP=22.88 NAL=2 Slice:P Poc:224 I:610  P:3429 SKIP:2081 size=10043 bytes
937[libx264 @ 0000000001feea00] frame= 113 QP=22.81 NAL=2 Slice:P Poc:226 I:691  P:3423 SKIP:2006 size=10382 bytes
938[libx264 @ 0000000001feea00] frame= 114 QP=22.79 NAL=2 Slice:P Poc:228 I:693  P:3531 SKIP:1896 size=10402 bytes
939[libx264 @ 0000000001feea00] frame= 115 QP=22.81 NAL=2 Slice:P Poc:230 I:688  P:3528 SKIP:1904 size=10614 bytes
940[libx264 @ 0000000001feea00] frame= 116 QP=22.75 NAL=2 Slice:P Poc:232 I:704  P:3468 SKIP:1948 size=10618 bytes
941[libx264 @ 0000000001feea00] frame= 117 QP=22.80 NAL=2 Slice:P Poc:234 I:596  P:3559 SKIP:1965 size=10319 bytes
942[libx264 @ 0000000001feea00] frame= 118 QP=22.81 NAL=2 Slice:P Poc:236 I:739  P:3541 SKIP:1840 size=10731 bytes
943[libx264 @ 0000000001feea00] frame= 119 QP=22.76 NAL=2 Slice:P Poc:238 I:791  P:3413 SKIP:1916 size=10648 bytes
944[libx264 @ 0000000001feea00] frame= 120 QP=22.81 NAL=2 Slice:P Poc:240 I:693  P:3393 SKIP:2034 size=10494 bytes
945[libx264 @ 0000000001feea00] frame= 121 QP=22.83 NAL=2 Slice:P Poc:242 I:688  P:3534 SKIP:1898 size=10435 bytes
946[libx264 @ 0000000001feea00] frame= 122 QP=22.81 NAL=2 Slice:P Poc:244 I:762  P:3407 SKIP:1951 size=10498 bytes
947[libx264 @ 0000000001feea00] frame= 123 QP=22.82 NAL=2 Slice:P Poc:246 I:669  P:3434 SKIP:2017 size=10351 bytes
948[libx264 @ 0000000001feea00] frame= 124 QP=22.87 NAL=2 Slice:P Poc:248 I:634  P:3438 SKIP:2048 size=10368 bytes
949[libx264 @ 0000000001feea00] frame= 125 QP=22.75 NAL=2 Slice:P Poc:250 I:830  P:3602 SKIP:1688 size=11168 bytes
950[libx264 @ 0000000001feea00] frame= 126 QP=22.87 NAL=2 Slice:P Poc:252 I:652  P:3255 SKIP:2213 size=9799 bytes
951[libx264 @ 0000000001feea00] frame= 127 QP=22.85 NAL=2 Slice:P Poc:254 I:683  P:3397 SKIP:2040 size=10302 bytes
952[libx264 @ 0000000001feea00] frame= 128 QP=22.89 NAL=2 Slice:P Poc:256 I:647  P:3383 SKIP:2090 size=10198 bytes
953[libx264 @ 0000000001feea00] frame= 129 QP=22.85 NAL=2 Slice:P Poc:258 I:616  P:3432 SKIP:2072 size=10000 bytes
954[libx264 @ 0000000001feea00] frame= 130 QP=22.81 NAL=2 Slice:P Poc:260 I:605  P:3630 SKIP:1885 size=10373 bytes
955[libx264 @ 0000000001feea00] frame= 131 QP=22.70 NAL=2 Slice:P Poc:262 I:730  P:3480 SKIP:1910 size=10651 bytes
956[libx264 @ 0000000001feea00] frame= 132 QP=22.79 NAL=2 Slice:P Poc:264 I:664  P:3374 SKIP:2082 size=10181 bytes
957[libx264 @ 0000000001feea00] frame= 133 QP=22.82 NAL=2 Slice:P Poc:266 I:586  P:3610 SKIP:1924 size=10492 bytes
958[libx264 @ 0000000001feea00] frame= 134 QP=22.80 NAL=2 Slice:P Poc:268 I:686  P:3486 SKIP:1948 size=10320 bytes
959[libx264 @ 0000000001feea00] frame= 135 QP=22.87 NAL=2 Slice:P Poc:270 I:709  P:3419 SKIP:1992 size=10334 bytes
960[libx264 @ 0000000001feea00] frame= 136 QP=19.98 NAL=3 Slice:I Poc:0   I:6120 P:0    SKIP:0    size=26348 bytes
961[libx264 @ 0000000001feea00] frame= 137 QP=22.85 NAL=2 Slice:P Poc:2   I:778  P:3108 SKIP:2234 size=9257 bytes
962[libx264 @ 0000000001feea00] frame= 138 QP=22.90 NAL=2 Slice:P Poc:4   I:694  P:3289 SKIP:2137 size=9548 bytes
963[libx264 @ 0000000001feea00] frame= 139 QP=22.92 NAL=2 Slice:P Poc:6   I:814  P:3349 SKIP:1957 size=10809 bytes
964[libx264 @ 0000000001feea00] frame= 140 QP=22.88 NAL=2 Slice:P Poc:8   I:1141 P:3059 SKIP:1920 size=11247 bytes
965[libx264 @ 0000000001feea00] frame= 141 QP=23.04 NAL=2 Slice:P Poc:10  I:938  P:2944 SKIP:2238 size=10463 bytes
966[libx264 @ 0000000001feea00] frame= 142 QP=23.04 NAL=2 Slice:P Poc:12  I:821  P:3066 SKIP:2233 size=10508 bytes
967[libx264 @ 0000000001feea00] frame= 143 QP=23.09 NAL=2 Slice:P Poc:14  I:832  P:3285 SKIP:2003 size=11046 bytes
968[libx264 @ 0000000001feea00] frame= 144 QP=23.16 NAL=2 Slice:P Poc:16  I:750  P:3163 SKIP:2207 size=10395 bytes
969[libx264 @ 0000000001feea00] frame= 145 QP=23.08 NAL=2 Slice:P Poc:18  I:829  P:2996 SKIP:2295 size=10087 bytes
970[libx264 @ 0000000001feea00] frame= 146 QP=23.10 NAL=2 Slice:P Poc:20  I:827  P:3145 SKIP:2148 size=10650 bytes
971[libx264 @ 0000000001feea00] frame= 147 QP=23.29 NAL=2 Slice:P Poc:22  I:684  P:3182 SKIP:2254 size=10260 bytes
972[libx264 @ 0000000001feea00] frame= 148 QP=23.20 NAL=2 Slice:P Poc:24  I:775  P:3009 SKIP:2336 size=9959 bytes
973[libx264 @ 0000000001feea00] frame= 149 QP=23.62 NAL=2 Slice:P Poc:26  I:752  P:2885 SKIP:2483 size=9180 bytes
974[libvo_aacenc @ 0000000001fef9a0] Trying to remove 448 more samples than are in the que
975frame=  150 fps= 33 q=-1.0 Lsize=     984kB time=00:00:05.02 bitrate=1604.4kbits/s   
976
977video:899kB audio:79kB subtitle:0 global headers:0kB muxing overhead 0.614857%
978[libx264 @ 0000000001feea00] frame I:2     Avg QP:14.99  size: 13338
979[libx264 @ 0000000001feea00] frame P:100   Avg QP:23.50  size:  8898
980[libx264 @ 0000000001feea00] frame B:48    Avg QP:28.36  size:    66
981[libx264 @ 0000000001feea00] consecutive B-frames: 57.3%  0.0%  0.0% 42.7%
982[libx264 @ 0000000001feea00] mb I  I16..4: 65.3% 34.2%  0.5%
983[libx264 @ 0000000001feea00] mb P  I16..4:  9.8%  6.3%  0.0%  P16..4: 38.2%  3.0%  2.6%  0.0%  0.0%    skip:40.1%
984[libx264 @ 0000000001feea00] mb B  I16..4:  0.0%  0.0%  0.0%  B16..8:  0.0%  0.0%  0.0%  direct: 0.3%  skip:99.7%
985[libx264 @ 0000000001feea00] 8x8 transform intra:38.7% inter:99.1%
986[libx264 @ 0000000001feea00] coded y,uvDC,uvAC intra: 9.6% 41.9% 1.3% inter: 5.6% 20.6% 0.0%
987[libx264 @ 0000000001feea00] i16 v,h,dc,p: 44% 16%  9% 30%
988[libx264 @ 0000000001feea00] i8 v,h,dc,ddl,ddr,vr,hd,vl,hu: 31% 13% 46%  2%  2%  2%  2%  2%  1%
989[libx264 @ 0000000001feea00] i4 v,h,dc,ddl,ddr,vr,hd,vl,hu: 43% 20% 10%  3%  7%  5%  7%  4%  1%
990[libx264 @ 0000000001feea00] i8c dc,h,v,p: 61% 14% 22%  3%
991[libx264 @ 0000000001feea00] Weighted P-Frames: Y:14.0% UV:14.0%
992[libx264 @ 0000000001feea00] ref P L0: 66.0%  6.8% 20.0%  7.1%
993[libx264 @ 0000000001feea00] kb/s:1469.90
994[AVIOContext @ 0000000001f2f4e0] Statistics: 24677349 bytes read, 316 seeks