Ticket #1900: h264.avi.log

File h264.avi.log, 85.1 KB (added by cehoyos, 4 years ago)
Line 
1==11415== Memcheck, a memory error detector
2==11415== Copyright (C) 2002-2011, and GNU GPL'd, by Julian Seward et al.
3==11415== Using Valgrind-3.7.0 and LibVEX; rerun with -h for copyright info
4==11415== Command: ./ffmpeg_g -threads 2 -i h264.avi -f null -
5==11415==
6ffmpeg version N-46528-g5ff43ec Copyright (c) 2000-2012 the FFmpeg developers
7  built on Nov  8 2012 19:27:34 with gcc 4.7 (SUSE Linux)
8  configuration: --enable-gpl --disable-indev=jack
9  libavutil      52.  5.100 / 52.  5.100
10  libavcodec     54. 71.100 / 54. 71.100
11  libavformat    54. 36.100 / 54. 36.100
12  libavdevice    54.  3.100 / 54.  3.100
13  libavfilter     3. 21.106 /  3. 21.106
14  libswscale      2.  1.102 /  2.  1.102
15  libswresample   0. 16.100 /  0. 16.100
16  libpostproc    52.  1.100 / 52.  1.100
17[h264 @ 0x66ca000] missing picture in access unit with size 1941
18[h264 @ 0x66ca000] no frame!
19[h264 @ 0x66ca000] missing picture in access unit with size 2377
20[h264 @ 0x66ca000] no frame!
21[h264 @ 0x66ca000] missing picture in access unit with size 2090
22[h264 @ 0x66ca000] no frame!
23[h264 @ 0x66ca000] missing picture in access unit with size 2305
24[h264 @ 0x66ca000] no frame!
25[h264 @ 0x66ca000] missing picture in access unit with size 3280
26[h264 @ 0x66ca000] no frame!
27[h264 @ 0x66ca000] missing picture in access unit with size 2963
28[h264 @ 0x66ca000] no frame!
29[h264 @ 0x66ca000] missing picture in access unit with size 2624
30[h264 @ 0x66ca000] no frame!
31[h264 @ 0x66ca000] illegal log2_max_frame_num 50
32[h264 @ 0x66ca000] missing picture in access unit with size 2937
33[h264 @ 0x66ca000] illegal log2_max_frame_num 50
34    Last message repeated 1 times
35[h264 @ 0x66ca000] no frame!
36[h264 @ 0x66ca000] sps_id out of range
37[h264 @ 0x66ca000] missing picture in access unit with size 4221
38[h264 @ 0x66ca000] sps_id out of range
39[h264 @ 0x66ca000] no frame!
40[h264 @ 0x66ca000] non-existing PPS referenced
41[h264 @ 0x66ca000] non-existing PPS 3 referenced
42[h264 @ 0x66ca000] decode_slice_header error
43[h264 @ 0x66ca000] no frame!
44[h264 @ 0x66ca000] missing picture in access unit with size 4270
45[h264 @ 0x66ca000] no frame!
46[h264 @ 0x66ca000] missing picture in access unit with size 3875
47[h264 @ 0x66ca000] no frame!
48[h264 @ 0x66ca000] non-existing PPS referenced
49[h264 @ 0x66ca000] slice type too large (2) at 0 0
50[h264 @ 0x66ca000] decode_slice_header error
51[h264 @ 0x66ca000] sps_id out of range
52[h264 @ 0x66ca000] no frame!
53[h264 @ 0x66ca000] missing picture in access unit with size 4394
54[h264 @ 0x66ca000] no frame!
55[h264 @ 0x66ca000] missing picture in access unit with size 4743
56[h264 @ 0x66ca000] Partitioned H.264 support is incomplete
57[h264 @ 0x66ca000] missing picture in access unit with size 5338
58[h264 @ 0x66ca000] no frame!
59[h264 @ 0x66ca000] missing picture in access unit with size 6106
60[h264 @ 0x66ca000] no frame!
61[h264 @ 0x66ca000] sps_id (32) out of range
62[h264 @ 0x66ca000] missing picture in access unit with size 5938
63[h264 @ 0x66ca000] sps_id (32) out of range
64    Last message repeated 1 times
65[h264 @ 0x66ca000] no frame!
66[h264 @ 0x66ca000] missing picture in access unit with size 5345
67[h264 @ 0x66ca000] no frame!
68[h264 @ 0x66ca000] non-existing PPS referenced
69[h264 @ 0x66ca000] non-existing PPS 1 referenced
70[h264 @ 0x66ca000] decode_slice_header error
71[h264 @ 0x66ca000] too many reference frames
72    Last message repeated 1 times
73[h264 @ 0x66ca000] non-existing PPS 0 referenced
74[h264 @ 0x66ca000] decode_slice_header error
75[h264 @ 0x66ca000] non-existing PPS 0 referenced
76[h264 @ 0x66ca000] decode_slice_header error
77[h264 @ 0x66ca000] sps_id out of range
78[h264 @ 0x66ca000] no frame!
79[h264 @ 0x66ca000] missing picture in access unit with size 5498
80[h264 @ 0x66ca000] Partitioned H.264 support is incomplete
81[h264 @ 0x66ca000] non-existing PPS referenced
82[h264 @ 0x66ca000] non-existing PPS 10 referenced
83[h264 @ 0x66ca000] decode_slice_header error
84[h264 @ 0x66ca000] no frame!
85[h264 @ 0x66ca000] non-existing PPS referenced
86[h264 @ 0x66ca000] non-existing PPS 0 referenced
87[h264 @ 0x66ca000] decode_slice_header error
88[h264 @ 0x66ca000] Partitioned H.264 support is incomplete
89[h264 @ 0x66ca000] sps_id out of range
90[h264 @ 0x66ca000] missing picture in access unit with size 5630
91[h264 @ 0x66ca000] sps_id out of range
92[h264 @ 0x66ca000] no frame!
93[h264 @ 0x66ca000] missing picture in access unit with size 5714
94[h264 @ 0x66ca000] non-existing PPS 2 referenced
95[h264 @ 0x66ca000] decode_slice_header error
96[h264 @ 0x66ca000] no frame!
97[h264 @ 0x66ca000] sps_id out of range
98    Last message repeated 1 times
99[h264 @ 0x66ca000] missing picture in access unit with size 5525
100[h264 @ 0x66ca000] sps_id out of range
101    Last message repeated 1 times
102[h264 @ 0x66ca000] no frame!
103[h264 @ 0x66ca000] non-existing PPS referenced
104[h264 @ 0x66ca000] non-existing PPS 0 referenced
105[h264 @ 0x66ca000] decode_slice_header error
106[h264 @ 0x66ca000] non-existing PPS 0 referenced
107[h264 @ 0x66ca000] decode_slice_header error
108[h264 @ 0x66ca000] no frame!
109[h264 @ 0x66ca000] non-existing PPS referenced
110[h264 @ 0x66ca000] slice type too large (2) at 0 0
111[h264 @ 0x66ca000] decode_slice_header error
112[h264 @ 0x66ca000] missing picture in access unit with size 5623
113[h264 @ 0x66ca000] no frame!
114[h264 @ 0x66ca000] FMO not supported
115[h264 @ 0x66ca000] non-existing PPS referenced
116[h264 @ 0x66ca000] FMO not supported
117[h264 @ 0x66ca000] non-existing PPS 227 referenced
118[h264 @ 0x66ca000] decode_slice_header error
119[h264 @ 0x66ca000] no frame!
120[h264 @ 0x66ca000] non-existing PPS referenced
121[h264 @ 0x66ca000] non-existing PPS 0 referenced
122[h264 @ 0x66ca000] decode_slice_header error
123[h264 @ 0x66ca000] Missing reference picture
124    Last message repeated 1 times
125[h264 @ 0x66ca000] sps_id out of range
126[h264 @ 0x66ca000] concealing 297024 DC, 297024 AC, 297024 MV errors in P frame
127[h264 @ 0x66ca000] non-existing PPS referenced
128[h264 @ 0x66ca000] non-existing PPS 0 referenced
129[h264 @ 0x66ca000] decode_slice_header error
130[h264 @ 0x66ca000] no frame!
131[h264 @ 0x66ca000] illegal POC type 7
132[h264 @ 0x66ca000] non-existing PPS referenced
133[h264 @ 0x66ca000] illegal POC type 7
134    Last message repeated 1 times
135[h264 @ 0x66ca000] slice type too large (3) at 1247 237
136[h264 @ 0x66ca000] decode_slice_header error
137[h264 @ 0x66ca000] non-existing PPS 3 referenced
138[h264 @ 0x66ca000] decode_slice_header error
139[h264 @ 0x66ca000] non-existing PPS 6 referenced
140[h264 @ 0x66ca000] decode_slice_header error
141[h264 @ 0x66ca000] no frame!
142[h264 @ 0x66ca000] non-existing PPS referenced
143[h264 @ 0x66ca000] non-existing PPS 13 referenced
144[h264 @ 0x66ca000] decode_slice_header error
145[h264 @ 0x66ca000] non-existing PPS 0 referenced
146[h264 @ 0x66ca000] decode_slice_header error
147[h264 @ 0x66ca000] non-existing PPS 10 referenced
148[h264 @ 0x66ca000] decode_slice_header error
149[h264 @ 0x66ca000] Partitioned H.264 support is incomplete
150[h264 @ 0x66ca000] missing picture in access unit with size 5668
151[h264 @ 0x66ca000] no frame!
152[h264 @ 0x66ca000] sps_id (32) out of range
153[h264 @ 0x66ca000] missing picture in access unit with size 5753
154[h264 @ 0x66ca000] sps_id (32) out of range
155    Last message repeated 1 times
156[h264 @ 0x66ca000] no frame!
157[h264 @ 0x66ca000] missing picture in access unit with size 5903
158[h264 @ 0x66ca000] no frame!
159[h264 @ 0x66ca000] non-existing PPS referenced
160[h264 @ 0x66ca000] non-existing PPS 6 referenced
161[h264 @ 0x66ca000] decode_slice_header error
162[h264 @ 0x66ca000] no frame!
163[h264 @ 0x66ca000] non-existing PPS referenced
164[h264 @ 0x66ca000] non-existing PPS 0 referenced
165[h264 @ 0x66ca000] decode_slice_header error
166[h264 @ 0x66ca000] non-existing PPS 0 referenced
167[h264 @ 0x66ca000] decode_slice_header error
168[h264 @ 0x66ca000] no frame!
169[h264 @ 0x66ca000] missing picture in access unit with size 5680
170[h264 @ 0x66ca000] no frame!
171[h264 @ 0x66ca000] Missing reference picture
172    Last message repeated 1 times
173[h264 @ 0x66ca000] deblocking filter parameters 52 106 out of range
174[h264 @ 0x66ca000] decode_slice_header error
175[h264 @ 0x66ca000] concealing 297024 DC, 297024 AC, 297024 MV errors in P frame
176Input #0, avi, from 'h264.avi':
177  Duration: 00:00:12.64, start: 0.000000, bitrate: 788 kb/s
178    Stream #0:0: Video: h264 (H264 / 0x34363248), yuv420p, 19968x3808, 12.33 fps, 23.98 tbr, 23.97 tbn, 47.94 tbc
179[h264 @ 0x6970d20] sps_id (32) out of range
180    Last message repeated 1 times
181Output #0, null, to 'pipe:':
182  Metadata:
183    encoder         : Lavf54.36.100
184    Stream #0:0: Video: rawvideo (I420 / 0x30323449), yuv420p, 19968x3808, q=2-31, 200 kb/s, 90k tbn, 23.98 tbc
185Stream mapping:
186  Stream #0:0 -> #0:0 (h264 -> rawvideo)
187Press [q] to stop, [?] for help
188[h264 @ 0x6970d20] no frame!
189[h264 @ 0x6c160e0] no frame!
190Error while decoding stream #0:0: Operation not permitted
191[h264 @ 0x6970d20] no frame!
192Error while decoding stream #0:0: Operation not permitted
193[h264 @ 0x6c160e0] no frame!
194Error while decoding stream #0:0: Operation not permitted
195[h264 @ 0x6970d20] no frame!
196Error while decoding stream #0:0: Operation not permitted
197[h264 @ 0x6c160e0] no frame!
198Error while decoding stream #0:0: Operation not permitted
199[h264 @ 0x6970d20] no frame!
200Error while decoding stream #0:0: Operation not permitted
201[h264 @ 0x6c160e0] illegal log2_max_frame_num 50
202    Last message repeated 1 times
203[h264 @ 0x6c160e0] no frame!
204Error while decoding stream #0:0: Operation not permitted
205[h264 @ 0x6970d20] sps_id out of range
206[h264 @ 0x6970d20] no frame!
207Error while decoding stream #0:0: Operation not permitted
208[h264 @ 0x6c160e0] non-existing PPS 3 referenced
209[h264 @ 0x6c160e0] decode_slice_header error
210[h264 @ 0x6c160e0] no frame!
211Error while decoding stream #0:0: Operation not permitted
212[h264 @ 0x6970d20] no frame!
213Error while decoding stream #0:0: Operation not permitted
214[h264 @ 0x6c160e0] no frame!
215Error while decoding stream #0:0: Operation not permitted
216[h264 @ 0x6970d20] slice type too large (2) at 0 0
217[h264 @ 0x6970d20] decode_slice_header error
218[h264 @ 0x6970d20] sps_id out of range
219[h264 @ 0x6970d20] no frame!
220Error while decoding stream #0:0: Operation not permitted
221[h264 @ 0x6c160e0] no frame!
222Error while decoding stream #0:0: Operation not permitted
223[h264 @ 0x6970d20] Partitioned H.264 support is incomplete
224Error while decoding stream #0:0: Operation not permitted
225[h264 @ 0x6c160e0] no frame!
226Error while decoding stream #0:0: Operation not permitted
227[h264 @ 0x6970d20] no frame!
228Error while decoding stream #0:0: Operation not permitted
229[h264 @ 0x6c160e0] sps_id (32) out of range
230    Last message repeated 1 times
231[h264 @ 0x6c160e0] no frame!
232Error while decoding stream #0:0: Operation not permitted
233[h264 @ 0x6970d20] no frame!
234Error while decoding stream #0:0: Operation not permitted
235[h264 @ 0x6c160e0] non-existing PPS 1 referenced
236[h264 @ 0x6c160e0] decode_slice_header error
237[h264 @ 0x6c160e0] too many reference frames
238    Last message repeated 1 times
239[h264 @ 0x6c160e0] non-existing PPS 0 referenced
240[h264 @ 0x6c160e0] decode_slice_header error
241[h264 @ 0x6c160e0] non-existing PPS 0 referenced
242[h264 @ 0x6c160e0] decode_slice_header error
243[h264 @ 0x6c160e0] sps_id out of range
244[h264 @ 0x6c160e0] no frame!
245Error while decoding stream #0:0: Operation not permitted
246[h264 @ 0x6970d20] Partitioned H.264 support is incomplete
247Error while decoding stream #0:0: Operation not permitted
248[h264 @ 0x6c160e0] non-existing PPS 10 referenced
249[h264 @ 0x6c160e0] decode_slice_header error
250[h264 @ 0x6c160e0] no frame!
251Error while decoding stream #0:0: Operation not permitted
252[h264 @ 0x6970d20] non-existing PPS 0 referenced
253[h264 @ 0x6970d20] decode_slice_header error
254[h264 @ 0x6970d20] Partitioned H.264 support is incomplete
255Error while decoding stream #0:0: Operation not permitted
256[h264 @ 0x6c160e0] sps_id out of range
257[h264 @ 0x6c160e0] no frame!
258Error while decoding stream #0:0: Operation not permitted
259[h264 @ 0x6970d20] non-existing PPS 2 referenced
260[h264 @ 0x6970d20] decode_slice_header error
261[h264 @ 0x6970d20] no frame!
262Error while decoding stream #0:0: Operation not permitted
263[h264 @ 0x6c160e0] sps_id out of range
264    Last message repeated 1 times
265[h264 @ 0x6c160e0] no frame!
266Error while decoding stream #0:0: Operation not permitted
267[h264 @ 0x6970d20] non-existing PPS 0 referenced
268[h264 @ 0x6970d20] decode_slice_header error
269[h264 @ 0x6970d20] non-existing PPS 0 referenced
270[h264 @ 0x6970d20] decode_slice_header error
271[h264 @ 0x6970d20] no frame!
272Error while decoding stream #0:0: Operation not permitted
273[h264 @ 0x6c160e0] slice type too large (2) at 0 0
274[h264 @ 0x6c160e0] decode_slice_header error
275Error while decoding stream #0:0: Operation not permitted
276[h264 @ 0x6970d20] no frame!
277[h264 @ 0x6c160e0] FMO not supported
278[h264 @ 0x6c160e0] non-existing PPS 227 referenced
279[h264 @ 0x6c160e0] decode_slice_header error
280[h264 @ 0x6c160e0] no frame!
281Error while decoding stream #0:0: Operation not permitted
282[h264 @ 0x6970d20] non-existing PPS 0 referenced
283[h264 @ 0x6970d20] decode_slice_header error
284[h264 @ 0x6970d20] Missing reference picture
285    Last message repeated 1 times
286[h264 @ 0x6970d20] sps_id out of range
287[h264 @ 0x6970d20] concealing 297024 DC, 297024 AC, 297024 MV errors in P frame
288Error while decoding stream #0:0: Operation not permitted
289[h264 @ 0x6c160e0] non-existing PPS 0 referenced
290[h264 @ 0x6c160e0] decode_slice_header error
291[h264 @ 0x6c160e0] no frame!
292frame=    0 fps=0.0 q=0.0 size=       0kB time=00:00:00.00 bitrate=   0.0kbits/s   
293illegal POC type 7
294[h264 @ 0x6970d20] illegal POC type 7
295[h264 @ 0x6970d20] slice type too large (2) at 1247 237
296[h264 @ 0x6970d20] decode_slice_header error
297[h264 @ 0x6970d20] non-existing PPS 3 referenced
298[h264 @ 0x6970d20] decode_slice_header error
299[h264 @ 0x6970d20] non-existing PPS 6 referenced
300[h264 @ 0x6970d20] decode_slice_header error
301[h264 @ 0x6970d20] no frame!
302Error while decoding stream #0:0: Operation not permitted
303[h264 @ 0x6c160e0] non-existing PPS 13 referenced
304[h264 @ 0x6c160e0] decode_slice_header error
305[h264 @ 0x6c160e0] non-existing PPS 0 referenced
306[h264 @ 0x6c160e0] decode_slice_header error
307[h264 @ 0x6c160e0] non-existing PPS 10 referenced
308[h264 @ 0x6c160e0] decode_slice_header error
309[h264 @ 0x6c160e0] Partitioned H.264 support is incomplete
310Error while decoding stream #0:0: Operation not permitted
311[h264 @ 0x6970d20] no frame!
312Error while decoding stream #0:0: Operation not permitted
313[h264 @ 0x6c160e0] sps_id (32) out of range
314    Last message repeated 1 times
315[h264 @ 0x6c160e0] no frame!
316Error while decoding stream #0:0: Operation not permitted
317[h264 @ 0x6970d20] no frame!
318Error while decoding stream #0:0: Operation not permitted
319[h264 @ 0x6c160e0] non-existing PPS 6 referenced
320[h264 @ 0x6c160e0] decode_slice_header error
321[h264 @ 0x6c160e0] no frame!
322Error while decoding stream #0:0: Operation not permitted
323[h264 @ 0x6970d20] non-existing PPS 0 referenced
324[h264 @ 0x6970d20] decode_slice_header error
325[h264 @ 0x6970d20] non-existing PPS 0 referenced
326[h264 @ 0x6970d20] decode_slice_header error
327[h264 @ 0x6970d20] no frame!
328Error while decoding stream #0:0: Operation not permitted
329[h264 @ 0x6c160e0] no frame!
330Error while decoding stream #0:0: Operation not permitted
331[h264 @ 0x6970d20] Missing reference picture
332    Last message repeated 1 times
333[h264 @ 0x6970d20] deblocking filter parameters 52 106 out of range
334[h264 @ 0x6970d20] decode_slice_header error
335[h264 @ 0x6970d20] concealing 297024 DC, 297024 AC, 297024 MV errors in P frame
336Error while decoding stream #0:0: Operation not permitted
337[h264 @ 0x66ca000] missing picture in access unit with size 5640
338[h264 @ 0x6c160e0] no frame!
339frame=    0 fps=0.0 q=0.0 size=       0kB time=00:00:00.00 bitrate=   0.0kbits/s   
340missing picture in access unit with size 5632
341[h264 @ 0x6970d20] no frame!
342Error while decoding stream #0:0: Operation not permitted
343[h264 @ 0x66ca000] non-existing PPS referenced
344[h264 @ 0x6c160e0] non-existing PPS 0 referenced
345[h264 @ 0x6c160e0] decode_slice_header error
346[h264 @ 0x6c160e0] non-existing PPS 4 referenced
347[h264 @ 0x6c160e0] decode_slice_header error
348[h264 @ 0x6c160e0] non-existing PPS 126 referenced
349[h264 @ 0x6c160e0] decode_slice_header error
350[h264 @ 0x6c160e0] Partitioned H.264 support is incomplete
351Error while decoding stream #0:0: Operation not permitted
352[h264 @ 0x66ca000] non-existing PPS referenced
353[h264 @ 0x6970d20] non-existing PPS 14 referenced
354[h264 @ 0x6970d20] decode_slice_header error
355[h264 @ 0x6970d20] no frame!
356Error while decoding stream #0:0: Operation not permitted
357[h264 @ 0x66ca000] sps_id out of range
358[h264 @ 0x66ca000] insane cropping not completely supported, this could look slightly wrong ... (left: 0, top: 3)
359[h264 @ 0x66ca000] missing picture in access unit with size 5696
360[h264 @ 0x6c160e0] sps_id out of range
361[h264 @ 0x6c160e0] insane cropping not completely supported, this could look slightly wrong ... (left: 0, top: 3)
362[h264 @ 0x6c160e0] non-existing PPS 14 referenced
363[h264 @ 0x6c160e0] decode_slice_header error
364[h264 @ 0x6c160e0] no frame!
365Error while decoding stream #0:0: Operation not permitted
366[h264 @ 0x66ca000] non-existing PPS referenced
367[h264 @ 0x6970d20] non-existing PPS 1 referenced
368[h264 @ 0x6970d20] decode_slice_header error
369[h264 @ 0x6970d20] non-existing PPS 0 referenced
370[h264 @ 0x6970d20] decode_slice_header error
371[h264 @ 0x6970d20] no frame!
372Error while decoding stream #0:0: Operation not permitted
373[h264 @ 0x66ca000] missing picture in access unit with size 5672
374[h264 @ 0x6c160e0] no frame!
375Error while decoding stream #0:0: Operation not permitted
376[h264 @ 0x66ca000] non-existing PPS referenced
377[h264 @ 0x6970d20] non-existing PPS 0 referenced
378[h264 @ 0x6970d20] decode_slice_header error
379[h264 @ 0x6970d20] non-existing PPS 0 referenced
380[h264 @ 0x6970d20] decode_slice_header error
381[h264 @ 0x6970d20] Partitioned H.264 support is incomplete
382Error while decoding stream #0:0: Operation not permitted
383[h264 @ 0x66ca000] missing picture in access unit with size 5498
384[h264 @ 0x6c160e0] no frame!
385Error while decoding stream #0:0: Operation not permitted
386[h264 @ 0x66ca000] missing picture in access unit with size 5505
387[h264 @ 0x6970d20] no frame!
388Error while decoding stream #0:0: Operation not permitted
389[h264 @ 0x66ca000] missing picture in access unit with size 5785
390[h264 @ 0x6c160e0] no frame!
391Error while decoding stream #0:0: Operation not permitted
392[h264 @ 0x66ca000] sps_id out of range
393[h264 @ 0x66ca000] non-existing PPS referenced
394[h264 @ 0x6970d20] sps_id out of range
395[h264 @ 0x6970d20] non-existing PPS 0 referenced
396[h264 @ 0x6970d20] decode_slice_header error
397[h264 @ 0x6970d20] non-existing PPS 0 referenced
398[h264 @ 0x6970d20] decode_slice_header error
399[h264 @ 0x6970d20] non-existing PPS 0 referenced
400[h264 @ 0x6970d20] decode_slice_header error
401[h264 @ 0x6970d20] no frame!
402Error while decoding stream #0:0: Operation not permitted
403[h264 @ 0x66ca000] missing picture in access unit with size 5450
404[h264 @ 0x6c160e0] illegal log2_max_frame_num 31
405[h264 @ 0x6c160e0] sps_id (32) out of range
406[h264 @ 0x6c160e0] no frame!
407Error while decoding stream #0:0: Operation not permitted
408[h264 @ 0x66ca000] non-existing PPS referenced
409[h264 @ 0x6970d20] non-existing PPS 0 referenced
410[h264 @ 0x6970d20] decode_slice_header error
411[h264 @ 0x6970d20] no frame!
412Error while decoding stream #0:0: Operation not permitted
413[h264 @ 0x6c160e0] illegal reordering_of_pic_nums_idc
414[h264 @ 0x6c160e0] decode_slice_header error
415[h264 @ 0x6c160e0] non-existing PPS 13 referenced
416[h264 @ 0x6c160e0] decode_slice_header error
417Error while decoding stream #0:0: Operation not permitted
418[h264 @ 0x66ca000] non-existing PPS referenced
419[h264 @ 0x6970d20] non-existing PPS 30 referenced
420[h264 @ 0x6970d20] decode_slice_header error
421[h264 @ 0x66ca000] non-existing PPS referenced
422[h264 @ 0x6c160e0] Partitioned H.264 support is incomplete
423[h264 @ 0x66ca000] non-existing PPS referenced
424[h264 @ 0x6970d20] non-existing PPS 18 referenced
425[h264 @ 0x6970d20] decode_slice_header error
426[h264 @ 0x6970d20] non-existing PPS 3 referenced
427[h264 @ 0x6970d20] decode_slice_header error
428Error while decoding stream #0:0: Operation not permitted
429[h264 @ 0x6c160e0] illegal reordering_of_pic_nums_idc
430[h264 @ 0x6c160e0] decode_slice_header error
431[h264 @ 0x66ca000] missing picture in access unit with size 5626
432[h264 @ 0x6970d20] number of reference frames (0+3) exceeds max (2; probably corrupt input), discarding one
433frame=    0 fps=0.0 q=0.0 size=       0kB time=00:00:00.00 bitrate=   0.0kbits/s   
434FMO not supported
435[h264 @ 0x66ca000] reference overflow (pps)
436[h264 @ 0x66ca000] missing picture in access unit with size 5506
437[h264 @ 0x6c160e0] FMO not supported
438[h264 @ 0x6c160e0] reference overflow (pps)
439[h264 @ 0x66ca000] illegal POC type 32
440[h264 @ 0x66ca000] missing picture in access unit with size 5534
441[h264 @ 0x6970d20] illegal POC type 32
442    Last message repeated 1 times
443[h264 @ 0x66ca000] illegal POC type 6
444[h264 @ 0x66ca000] non-existing PPS referenced
445[h264 @ 0x6c160e0] illegal POC type 6
446    Last message repeated 1 times
447[h264 @ 0x6c160e0] non-existing PPS 0 referenced
448[h264 @ 0x6c160e0] decode_slice_header error
449[h264 @ 0x66ca000] non-existing PPS referenced
450[h264 @ 0x6970d20] non-existing PPS 0 referenced
451[h264 @ 0x6970d20] decode_slice_header error
452[h264 @ 0x6970d20] slice type too large (3) at 1247 0
453[h264 @ 0x6970d20] decode_slice_header error
454[h264 @ 0x66ca000] log2_max_poc_lsb (13) is out of range
455[h264 @ 0x66ca000] missing picture in access unit with size 5449
456[h264 @ 0x6c160e0] log2_max_poc_lsb (13) is out of range
457    Last message repeated 1 times
458[h264 @ 0x66ca000] FMO not supported
459[h264 @ 0x66ca000] missing picture in access unit with size 5649
460[h264 @ 0x6970d20] FMO not supported
461[h264 @ 0x66ca000] missing picture in access unit with size 5602
462[h264 @ 0x6c160e0] reference overflow 30 > 15 or 0 > 15
463[h264 @ 0x6c160e0] decode_slice_header error
464[h264 @ 0x6c160e0] concealing 297024 DC, 297024 AC, 297024 MV errors in P frame
465[h264 @ 0x66ca000] sps_id (32) out of range
466[h264 @ 0x66ca000] missing picture in access unit with size 6007
467[h264 @ 0x6970d20] mmco: unref short failure
468[h264 @ 0x6970d20] number of reference frames (0+3) exceeds max (2; probably corrupt input), discarding one
469[h264 @ 0x6970d20] no frame!
470frame=    0 fps=0.0 q=0.0 size=       0kB time=00:00:00.00 bitrate=   0.0kbits/s   
471reference picture missing during reorder
472[h264 @ 0x6c160e0] reference picture missing during reorder
473[h264 @ 0x6c160e0] abs_diff_pic_num overflow
474[h264 @ 0x6c160e0] decode_slice_header error
475[h264 @ 0x6c160e0] sps_id (32) out of range
476    Last message repeated 1 times
477[h264 @ 0x6c160e0] sps_id out of range
478[h264 @ 0x6c160e0] illegal bit depth value (9, 17)
479    Last message repeated 1 times
480[h264 @ 0x6c160e0] non-existing PPS 1 referenced
481[h264 @ 0x6c160e0] decode_slice_header error
482Error while decoding stream #0:0: Operation not permitted
483[h264 @ 0x66ca000] log2_max_poc_lsb (14) is out of range
484[h264 @ 0x6970d20] number of reference frames (0+3) exceeds max (2; probably corrupt input), discarding one
485[h264 @ 0x6970d20] Missing reference picture
486    Last message repeated 28 times
487[h264 @ 0x6970d20] log2_max_poc_lsb (14) is out of range
488    Last message repeated 1 times
489[h264 @ 0x6970d20] slice type too large (2) at 0 1
490[h264 @ 0x6970d20] decode_slice_header error
491[h264 @ 0x6970d20] chroma_format_idc 6 is illegal
492    Last message repeated 1 times
493[h264 @ 0x6c160e0] Missing reference picture
494    Last message repeated 1 times
495[h264 @ 0x6c160e0] deblocking_filter_idc 32 out of range
496[h264 @ 0x6c160e0] decode_slice_header error
497[h264 @ 0x6c160e0] concealing 297024 DC, 297024 AC, 297024 MV errors in P frame
498frame=    0 fps=0.0 q=0.0 size=       0kB time=00:00:00.00 bitrate=   0.0kbits/s   
499missing picture in access unit with size 6047
500[h264 @ 0x6970d20] no frame!
501frame=    0 fps=0.0 q=0.0 size=       0kB time=00:00:00.00 bitrate=   0.0kbits/s   
502missing picture in access unit with size 5445
503[h264 @ 0x6c160e0] no frame!
504Error while decoding stream #0:0: Operation not permitted
505[h264 @ 0x6970d20] slice type too large (2) at 0 0
506[h264 @ 0x6970d20] decode_slice_header error
507[h264 @ 0x6970d20] no frame!
508Error while decoding stream #0:0: Operation not permitted
509[h264 @ 0x66ca000] missing picture in access unit with size 5993
510[h264 @ 0x6c160e0] no frame!
511Error while decoding stream #0:0: Operation not permitted
512[h264 @ 0x66ca000] non-existing PPS referenced
513[h264 @ 0x6970d20] non-existing PPS 11 referenced
514[h264 @ 0x6970d20] decode_slice_header error
515[h264 @ 0x6970d20] no frame!
516Error while decoding stream #0:0: Operation not permitted
517[h264 @ 0x66ca000] missing picture in access unit with size 5437
518[h264 @ 0x6c160e0] no frame!
519Error while decoding stream #0:0: Operation not permitted
520[h264 @ 0x66ca000] too many reference frames
521[h264 @ 0x6970d20] too many reference frames
522    Last message repeated 1 times
523[h264 @ 0x6970d20] Width/height/bit depth/chroma idc changing with threads is not implemented. Update your FFmpeg version to the newest one from Git. If the problem still occurs, it means that your file has a feature which has not been implemented.
524[h264 @ 0x6970d20] decode_slice_header error
525[h264 @ 0x6970d20] Width/height/bit depth/chroma idc changing with threads is not implemented. Update your FFmpeg version to the newest one from Git. If the problem still occurs, it means that your file has a feature which has not been implemented.
526[h264 @ 0x6970d20] decode_slice_header error
527[h264 @ 0x6970d20] illegal POC type 6
528[h264 @ 0x6970d20] sps_id (32) out of range
529[h264 @ 0x6970d20] no frame!
530Error while decoding stream #0:0: Operation not permitted
531[h264 @ 0x66ca000] insane cropping not completely supported, this could look slightly wrong ... (left: 1, top: 0)
532[h264 @ 0x66ca000] brainfart cropping not supported, cropping disabled (right: 113, bottom: 55)
533[h264 @ 0x66ca000] missing picture in access unit with size 5958
534[h264 @ 0x6c160e0] insane cropping not completely supported, this could look slightly wrong ... (left: 1, top: 0)
535[h264 @ 0x6c160e0] brainfart cropping not supported, cropping disabled (right: 113, bottom: 55)
536[h264 @ 0x6c160e0] no frame!
537Error while decoding stream #0:0: Operation not permitted
538[h264 @ 0x66ca000] missing picture in access unit with size 5786
539[h264 @ 0x6970d20] no frame!
540Error while decoding stream #0:0: Operation not permitted
541[h264 @ 0x6c160e0] Width/height/bit depth/chroma idc changing with threads is not implemented. Update your FFmpeg version to the newest one from Git. If the problem still occurs, it means that your file has a feature which has not been implemented.
542[h264 @ 0x6c160e0] decode_slice_header error
543[h264 @ 0x6c160e0] no frame!
544Error while decoding stream #0:0: Operation not permitted
545[h264 @ 0x66ca000] FMO not supported
546[h264 @ 0x66ca000] missing picture in access unit with size 5742
547[h264 @ 0x6970d20] FMO not supported
548[h264 @ 0x6970d20] no frame!
549Error while decoding stream #0:0: Operation not permitted
550[h264 @ 0x66ca000] missing picture in access unit with size 6181
551[h264 @ 0x6c160e0] no frame!
552Error while decoding stream #0:0: Operation not permitted
553[h264 @ 0x6970d20] Width/height/bit depth/chroma idc changing with threads is not implemented. Update your FFmpeg version to the newest one from Git. If the problem still occurs, it means that your file has a feature which has not been implemented.
554[h264 @ 0x6970d20] decode_slice_header error
555[h264 @ 0x6970d20] non-existing PPS 6 referenced
556[h264 @ 0x6970d20] decode_slice_header error
557[h264 @ 0x6970d20] insane cropping not completely supported, this could look slightly wrong ... (left: 2, top: 0)
558[h264 @ 0x6970d20] brainfart cropping not supported, cropping disabled (right: 30, bottom: 12)
559[h264 @ 0x6970d20] no frame!
560Error while decoding stream #0:0: Operation not permitted
561[h264 @ 0x66ca000] illegal POC type 14
562[h264 @ 0x66ca000] missing picture in access unit with size 5442
563[h264 @ 0x6c160e0] illegal POC type 14
564    Last message repeated 1 times
565[h264 @ 0x6c160e0] no frame!
566Error while decoding stream #0:0: Operation not permitted
567[h264 @ 0x66ca000] non-existing PPS referenced
568[h264 @ 0x6970d20] non-existing PPS 10 referenced
569[h264 @ 0x6970d20] decode_slice_header error
570[h264 @ 0x6970d20] Width/height/bit depth/chroma idc changing with threads is not implemented. Update your FFmpeg version to the newest one from Git. If the problem still occurs, it means that your file has a feature which has not been implemented.
571[h264 @ 0x6970d20] decode_slice_header error
572[h264 @ 0x6970d20] illegal aspect ratio
573    Last message repeated 1 times
574[h264 @ 0x6970d20] no frame!
575Error while decoding stream #0:0: Operation not permitted
576[h264 @ 0x66ca000] missing picture in access unit with size 6073
577[h264 @ 0x6c160e0] no frame!
578Error while decoding stream #0:0: Operation not permitted
579[h264 @ 0x6970d20] Width/height/bit depth/chroma idc changing with threads is not implemented. Update your FFmpeg version to the newest one from Git. If the problem still occurs, it means that your file has a feature which has not been implemented.
580[h264 @ 0x6970d20] decode_slice_header error
581[h264 @ 0x6970d20] slice type too large (2) at 0 0
582[h264 @ 0x6970d20] decode_slice_header error
583[h264 @ 0x6970d20] non-existing PPS 6 referenced
584[h264 @ 0x6970d20] decode_slice_header error
585[h264 @ 0x6970d20] too many reference frames
586    Last message repeated 1 times
587[h264 @ 0x6970d20] no frame!
588Error while decoding stream #0:0: Operation not permitted
589[h264 @ 0x6c160e0] Width/height/bit depth/chroma idc changing with threads is not implemented. Update your FFmpeg version to the newest one from Git. If the problem still occurs, it means that your file has a feature which has not been implemented.
590[h264 @ 0x6c160e0] decode_slice_header error
591[h264 @ 0x6c160e0] illegal POC type 13
592    Last message repeated 1 times
593[h264 @ 0x6c160e0] Width/height/bit depth/chroma idc changing with threads is not implemented. Update your FFmpeg version to the newest one from Git. If the problem still occurs, it means that your file has a feature which has not been implemented.
594[h264 @ 0x6c160e0] decode_slice_header error
595[h264 @ 0x6c160e0] no frame!
596Error while decoding stream #0:0: Operation not permitted
597[h264 @ 0x66ca000] insane cropping not completely supported, this could look slightly wrong ... (left: 12, top: 42)
598[h264 @ 0x66ca000] missing picture in access unit with size 5746
599[h264 @ 0x6970d20] insane cropping not completely supported, this could look slightly wrong ... (left: 12, top: 42)
600[h264 @ 0x6970d20] no frame!
601Error while decoding stream #0:0: Operation not permitted
602[h264 @ 0x6c160e0] Width/height/bit depth/chroma idc changing with threads is not implemented. Update your FFmpeg version to the newest one from Git. If the problem still occurs, it means that your file has a feature which has not been implemented.
603[h264 @ 0x6c160e0] decode_slice_header error
604[h264 @ 0x6c160e0] no frame!
605Error while decoding stream #0:0: Operation not permitted
606[h264 @ 0x66ca000] sps_id (32) out of range
607[h264 @ 0x66ca000] missing picture in access unit with size 5688
608[h264 @ 0x6970d20] sps_id (32) out of range
609    Last message repeated 1 times
610[h264 @ 0x6970d20] no frame!
611Error while decoding stream #0:0: Operation not permitted
612[h264 @ 0x66ca000] pps_id out of range
613[h264 @ 0x6c160e0] slice type too large (2) at 1247 237
614[h264 @ 0x6c160e0] decode_slice_header error
615[h264 @ 0x6c160e0] no frame!
616Error while decoding stream #0:0: Operation not permitted
617[h264 @ 0x6970d20] Width/height/bit depth/chroma idc changing with threads is not implemented. Update your FFmpeg version to the newest one from Git. If the problem still occurs, it means that your file has a feature which has not been implemented.
618[h264 @ 0x6970d20] decode_slice_header error
619[h264 @ 0x6970d20] non-existing PPS 6 referenced
620[h264 @ 0x6970d20] decode_slice_header error
621[h264 @ 0x6970d20] slice type too large (3) at 0 0
622[h264 @ 0x6970d20] decode_slice_header error
623[h264 @ 0x6970d20] no frame!
624Error while decoding stream #0:0: Operation not permitted
625[h264 @ 0x66ca000] missing picture in access unit with size 5986
626[h264 @ 0x6c160e0] no frame!
627Error while decoding stream #0:0: Operation not permitted
628[h264 @ 0x66ca000] insane cropping not completely supported, this could look slightly wrong ... (left: 0, top: 6)
629[h264 @ 0x66ca000] illegal aspect ratio
630[h264 @ 0x66ca000] missing picture in access unit with size 5648
631[h264 @ 0x6970d20] insane cropping not completely supported, this could look slightly wrong ... (left: 0, top: 6)
632[h264 @ 0x6970d20] illegal aspect ratio
633[h264 @ 0x6970d20] insane cropping not completely supported, this could look slightly wrong ... (left: 0, top: 6)
634[h264 @ 0x6970d20] illegal aspect ratio
635[h264 @ 0x6970d20] no frame!
636Error while decoding stream #0:0: Operation not permitted
637[h264 @ 0x6c160e0] Width/height/bit depth/chroma idc changing with threads is not implemented. Update your FFmpeg version to the newest one from Git. If the problem still occurs, it means that your file has a feature which has not been implemented.
638[h264 @ 0x6c160e0] decode_slice_header error
639[h264 @ 0x6c160e0] Width/height/bit depth/chroma idc changing with threads is not implemented. Update your FFmpeg version to the newest one from Git. If the problem still occurs, it means that your file has a feature which has not been implemented.
640[h264 @ 0x6c160e0] decode_slice_header error
641[h264 @ 0x6c160e0] Width/height/bit depth/chroma idc changing with threads is not implemented. Update your FFmpeg version to the newest one from Git. If the problem still occurs, it means that your file has a feature which has not been implemented.
642[h264 @ 0x6c160e0] decode_slice_header error
643[h264 @ 0x6c160e0] no frame!
644Error while decoding stream #0:0: Operation not permitted
645[h264 @ 0x6970d20] Width/height/bit depth/chroma idc changing with threads is not implemented. Update your FFmpeg version to the newest one from Git. If the problem still occurs, it means that your file has a feature which has not been implemented.
646[h264 @ 0x6970d20] decode_slice_header error
647[h264 @ 0x6970d20] insane cropping not completely supported, this could look slightly wrong ... (left: 0, top: 33)
648[h264 @ 0x6970d20] brainfart cropping not supported, cropping disabled (right: 29, bottom: 0)
649[h264 @ 0x6970d20] no frame!
650Error while decoding stream #0:0: Operation not permitted
651[h264 @ 0x66ca000] sps_id out of range
652[h264 @ 0x66ca000] missing picture in access unit with size 5805
653[h264 @ 0x6c160e0] non-existing PPS 6 referenced
654[h264 @ 0x6c160e0] decode_slice_header error
655[h264 @ 0x6c160e0] sps_id out of range
656[h264 @ 0x6c160e0] no frame!
657Error while decoding stream #0:0: Operation not permitted
658[h264 @ 0x66ca000] non-existing PPS referenced
659[h264 @ 0x6970d20] Partitioned H.264 support is incomplete
660Error while decoding stream #0:0: Operation not permitted
661[h264 @ 0x6c160e0] slice type too large (1) at 1247 237
662[h264 @ 0x6c160e0] decode_slice_header error
663[h264 @ 0x6c160e0] Width/height/bit depth/chroma idc changing with threads is not implemented. Update your FFmpeg version to the newest one from Git. If the problem still occurs, it means that your file has a feature which has not been implemented.
664[h264 @ 0x6c160e0] decode_slice_header error
665[h264 @ 0x6c160e0] no frame!
666Error while decoding stream #0:0: Operation not permitted
667[h264 @ 0x66ca000] non-existing PPS referenced
668[h264 @ 0x6970d20] non-existing PPS 60 referenced
669[h264 @ 0x6970d20] decode_slice_header error
670[h264 @ 0x6970d20] FMO not supported
671[h264 @ 0x6970d20] no frame!
672Error while decoding stream #0:0: Operation not permitted
673[h264 @ 0x66ca000] missing picture in access unit with size 5744
674[h264 @ 0x6c160e0] no frame!
675Error while decoding stream #0:0: Operation not permitted
676[h264 @ 0x6970d20] Width/height/bit depth/chroma idc changing with threads is not implemented. Update your FFmpeg version to the newest one from Git. If the problem still occurs, it means that your file has a feature which has not been implemented.
677[h264 @ 0x6970d20] decode_slice_header error
678[h264 @ 0x6970d20] no frame!
679Error while decoding stream #0:0: Operation not permitted
680[h264 @ 0x66ca000] missing picture in access unit with size 5084
681[h264 @ 0x6c160e0] no frame!
682Error while decoding stream #0:0: Operation not permitted
683[h264 @ 0x66ca000] non-existing PPS referenced
684[h264 @ 0x6970d20] non-existing PPS 223 referenced
685[h264 @ 0x6970d20] decode_slice_header error
686[h264 @ 0x6970d20] Width/height/bit depth/chroma idc changing with threads is not implemented. Update your FFmpeg version to the newest one from Git. If the problem still occurs, it means that your file has a feature which has not been implemented.
687[h264 @ 0x6970d20] decode_slice_header error
688[h264 @ 0x6970d20] no frame!
689Error while decoding stream #0:0: Operation not permitted
690[h264 @ 0x66ca000] missing picture in access unit with size 5710
691[h264 @ 0x6c160e0] no frame!
692Error while decoding stream #0:0: Operation not permitted
693[h264 @ 0x66ca000] missing picture in access unit with size 5410
694[h264 @ 0x6970d20] non-existing PPS 29 referenced
695[h264 @ 0x6970d20] decode_slice_header error
696[h264 @ 0x6970d20] no frame!
697Error while decoding stream #0:0: Operation not permitted
698[h264 @ 0x6c160e0] Width/height/bit depth/chroma idc changing with threads is not implemented. Update your FFmpeg version to the newest one from Git. If the problem still occurs, it means that your file has a feature which has not been implemented.
699[h264 @ 0x6c160e0] decode_slice_header error
700[h264 @ 0x6c160e0] illegal log2_max_frame_num 227
701    Last message repeated 1 times
702[h264 @ 0x6c160e0] Width/height/bit depth/chroma idc changing with threads is not implemented. Update your FFmpeg version to the newest one from Git. If the problem still occurs, it means that your file has a feature which has not been implemented.
703[h264 @ 0x6c160e0] decode_slice_header error
704[h264 @ 0x6c160e0] no frame!
705Error while decoding stream #0:0: Operation not permitted
706[h264 @ 0x66ca000] missing picture in access unit with size 5281
707[h264 @ 0x6970d20] no frame!
708Error while decoding stream #0:0: Operation not permitted
709[h264 @ 0x66ca000] missing picture in access unit with size 5595
710[h264 @ 0x6c160e0] no frame!
711Error while decoding stream #0:0: Operation not permitted
712[h264 @ 0x66ca000] non-existing PPS referenced
713[h264 @ 0x6970d20] Width/height/bit depth/chroma idc changing with threads is not implemented. Update your FFmpeg version to the newest one from Git. If the problem still occurs, it means that your file has a feature which has not been implemented.
714[h264 @ 0x6970d20] decode_slice_header error
715[h264 @ 0x6970d20] non-existing PPS 29 referenced
716[h264 @ 0x6970d20] decode_slice_header error
717[h264 @ 0x6970d20] illegal POC type 10
718[h264 @ 0x6970d20] sps_id (32) out of range
719[h264 @ 0x6970d20] Width/height/bit depth/chroma idc changing with threads is not implemented. Update your FFmpeg version to the newest one from Git. If the problem still occurs, it means that your file has a feature which has not been implemented.
720[h264 @ 0x6970d20] decode_slice_header error
721[h264 @ 0x6970d20] FMO not supported
722[h264 @ 0x6970d20] no frame!
723Error while decoding stream #0:0: Operation not permitted
724[h264 @ 0x6c160e0] Width/height/bit depth/chroma idc changing with threads is not implemented. Update your FFmpeg version to the newest one from Git. If the problem still occurs, it means that your file has a feature which has not been implemented.
725[h264 @ 0x6c160e0] decode_slice_header error
726[h264 @ 0x6c160e0] Width/height/bit depth/chroma idc changing with threads is not implemented. Update your FFmpeg version to the newest one from Git. If the problem still occurs, it means that your file has a feature which has not been implemented.
727[h264 @ 0x6c160e0] decode_slice_header error
728[h264 @ 0x6c160e0] no frame!
729Error while decoding stream #0:0: Operation not permitted
730[h264 @ 0x66ca000] non-existing SPS 10 referenced in buffering period
731[h264 @ 0x66ca000] missing picture in access unit with size 5220
732[h264 @ 0x6970d20] non-existing SPS 10 referenced in buffering period
733[h264 @ 0x6970d20] no frame!
734Error while decoding stream #0:0: Operation not permitted
735[h264 @ 0x66ca000] non-existing PPS referenced
736[h264 @ 0x6c160e0] slice type too large (2) at 1247 237
737[h264 @ 0x6c160e0] decode_slice_header error
738[h264 @ 0x6c160e0] no frame!
739Error while decoding stream #0:0: Operation not permitted
740[h264 @ 0x66ca000] missing picture in access unit with size 5173
741[h264 @ 0x6970d20] no frame!
742Error while decoding stream #0:0: Operation not permitted
743[h264 @ 0x66ca000] illegal log2_max_frame_num 28
744[h264 @ 0x66ca000] missing picture in access unit with size 4679
745[h264 @ 0x6c160e0] illegal log2_max_frame_num 28
746    Last message repeated 1 times
747[h264 @ 0x6c160e0] no frame!
748Error while decoding stream #0:0: Operation not permitted
749[h264 @ 0x6970d20] Width/height/bit depth/chroma idc changing with threads is not implemented. Update your FFmpeg version to the newest one from Git. If the problem still occurs, it means that your file has a feature which has not been implemented.
750[h264 @ 0x6970d20] decode_slice_header error
751[h264 @ 0x6970d20] no frame!
752Error while decoding stream #0:0: Operation not permitted
753[h264 @ 0x66ca000] missing picture in access unit with size 5556
754[h264 @ 0x6c160e0] no frame!
755Error while decoding stream #0:0: Operation not permitted
756[h264 @ 0x6970d20] Width/height/bit depth/chroma idc changing with threads is not implemented. Update your FFmpeg version to the newest one from Git. If the problem still occurs, it means that your file has a feature which has not been implemented.
757[h264 @ 0x6970d20] decode_slice_header error
758[h264 @ 0x6970d20] no frame!
759Error while decoding stream #0:0: Operation not permitted
760[h264 @ 0x6c160e0] Width/height/bit depth/chroma idc changing with threads is not implemented. Update your FFmpeg version to the newest one from Git. If the problem still occurs, it means that your file has a feature which has not been implemented.
761[h264 @ 0x6c160e0] decode_slice_header error
762[h264 @ 0x6c160e0] no frame!
763Error while decoding stream #0:0: Operation not permitted
764[h264 @ 0x66ca000] missing picture in access unit with size 4978
765[h264 @ 0x6970d20] no frame!
766Error while decoding stream #0:0: Operation not permitted
767[h264 @ 0x66ca000] missing picture in access unit with size 5284
768[h264 @ 0x6c160e0] no frame!
769Error while decoding stream #0:0: Operation not permitted
770[h264 @ 0x66ca000] missing picture in access unit with size 4784
771[h264 @ 0x6970d20] no frame!
772Error while decoding stream #0:0: Operation not permitted
773[h264 @ 0x6c160e0] Partitioned H.264 support is incomplete
774Error while decoding stream #0:0: Operation not permitted
775[h264 @ 0x66ca000] illegal aspect ratio
776[h264 @ 0x66ca000] missing picture in access unit with size 4968
777[h264 @ 0x6970d20] illegal aspect ratio
778[h264 @ 0x6970d20] illegal log2_max_frame_num 124
779[h264 @ 0x6970d20] no frame!
780Error while decoding stream #0:0: Operation not permitted
781[h264 @ 0x66ca000] missing picture in access unit with size 5388
782[h264 @ 0x6c160e0] no frame!
783Error while decoding stream #0:0: Operation not permitted
784[h264 @ 0x66ca000] missing picture in access unit with size 5148
785[h264 @ 0x6970d20] no frame!
786Error while decoding stream #0:0: Operation not permitted
787[h264 @ 0x6c160e0] Width/height/bit depth/chroma idc changing with threads is not implemented. Update your FFmpeg version to the newest one from Git. If the problem still occurs, it means that your file has a feature which has not been implemented.
788[h264 @ 0x6c160e0] decode_slice_header error
789[h264 @ 0x6c160e0] no frame!
790Error while decoding stream #0:0: Operation not permitted
791[h264 @ 0x66ca000] missing picture in access unit with size 5042
792[h264 @ 0x6970d20] no frame!
793Error while decoding stream #0:0: Operation not permitted
794[h264 @ 0x66ca000] missing picture in access unit with size 5478
795[h264 @ 0x6c160e0] Width/height/bit depth/chroma idc changing with threads is not implemented. Update your FFmpeg version to the newest one from Git. If the problem still occurs, it means that your file has a feature which has not been implemented.
796[h264 @ 0x6c160e0] decode_slice_header error
797[h264 @ 0x6c160e0] no frame!
798Error while decoding stream #0:0: Operation not permitted
799[h264 @ 0x66ca000] FMO not supported
800[h264 @ 0x6970d20] FMO not supported
801[h264 @ 0x6970d20] Width/height/bit depth/chroma idc changing with threads is not implemented. Update your FFmpeg version to the newest one from Git. If the problem still occurs, it means that your file has a feature which has not been implemented.
802[h264 @ 0x6970d20] decode_slice_header error
803[h264 @ 0x6970d20] no frame!
804Error while decoding stream #0:0: Operation not permitted
805[h264 @ 0x6c160e0] Width/height/bit depth/chroma idc changing with threads is not implemented. Update your FFmpeg version to the newest one from Git. If the problem still occurs, it means that your file has a feature which has not been implemented.
806[h264 @ 0x6c160e0] decode_slice_header error
807[h264 @ 0x6c160e0] Partitioned H.264 support is incomplete
808Error while decoding stream #0:0: Operation not permitted
809[h264 @ 0x66ca000] missing picture in access unit with size 5191
810[h264 @ 0x6970d20] no frame!
811Error while decoding stream #0:0: Operation not permitted
812[h264 @ 0x6c160e0] Width/height/bit depth/chroma idc changing with threads is not implemented. Update your FFmpeg version to the newest one from Git. If the problem still occurs, it means that your file has a feature which has not been implemented.
813[h264 @ 0x6c160e0] decode_slice_header error
814[h264 @ 0x6c160e0] Partitioned H.264 support is incomplete
815Error while decoding stream #0:0: Operation not permitted
816[h264 @ 0x66ca000] non-existing PPS referenced
817[h264 @ 0x6970d20] non-existing PPS 3 referenced
818[h264 @ 0x6970d20] decode_slice_header error
819[h264 @ 0x6970d20] no frame!
820Error while decoding stream #0:0: Operation not permitted
821[h264 @ 0x66ca000] sps_id (32) out of range
822[h264 @ 0x66ca000] FMO not supported
823[h264 @ 0x66ca000] missing picture in access unit with size 4329
824[h264 @ 0x6c160e0] sps_id (32) out of range
825    Last message repeated 1 times
826[h264 @ 0x6c160e0] FMO not supported
827[h264 @ 0x6c160e0] no frame!
828Error while decoding stream #0:0: Operation not permitted
829[h264 @ 0x66ca000] FMO not supported
830[h264 @ 0x66ca000] missing picture in access unit with size 5077
831[h264 @ 0x6970d20] FMO not supported
832[h264 @ 0x6970d20] no frame!
833Error while decoding stream #0:0: Operation not permitted
834[h264 @ 0x66ca000] missing picture in access unit with size 5420
835[h264 @ 0x6c160e0] no frame!
836Error while decoding stream #0:0: Operation not permitted
837[h264 @ 0x66ca000] missing picture in access unit with size 4989
838[h264 @ 0x6970d20] Width/height/bit depth/chroma idc changing with threads is not implemented. Update your FFmpeg version to the newest one from Git. If the problem still occurs, it means that your file has a feature which has not been implemented.
839[h264 @ 0x6970d20] decode_slice_header error
840[h264 @ 0x6970d20] no frame!
841Error while decoding stream #0:0: Operation not permitted
842[h264 @ 0x66ca000] missing picture in access unit with size 4475
843[h264 @ 0x6c160e0] Width/height/bit depth/chroma idc changing with threads is not implemented. Update your FFmpeg version to the newest one from Git. If the problem still occurs, it means that your file has a feature which has not been implemented.
844[h264 @ 0x6c160e0] decode_slice_header error
845[h264 @ 0x6c160e0] no frame!
846Error while decoding stream #0:0: Operation not permitted
847[h264 @ 0x66ca000] non-existing PPS referenced
848[h264 @ 0x6970d20] non-existing PPS 8 referenced
849[h264 @ 0x6970d20] decode_slice_header error
850[h264 @ 0x6970d20] no frame!
851Error while decoding stream #0:0: Operation not permitted
852[h264 @ 0x66ca000] missing picture in access unit with size 5686
853Error while decoding stream #0:0: Operation not permitted
854[h264 @ 0x66ca000] missing picture in access unit with size 5416
855[h264 @ 0x6970d20] Width/height/bit depth/chroma idc changing with threads is not implemented. Update your FFmpeg version to the newest one from Git. If the problem still occurs, it means that your file has a feature which has not been implemented.
856[h264 @ 0x6970d20] decode_slice_header error
857[h264 @ 0x6970d20] no frame!
858[h264 @ 0x6c160e0] Width/height/bit depth/chroma idc changing with threads is not implemented. Update your FFmpeg version to the newest one from Git. If the problem still occurs, it means that your file has a feature which has not been implemented.
859[h264 @ 0x6c160e0] decode_slice_header error
860[h264 @ 0x6c160e0] no frame!
861Error while decoding stream #0:0: Operation not permitted
862[h264 @ 0x66ca000] missing picture in access unit with size 5152
863[h264 @ 0x6970d20] no frame!
864Error while decoding stream #0:0: Operation not permitted
865[h264 @ 0x66ca000] missing picture in access unit with size 5579
866[h264 @ 0x6c160e0] no frame!
867Error while decoding stream #0:0: Operation not permitted
868[h264 @ 0x66ca000] missing picture in access unit with size 5150
869[h264 @ 0x6970d20] no frame!
870Error while decoding stream #0:0: Operation not permitted
871[h264 @ 0x66ca000] reference overflow (pps)
872[h264 @ 0x6c160e0] reference overflow (pps)
873[h264 @ 0x6c160e0] Width/height/bit depth/chroma idc changing with threads is not implemented. Update your FFmpeg version to the newest one from Git. If the problem still occurs, it means that your file has a feature which has not been implemented.
874[h264 @ 0x6c160e0] decode_slice_header error
875[h264 @ 0x6c160e0] slice type too large (2) at 1247 237
876[h264 @ 0x6c160e0] decode_slice_header error
877[h264 @ 0x6c160e0] no frame!
878Error while decoding stream #0:0: Operation not permitted
879[h264 @ 0x66ca000] missing picture in access unit with size 5244
880[h264 @ 0x6970d20] Partitioned H.264 support is incomplete
881Error while decoding stream #0:0: Operation not permitted
882[h264 @ 0x66ca000] missing picture in access unit with size 5603
883[h264 @ 0x6c160e0] no frame!
884Error while decoding stream #0:0: Operation not permitted
885[h264 @ 0x66ca000] missing picture in access unit with size 5425
886[h264 @ 0x6970d20] no frame!
887Error while decoding stream #0:0: Operation not permitted
888[h264 @ 0x66ca000] insane cropping not completely supported, this could look slightly wrong ... (left: 13, top: 1)
889[h264 @ 0x66ca000] illegal aspect ratio
890[h264 @ 0x66ca000] missing picture in access unit with size 4605
891[h264 @ 0x6c160e0] insane cropping not completely supported, this could look slightly wrong ... (left: 13, top: 1)
892[h264 @ 0x6c160e0] illegal aspect ratio
893[h264 @ 0x6c160e0] insane cropping not completely supported, this could look slightly wrong ... (left: 13, top: 1)
894[h264 @ 0x6c160e0] illegal aspect ratio
895[h264 @ 0x6c160e0] no frame!
896Error while decoding stream #0:0: Operation not permitted
897[h264 @ 0x66ca000] missing picture in access unit with size 5472
898[h264 @ 0x6970d20] no frame!
899Error while decoding stream #0:0: Operation not permitted
900[h264 @ 0x66ca000] FMO not supported
901[h264 @ 0x6c160e0] FMO not supported
902[h264 @ 0x6c160e0] Width/height/bit depth/chroma idc changing with threads is not implemented. Update your FFmpeg version to the newest one from Git. If the problem still occurs, it means that your file has a feature which has not been implemented.
903[h264 @ 0x6c160e0] decode_slice_header error
904[h264 @ 0x6c160e0] no frame!
905Error while decoding stream #0:0: Operation not permitted
906[h264 @ 0x66ca000] missing picture in access unit with size 5336
907[h264 @ 0x6970d20] no frame!
908Error while decoding stream #0:0: Operation not permitted
909[h264 @ 0x6c160e0] Width/height/bit depth/chroma idc changing with threads is not implemented. Update your FFmpeg version to the newest one from Git. If the problem still occurs, it means that your file has a feature which has not been implemented.
910[h264 @ 0x6c160e0] decode_slice_header error
911[h264 @ 0x6c160e0] no frame!
912Error while decoding stream #0:0: Operation not permitted
913[h264 @ 0x6970d20] Width/height/bit depth/chroma idc changing with threads is not implemented. Update your FFmpeg version to the newest one from Git. If the problem still occurs, it means that your file has a feature which has not been implemented.
914[h264 @ 0x6970d20] decode_slice_header error
915[h264 @ 0x6970d20] Width/height/bit depth/chroma idc changing with threads is not implemented. Update your FFmpeg version to the newest one from Git. If the problem still occurs, it means that your file has a feature which has not been implemented.
916[h264 @ 0x6970d20] decode_slice_header error
917[h264 @ 0x6970d20] no frame!
918Error while decoding stream #0:0: Operation not permitted
919[h264 @ 0x6c160e0] Partitioned H.264 support is incomplete
920Error while decoding stream #0:0: Operation not permitted
921[h264 @ 0x66ca000] missing picture in access unit with size 4648
922[h264 @ 0x6970d20] no frame!
923Error while decoding stream #0:0: Operation not permitted
924[h264 @ 0x66ca000] missing picture in access unit with size 4097
925[h264 @ 0x6c160e0] no frame!
926Error while decoding stream #0:0: Operation not permitted
927[h264 @ 0x66ca000] missing picture in access unit with size 4699
928[h264 @ 0x6970d20] no frame!
929Error while decoding stream #0:0: Operation not permitted
930[h264 @ 0x66ca000] missing picture in access unit with size 4717
931[h264 @ 0x6c160e0] no frame!
932Error while decoding stream #0:0: Operation not permitted
933[h264 @ 0x66ca000] non-existing PPS referenced
934[h264 @ 0x6970d20] non-existing PPS 140 referenced
935[h264 @ 0x6970d20] decode_slice_header error
936[h264 @ 0x6970d20] no frame!
937Error while decoding stream #0:0: Operation not permitted
938[h264 @ 0x66ca000] non-existing PPS referenced
939[h264 @ 0x6c160e0] non-existing PPS 14 referenced
940[h264 @ 0x6c160e0] decode_slice_header error
941[h264 @ 0x6c160e0] Width/height/bit depth/chroma idc changing with threads is not implemented. Update your FFmpeg version to the newest one from Git. If the problem still occurs, it means that your file has a feature which has not been implemented.
942[h264 @ 0x6c160e0] decode_slice_header error
943[h264 @ 0x6c160e0] no frame!
944Error while decoding stream #0:0: Operation not permitted
945[h264 @ 0x66ca000] missing picture in access unit with size 4114
946[h264 @ 0x6970d20] no frame!
947Error while decoding stream #0:0: Operation not permitted
948[h264 @ 0x66ca000] illegal aspect ratio
949[h264 @ 0x66ca000] missing picture in access unit with size 4412
950[h264 @ 0x6c160e0] Width/height/bit depth/chroma idc changing with threads is not implemented. Update your FFmpeg version to the newest one from Git. If the problem still occurs, it means that your file has a feature which has not been implemented.
951[h264 @ 0x6c160e0] decode_slice_header error
952[h264 @ 0x6c160e0] illegal aspect ratio
953[h264 @ 0x6c160e0] sps_id (32) out of range
954[h264 @ 0x6c160e0] no frame!
955Error while decoding stream #0:0: Operation not permitted
956[h264 @ 0x66ca000] illegal log2_max_frame_num 116
957[h264 @ 0x66ca000] missing picture in access unit with size 4065
958[h264 @ 0x6970d20] illegal log2_max_frame_num 116
959    Last message repeated 1 times
960[h264 @ 0x6970d20] no frame!
961Error while decoding stream #0:0: Operation not permitted
962[h264 @ 0x6c160e0] slice type too large (2) at 1247 237
963[h264 @ 0x6c160e0] decode_slice_header error
964[h264 @ 0x6c160e0] no frame!
965Error while decoding stream #0:0: Operation not permitted
966[h264 @ 0x6970d20] Width/height/bit depth/chroma idc changing with threads is not implemented. Update your FFmpeg version to the newest one from Git. If the problem still occurs, it means that your file has a feature which has not been implemented.
967[h264 @ 0x6970d20] decode_slice_header error
968[h264 @ 0x6970d20] no frame!
969Error while decoding stream #0:0: Operation not permitted
970[h264 @ 0x66ca000] missing picture in access unit with size 4553
971[h264 @ 0x6c160e0] no frame!
972Error while decoding stream #0:0: Operation not permitted
973[h264 @ 0x6970d20] Width/height/bit depth/chroma idc changing with threads is not implemented. Update your FFmpeg version to the newest one from Git. If the problem still occurs, it means that your file has a feature which has not been implemented.
974[h264 @ 0x6970d20] decode_slice_header error
975[h264 @ 0x6970d20] no frame!
976Error while decoding stream #0:0: Operation not permitted
977[h264 @ 0x66ca000] illegal POC type 12
978[h264 @ 0x66ca000] missing picture in access unit with size 3536
979[h264 @ 0x6c160e0] illegal POC type 12
980    Last message repeated 1 times
981[h264 @ 0x6c160e0] no frame!
982Error while decoding stream #0:0: Operation not permitted
983[h264 @ 0x6970d20] Width/height/bit depth/chroma idc changing with threads is not implemented. Update your FFmpeg version to the newest one from Git. If the problem still occurs, it means that your file has a feature which has not been implemented.
984[h264 @ 0x6970d20] decode_slice_header error
985[h264 @ 0x6970d20] no frame!
986Error while decoding stream #0:0: Operation not permitted
987[h264 @ 0x66ca000] missing picture in access unit with size 4030
988[h264 @ 0x6c160e0] no frame!
989Error while decoding stream #0:0: Operation not permitted
990[h264 @ 0x66ca000] illegal log2_max_frame_num 6127
991[h264 @ 0x66ca000] missing picture in access unit with size 3747
992[h264 @ 0x6970d20] Width/height/bit depth/chroma idc changing with threads is not implemented. Update your FFmpeg version to the newest one from Git. If the problem still occurs, it means that your file has a feature which has not been implemented.
993[h264 @ 0x6970d20] decode_slice_header error
994[h264 @ 0x6970d20] illegal log2_max_frame_num 6127
995    Last message repeated 1 times
996[h264 @ 0x6970d20] Partitioned H.264 support is incomplete
997Error while decoding stream #0:0: Operation not permitted
998[h264 @ 0x66ca000] non-existing PPS referenced
999[h264 @ 0x6c160e0] non-existing PPS 6 referenced
1000[h264 @ 0x6c160e0] decode_slice_header error
1001[h264 @ 0x6c160e0] no frame!
1002Error while decoding stream #0:0: Operation not permitted
1003[h264 @ 0x6970d20] Width/height/bit depth/chroma idc changing with threads is not implemented. Update your FFmpeg version to the newest one from Git. If the problem still occurs, it means that your file has a feature which has not been implemented.
1004[h264 @ 0x6970d20] decode_slice_header error
1005[h264 @ 0x6970d20] no frame!
1006Error while decoding stream #0:0: Operation not permitted
1007[h264 @ 0x66ca000] missing picture in access unit with size 3906
1008[h264 @ 0x6c160e0] no frame!
1009Error while decoding stream #0:0: Operation not permitted
1010[h264 @ 0x66ca000] missing picture in access unit with size 3757
1011[h264 @ 0x6970d20] no frame!
1012Error while decoding stream #0:0: Operation not permitted
1013[h264 @ 0x66ca000] missing picture in access unit with size 3306
1014[h264 @ 0x6c160e0] no frame!
1015Error while decoding stream #0:0: Operation not permitted
1016[h264 @ 0x66ca000] missing picture in access unit with size 3790
1017[h264 @ 0x6970d20] no frame!
1018Error while decoding stream #0:0: Operation not permitted
1019[h264 @ 0x6c160e0] Partitioned H.264 support is incomplete
1020Error while decoding stream #0:0: Operation not permitted
1021[h264 @ 0x66ca000] missing picture in access unit with size 3609
1022[h264 @ 0x6970d20] no frame!
1023Error while decoding stream #0:0: Operation not permitted
1024[h264 @ 0x66ca000] missing picture in access unit with size 3265
1025[h264 @ 0x6c160e0] slice type too large (2) at 1247 237
1026[h264 @ 0x6c160e0] decode_slice_header error
1027[h264 @ 0x6c160e0] no frame!
1028Error while decoding stream #0:0: Operation not permitted
1029[h264 @ 0x66ca000] missing picture in access unit with size 3724
1030[h264 @ 0x6970d20] no frame!
1031Error while decoding stream #0:0: Operation not permitted
1032[h264 @ 0x66ca000] missing picture in access unit with size 3743
1033[h264 @ 0x6c160e0] no frame!
1034Error while decoding stream #0:0: Operation not permitted
1035[h264 @ 0x66ca000] missing picture in access unit with size 3640
1036[h264 @ 0x6970d20] Width/height/bit depth/chroma idc changing with threads is not implemented. Update your FFmpeg version to the newest one from Git. If the problem still occurs, it means that your file has a feature which has not been implemented.
1037[h264 @ 0x6970d20] decode_slice_header error
1038[h264 @ 0x6970d20] no frame!
1039Error while decoding stream #0:0: Operation not permitted
1040[h264 @ 0x66ca000] missing picture in access unit with size 3205
1041[h264 @ 0x6c160e0] no frame!
1042Error while decoding stream #0:0: Operation not permitted
1043[h264 @ 0x66ca000] FMO not supported
1044[h264 @ 0x66ca000] missing picture in access unit with size 3628
1045[h264 @ 0x6970d20] FMO not supported
1046[h264 @ 0x6970d20] no frame!
1047Error while decoding stream #0:0: Operation not permitted
1048[h264 @ 0x66ca000] illegal POC type 6
1049[h264 @ 0x66ca000] missing picture in access unit with size 4026
1050[h264 @ 0x6c160e0] illegal POC type 6
1051    Last message repeated 1 times
1052[h264 @ 0x6c160e0] no frame!
1053Error while decoding stream #0:0: Operation not permitted
1054[h264 @ 0x6970d20] Width/height/bit depth/chroma idc changing with threads is not implemented. Update your FFmpeg version to the newest one from Git. If the problem still occurs, it means that your file has a feature which has not been implemented.
1055[h264 @ 0x6970d20] decode_slice_header error
1056[h264 @ 0x6970d20] FMO not supported
1057[h264 @ 0x6970d20] no frame!
1058Error while decoding stream #0:0: Operation not permitted
1059[h264 @ 0x66ca000] missing picture in access unit with size 3072
1060[h264 @ 0x6c160e0] no frame!
1061Error while decoding stream #0:0: Operation not permitted
1062[h264 @ 0x66ca000] missing picture in access unit with size 3547
1063[h264 @ 0x6970d20] Partitioned H.264 support is incomplete
1064Error while decoding stream #0:0: Operation not permitted
1065[h264 @ 0x66ca000] missing picture in access unit with size 3870
1066[h264 @ 0x6c160e0] no frame!
1067Error while decoding stream #0:0: Operation not permitted
1068[h264 @ 0x66ca000] sps_id (32) out of range
1069[h264 @ 0x66ca000] FMO not supported
1070[h264 @ 0x66ca000] missing picture in access unit with size 3441
1071[h264 @ 0x6970d20] sps_id (32) out of range
1072    Last message repeated 1 times
1073[h264 @ 0x6970d20] FMO not supported
1074[h264 @ 0x6970d20] no frame!
1075Error while decoding stream #0:0: Operation not permitted
1076[h264 @ 0x66ca000] missing picture in access unit with size 3163
1077[h264 @ 0x6c160e0] no frame!
1078Error while decoding stream #0:0: Operation not permitted
1079[h264 @ 0x66ca000] missing picture in access unit with size 3473
1080[h264 @ 0x6970d20] no frame!
1081Error while decoding stream #0:0: Operation not permitted
1082[h264 @ 0x6c160e0] Width/height/bit depth/chroma idc changing with threads is not implemented. Update your FFmpeg version to the newest one from Git. If the problem still occurs, it means that your file has a feature which has not been implemented.
1083[h264 @ 0x6c160e0] decode_slice_header error
1084[h264 @ 0x6c160e0] no frame!
1085Error while decoding stream #0:0: Operation not permitted
1086[h264 @ 0x66ca000] missing picture in access unit with size 3242
1087[h264 @ 0x6970d20] no frame!
1088Error while decoding stream #0:0: Operation not permitted
1089[h264 @ 0x66ca000] non-existing SPS 13 referenced in buffering period
1090[h264 @ 0x66ca000] missing picture in access unit with size 2957
1091[h264 @ 0x6c160e0] Partitioned H.264 support is incomplete
1092Error while decoding stream #0:0: Operation not permitted
1093[h264 @ 0x6970d20] Width/height/bit depth/chroma idc changing with threads is not implemented. Update your FFmpeg version to the newest one from Git. If the problem still occurs, it means that your file has a feature which has not been implemented.
1094[h264 @ 0x6970d20] decode_slice_header error
1095[h264 @ 0x6970d20] no frame!
1096Error while decoding stream #0:0: Operation not permitted
1097[h264 @ 0x66ca000] missing picture in access unit with size 3574
1098[h264 @ 0x6c160e0] no frame!
1099Error while decoding stream #0:0: Operation not permitted
1100[h264 @ 0x66ca000] missing picture in access unit with size 3322
1101[h264 @ 0x6970d20] no frame!
1102Error while decoding stream #0:0: Operation not permitted
1103[h264 @ 0x66ca000] missing picture in access unit with size 2872
1104[h264 @ 0x6c160e0] no frame!
1105Error while decoding stream #0:0: Operation not permitted
1106[h264 @ 0x66ca000] missing picture in access unit with size 3321
1107Error while decoding stream #0:0: Operation not permitted
1108[h264 @ 0x66ca000] missing picture in access unit with size 3435
1109[h264 @ 0x6c160e0] no frame!
1110[h264 @ 0x66ca000] illegal POC type 3
1111[h264 @ 0x66ca000] missing picture in access unit with size 3017
1112[h264 @ 0x6970d20] illegal POC type 3
1113    Last message repeated 1 times
1114[h264 @ 0x6970d20] no frame!
1115Error while decoding stream #0:0: Operation not permitted
1116[h264 @ 0x6c160e0] Partitioned H.264 support is incomplete
1117Error while decoding stream #0:0: Operation not permitted
1118[h264 @ 0x66ca000] missing picture in access unit with size 3106
1119[h264 @ 0x6970d20] no frame!
1120Error while decoding stream #0:0: Operation not permitted
1121[h264 @ 0x66ca000] missing picture in access unit with size 3288
1122[h264 @ 0x6c160e0] no frame!
1123Error while decoding stream #0:0: Operation not permitted
1124[h264 @ 0x66ca000] non-existing PPS referenced
1125[h264 @ 0x6970d20] non-existing PPS 3 referenced
1126[h264 @ 0x6970d20] decode_slice_header error
1127[h264 @ 0x6970d20] no frame!
1128Error while decoding stream #0:0: Operation not permitted
1129[h264 @ 0x66ca000] missing picture in access unit with size 2702
1130[h264 @ 0x6c160e0] no frame!
1131Error while decoding stream #0:0: Operation not permitted
1132[h264 @ 0x66ca000] insane cropping not completely supported, this could look slightly wrong ... (left: 10, top: 0)
1133[h264 @ 0x6970d20] insane cropping not completely supported, this could look slightly wrong ... (left: 10, top: 0)
1134[h264 @ 0x6970d20] Width/height/bit depth/chroma idc changing with threads is not implemented. Update your FFmpeg version to the newest one from Git. If the problem still occurs, it means that your file has a feature which has not been implemented.
1135[h264 @ 0x6970d20] decode_slice_header error
1136[h264 @ 0x6970d20] no frame!
1137Error while decoding stream #0:0: Operation not permitted
1138[h264 @ 0x6c160e0] Width/height/bit depth/chroma idc changing with threads is not implemented. Update your FFmpeg version to the newest one from Git. If the problem still occurs, it means that your file has a feature which has not been implemented.
1139[h264 @ 0x6c160e0] decode_slice_header error
1140[h264 @ 0x6c160e0] no frame!
1141Error while decoding stream #0:0: Operation not permitted
1142[h264 @ 0x66ca000] missing picture in access unit with size 2978
1143[h264 @ 0x6970d20] Width/height/bit depth/chroma idc changing with threads is not implemented. Update your FFmpeg version to the newest one from Git. If the problem still occurs, it means that your file has a feature which has not been implemented.
1144[h264 @ 0x6970d20] decode_slice_header error
1145[h264 @ 0x6970d20] no frame!
1146Error while decoding stream #0:0: Operation not permitted
1147[h264 @ 0x66ca000] missing picture in access unit with size 2491
1148[h264 @ 0x6c160e0] no frame!
1149Error while decoding stream #0:0: Operation not permitted
1150[h264 @ 0x66ca000] missing picture in access unit with size 2880
1151[h264 @ 0x6970d20] no frame!
1152Error while decoding stream #0:0: Operation not permitted
1153[h264 @ 0x66ca000] missing picture in access unit with size 3120
1154[h264 @ 0x6c160e0] no frame!
1155Error while decoding stream #0:0: Operation not permitted
1156[h264 @ 0x66ca000] missing picture in access unit with size 2832
1157[h264 @ 0x6970d20] no frame!
1158Error while decoding stream #0:0: Operation not permitted
1159[h264 @ 0x6c160e0] Width/height/bit depth/chroma idc changing with threads is not implemented. Update your FFmpeg version to the newest one from Git. If the problem still occurs, it means that your file has a feature which has not been implemented.
1160[h264 @ 0x6c160e0] decode_slice_header error
1161[h264 @ 0x6c160e0] no frame!
1162Error while decoding stream #0:0: Operation not permitted
1163[h264 @ 0x66ca000] missing picture in access unit with size 2832
1164[h264 @ 0x6970d20] no frame!
1165Error while decoding stream #0:0: Operation not permitted
1166[h264 @ 0x66ca000] missing picture in access unit with size 3142
1167[h264 @ 0x6c160e0] no frame!
1168Error while decoding stream #0:0: Operation not permitted
1169[h264 @ 0x66ca000] missing picture in access unit with size 2912
1170[h264 @ 0x6970d20] no frame!
1171Error while decoding stream #0:0: Operation not permitted
1172[h264 @ 0x6c160e0] Width/height/bit depth/chroma idc changing with threads is not implemented. Update your FFmpeg version to the newest one from Git. If the problem still occurs, it means that your file has a feature which has not been implemented.
1173[h264 @ 0x6c160e0] decode_slice_header error
1174[h264 @ 0x6c160e0] no frame!
1175Error while decoding stream #0:0: Operation not permitted
1176[h264 @ 0x66ca000] missing picture in access unit with size 2870
1177[h264 @ 0x6970d20] no frame!
1178Error while decoding stream #0:0: Operation not permitted
1179[h264 @ 0x66ca000] missing picture in access unit with size 3083
1180[h264 @ 0x6c160e0] no frame!
1181Error while decoding stream #0:0: Operation not permitted
1182[h264 @ 0x66ca000] missing picture in access unit with size 2877
1183[h264 @ 0x6970d20] no frame!
1184Error while decoding stream #0:0: Operation not permitted
1185[h264 @ 0x66ca000] missing picture in access unit with size 2354
1186[h264 @ 0x6c160e0] no frame!
1187Error while decoding stream #0:0: Operation not permitted
1188[h264 @ 0x66ca000] missing picture in access unit with size 2700
1189[h264 @ 0x6970d20] no frame!
1190Error while decoding stream #0:0: Operation not permitted
1191[h264 @ 0x6c160e0] Width/height/bit depth/chroma idc changing with threads is not implemented. Update your FFmpeg version to the newest one from Git. If the problem still occurs, it means that your file has a feature which has not been implemented.
1192[h264 @ 0x6c160e0] decode_slice_header error
1193[h264 @ 0x6c160e0] no frame!
1194Error while decoding stream #0:0: Operation not permitted
1195[h264 @ 0x66ca000] missing picture in access unit with size 2604
1196[h264 @ 0x6970d20] no frame!
1197Error while decoding stream #0:0: Operation not permitted
1198[h264 @ 0x66ca000] FMO not supported
1199[h264 @ 0x66ca000] missing picture in access unit with size 2341
1200[h264 @ 0x6c160e0] FMO not supported
1201[h264 @ 0x6c160e0] no frame!
1202Error while decoding stream #0:0: Operation not permitted
1203[h264 @ 0x6970d20] Width/height/bit depth/chroma idc changing with threads is not implemented. Update your FFmpeg version to the newest one from Git. If the problem still occurs, it means that your file has a feature which has not been implemented.
1204[h264 @ 0x6970d20] decode_slice_header error
1205[h264 @ 0x6970d20] no frame!
1206Error while decoding stream #0:0: Operation not permitted
1207[h264 @ 0x66ca000] missing picture in access unit with size 2775
1208[h264 @ 0x6c160e0] no frame!
1209Error while decoding stream #0:0: Operation not permitted
1210[h264 @ 0x66ca000] missing picture in access unit with size 2545
1211[h264 @ 0x6970d20] no frame!
1212Error while decoding stream #0:0: Operation not permitted
1213[h264 @ 0x6c160e0] Width/height/bit depth/chroma idc changing with threads is not implemented. Update your FFmpeg version to the newest one from Git. If the problem still occurs, it means that your file has a feature which has not been implemented.
1214[h264 @ 0x6c160e0] decode_slice_header error
1215[h264 @ 0x6c160e0] no frame!
1216Error while decoding stream #0:0: Operation not permitted
1217[h264 @ 0x66ca000] missing picture in access unit with size 2449
1218[h264 @ 0x6970d20] no frame!
1219Error while decoding stream #0:0: Operation not permitted
1220[h264 @ 0x66ca000] missing picture in access unit with size 2833
1221[h264 @ 0x6c160e0] no frame!
1222Error while decoding stream #0:0: Operation not permitted
1223[h264 @ 0x66ca000] missing picture in access unit with size 2413
1224[h264 @ 0x6970d20] Width/height/bit depth/chroma idc changing with threads is not implemented. Update your FFmpeg version to the newest one from Git. If the problem still occurs, it means that your file has a feature which has not been implemented.
1225[h264 @ 0x6970d20] decode_slice_header error
1226[h264 @ 0x6970d20] no frame!
1227Error while decoding stream #0:0: Operation not permitted
1228[h264 @ 0x6c160e0] Width/height/bit depth/chroma idc changing with threads is not implemented. Update your FFmpeg version to the newest one from Git. If the problem still occurs, it means that your file has a feature which has not been implemented.
1229[h264 @ 0x6c160e0] decode_slice_header error
1230[h264 @ 0x6c160e0] no frame!
1231Error while decoding stream #0:0: Operation not permitted
1232[h264 @ 0x66ca000] missing picture in access unit with size 2303
1233[h264 @ 0x6970d20] no frame!
1234Error while decoding stream #0:0: Operation not permitted
1235[h264 @ 0x6c160e0] Width/height/bit depth/chroma idc changing with threads is not implemented. Update your FFmpeg version to the newest one from Git. If the problem still occurs, it means that your file has a feature which has not been implemented.
1236[h264 @ 0x6c160e0] decode_slice_header error
1237[h264 @ 0x6c160e0] no frame!
1238Error while decoding stream #0:0: Operation not permitted
1239[h264 @ 0x66ca000] missing picture in access unit with size 2233
1240[h264 @ 0x6970d20] no frame!
1241Error while decoding stream #0:0: Operation not permitted
1242[h264 @ 0x66ca000] sps_id (32) out of range
1243[h264 @ 0x66ca000] missing picture in access unit with size 2085
1244[h264 @ 0x6c160e0] sps_id (32) out of range
1245    Last message repeated 1 times
1246[h264 @ 0x6c160e0] no frame!
1247Error while decoding stream #0:0: Operation not permitted
1248[h264 @ 0x66ca000] missing picture in access unit with size 2192
1249[h264 @ 0x6970d20] no frame!
1250Error while decoding stream #0:0: Operation not permitted
1251[h264 @ 0x66ca000] missing picture in access unit with size 2327
1252[h264 @ 0x6c160e0] no frame!
1253Error while decoding stream #0:0: Operation not permitted
1254[h264 @ 0x66ca000] missing picture in access unit with size 2059
1255[h264 @ 0x6970d20] no frame!
1256Error while decoding stream #0:0: Operation not permitted
1257[h264 @ 0x6c160e0] slice type too large (5) at 1247 237
1258[h264 @ 0x6c160e0] decode_slice_header error
1259[h264 @ 0x6c160e0] no frame!
1260Error while decoding stream #0:0: Operation not permitted
1261[h264 @ 0x66ca000] missing picture in access unit with size 2221
1262[h264 @ 0x6970d20] no frame!
1263Error while decoding stream #0:0: Operation not permitted
1264[h264 @ 0x66ca000] FMO not supported
1265[h264 @ 0x66ca000] reference overflow (pps)
1266[h264 @ 0x66ca000] missing picture in access unit with size 2321
1267[h264 @ 0x6c160e0] FMO not supported
1268[h264 @ 0x6c160e0] reference overflow (pps)
1269[h264 @ 0x6c160e0] no frame!
1270Error while decoding stream #0:0: Operation not permitted
1271[h264 @ 0x66ca000] missing picture in access unit with size 2171
1272[h264 @ 0x6970d20] no frame!
1273Error while decoding stream #0:0: Operation not permitted
1274[h264 @ 0x66ca000] missing picture in access unit with size 1937
1275[h264 @ 0x6c160e0] no frame!
1276Error while decoding stream #0:0: Operation not permitted
1277[h264 @ 0x66ca000] FMO not supported
1278[h264 @ 0x66ca000] reference overflow (pps)
1279[h264 @ 0x66ca000] missing picture in access unit with size 2052
1280[h264 @ 0x6970d20] FMO not supported
1281[h264 @ 0x6970d20] reference overflow (pps)
1282[h264 @ 0x6970d20] no frame!
1283Error while decoding stream #0:0: Operation not permitted
1284[h264 @ 0x66ca000] missing picture in access unit with size 2177
1285[h264 @ 0x6c160e0] no frame!
1286Error while decoding stream #0:0: Operation not permitted
1287[h264 @ 0x66ca000] missing picture in access unit with size 1902
1288[h264 @ 0x6970d20] no frame!
1289Error while decoding stream #0:0: Operation not permitted
1290[h264 @ 0x66ca000] missing picture in access unit with size 1888
1291[h264 @ 0x6c160e0] no frame!
1292Error while decoding stream #0:0: Operation not permitted
1293[h264 @ 0x66ca000] missing picture in access unit with size 1885
1294[h264 @ 0x6970d20] no frame!
1295Error while decoding stream #0:0: Operation not permitted
1296[h264 @ 0x66ca000] missing picture in access unit with size 1996
1297[h264 @ 0x6c160e0] no frame!
1298Error while decoding stream #0:0: Operation not permitted
1299[h264 @ 0x66ca000] missing picture in access unit with size 1885
1300[h264 @ 0x6970d20] no frame!
1301Error while decoding stream #0:0: Operation not permitted
1302[h264 @ 0x66ca000] missing picture in access unit with size 1795
1303[h264 @ 0x6c160e0] no frame!
1304Error while decoding stream #0:0: Operation not permitted
1305[h264 @ 0x66ca000] missing picture in access unit with size 1841
1306[h264 @ 0x6970d20] no frame!
1307Error while decoding stream #0:0: Operation not permitted
1308[h264 @ 0x66ca000] missing picture in access unit with size 2064
1309[h264 @ 0x6c160e0] no frame!
1310Error while decoding stream #0:0: Operation not permitted
1311[h264 @ 0x6970d20] slice type too large (5) at 0 0
1312[h264 @ 0x6970d20] decode_slice_header error
1313[h264 @ 0x6970d20] no frame!
1314Error while decoding stream #0:0: Operation not permitted
1315[h264 @ 0x6c160e0] Width/height/bit depth/chroma idc changing with threads is not implemented. Update your FFmpeg version to the newest one from Git. If the problem still occurs, it means that your file has a feature which has not been implemented.
1316[h264 @ 0x6c160e0] decode_slice_header error
1317[h264 @ 0x6c160e0] no frame!
1318Error while decoding stream #0:0: Operation not permitted
1319[h264 @ 0x66ca000] missing picture in access unit with size 1806
1320[h264 @ 0x6970d20] no frame!
1321Error while decoding stream #0:0: Operation not permitted
1322[h264 @ 0x66ca000] non-existing PPS referenced
1323[h264 @ 0x6c160e0] non-existing PPS 22 referenced
1324[h264 @ 0x6c160e0] decode_slice_header error
1325Error while decoding stream #0:0: Operation not permitted
1326[h264 @ 0x66ca000] missing picture in access unit with size 1773
1327[h264 @ 0x6970d20] no frame!
1328[h264 @ 0x66ca000] missing picture in access unit with size 1739
1329[h264 @ 0x6c160e0] no frame!
1330Error while decoding stream #0:0: Operation not permitted
1331[h264 @ 0x66ca000] missing picture in access unit with size 1850
1332[h264 @ 0x6970d20] no frame!
1333Error while decoding stream #0:0: Operation not permitted
1334[h264 @ 0x66ca000] illegal POC type 3
1335[h264 @ 0x66ca000] missing picture in access unit with size 1982
1336[h264 @ 0x6c160e0] illegal POC type 3
1337[h264 @ 0x6c160e0] sps_id (32) out of range
1338[h264 @ 0x6c160e0] no frame!
1339Error while decoding stream #0:0: Operation not permitted
1340[h264 @ 0x66ca000] missing picture in access unit with size 1776
1341[h264 @ 0x6970d20] no frame!
1342Error while decoding stream #0:0: Operation not permitted
1343[h264 @ 0x6c160e0] Partitioned H.264 support is incomplete
1344Error while decoding stream #0:0: Operation not permitted
1345[h264 @ 0x66ca000] missing picture in access unit with size 1774
1346[h264 @ 0x6970d20] no frame!
1347Error while decoding stream #0:0: Operation not permitted
1348[h264 @ 0x66ca000] missing picture in access unit with size 2039
1349[h264 @ 0x6c160e0] no frame!
1350Error while decoding stream #0:0: Operation not permitted
1351[h264 @ 0x66ca000] missing picture in access unit with size 1870
1352[h264 @ 0x6970d20] no frame!
1353Error while decoding stream #0:0: Operation not permitted
1354[h264 @ 0x66ca000] missing picture in access unit with size 1720
1355[h264 @ 0x6c160e0] no frame!
1356Error while decoding stream #0:0: Operation not permitted
1357[h264 @ 0x66ca000] missing picture in access unit with size 1783
1358[h264 @ 0x6970d20] no frame!
1359Error while decoding stream #0:0: Operation not permitted
1360[h264 @ 0x66ca000] missing picture in access unit with size 2051
1361[h264 @ 0x6c160e0] no frame!
1362Error while decoding stream #0:0: Operation not permitted
1363[h264 @ 0x66ca000] missing picture in access unit with size 1807
1364[h264 @ 0x6970d20] no frame!
1365Error while decoding stream #0:0: Operation not permitted
1366[h264 @ 0x66ca000] pps_id out of range
1367[h264 @ 0x6c160e0] slice type too large (2) at 1247 237
1368[h264 @ 0x6c160e0] decode_slice_header error
1369[h264 @ 0x6c160e0] no frame!
1370Error while decoding stream #0:0: Operation not permitted
1371[h264 @ 0x66ca000] missing picture in access unit with size 1803
1372[h264 @ 0x6970d20] no frame!
1373Error while decoding stream #0:0: Operation not permitted
1374[h264 @ 0x66ca000] missing picture in access unit with size 3457
1375[h264 @ 0x6c160e0] no frame!
1376Error while decoding stream #0:0: Operation not permitted
1377[h264 @ 0x66ca000] missing picture in access unit with size 1492
1378[h264 @ 0x6970d20] no frame!
1379Error while decoding stream #0:0: Operation not permitted
1380[h264 @ 0x66ca000] non-existing PPS referenced
1381[h264 @ 0x6c160e0] Width/height/bit depth/chroma idc changing with threads is not implemented. Update your FFmpeg version to the newest one from Git. If the problem still occurs, it means that your file has a feature which has not been implemented.
1382[h264 @ 0x6c160e0] decode_slice_header error
1383[h264 @ 0x6c160e0] no frame!
1384Error while decoding stream #0:0: Operation not permitted
1385[h264 @ 0x66ca000] pps_id out of range
1386[h264 @ 0x6970d20] slice type too large (5) at 0 0
1387[h264 @ 0x6970d20] decode_slice_header error
1388[h264 @ 0x6970d20] no frame!
1389Error while decoding stream #0:0: Operation not permitted
1390[h264 @ 0x66ca000] missing picture in access unit with size 1439
1391[h264 @ 0x6c160e0] no frame!
1392Error while decoding stream #0:0: Operation not permitted
1393[h264 @ 0x66ca000] non-existing PPS referenced
1394[h264 @ 0x6970d20] non-existing PPS 6 referenced
1395[h264 @ 0x6970d20] decode_slice_header error
1396[h264 @ 0x6970d20] no frame!
1397Error while decoding stream #0:0: Operation not permitted
1398[h264 @ 0x66ca000] missing picture in access unit with size 1226
1399[h264 @ 0x6c160e0] no frame!
1400Error while decoding stream #0:0: Operation not permitted
1401[h264 @ 0x6970d20] Width/height/bit depth/chroma idc changing with threads is not implemented. Update your FFmpeg version to the newest one from Git. If the problem still occurs, it means that your file has a feature which has not been implemented.
1402[h264 @ 0x6970d20] decode_slice_header error
1403[h264 @ 0x6970d20] no frame!
1404Error while decoding stream #0:0: Operation not permitted
1405[h264 @ 0x66ca000] missing picture in access unit with size 1773
1406[h264 @ 0x6c160e0] no frame!
1407Error while decoding stream #0:0: Operation not permitted
1408[h264 @ 0x66ca000] illegal aspect ratio
1409[h264 @ 0x66ca000] missing picture in access unit with size 2504
1410[h264 @ 0x6970d20] illegal aspect ratio
1411    Last message repeated 1 times
1412[h264 @ 0x6970d20] no frame!
1413Error while decoding stream #0:0: Operation not permitted
1414[h264 @ 0x6c160e0] Width/height/bit depth/chroma idc changing with threads is not implemented. Update your FFmpeg version to the newest one from Git. If the problem still occurs, it means that your file has a feature which has not been implemented.
1415[h264 @ 0x6c160e0] decode_slice_header error
1416[h264 @ 0x6c160e0] no frame!
1417Error while decoding stream #0:0: Operation not permitted
1418[h264 @ 0x66ca000] missing picture in access unit with size 2606
1419[h264 @ 0x6970d20] no frame!
1420Error while decoding stream #0:0: Operation not permitted
1421[h264 @ 0x66ca000] missing picture in access unit with size 2495
1422[h264 @ 0x6c160e0] no frame!
1423Error while decoding stream #0:0: Operation not permitted
1424[h264 @ 0x66ca000] missing picture in access unit with size 1997
1425[h264 @ 0x6970d20] no frame!
1426Error while decoding stream #0:0: Operation not permitted
1427[h264 @ 0x66ca000] sps_id out of range
1428[h264 @ 0x66ca000] missing picture in access unit with size 1730
1429[h264 @ 0x6c160e0] sps_id out of range
1430[h264 @ 0x6c160e0] no frame!
1431Error while decoding stream #0:0: Operation not permitted
1432[h264 @ 0x6970d20] Width/height/bit depth/chroma idc changing with threads is not implemented. Update your FFmpeg version to the newest one from Git. If the problem still occurs, it means that your file has a feature which has not been implemented.
1433[h264 @ 0x6970d20] decode_slice_header error
1434[h264 @ 0x6970d20] Width/height/bit depth/chroma idc changing with threads is not implemented. Update your FFmpeg version to the newest one from Git. If the problem still occurs, it means that your file has a feature which has not been implemented.
1435[h264 @ 0x6970d20] decode_slice_header error
1436[h264 @ 0x6970d20] no frame!
1437Error while decoding stream #0:0: Operation not permitted
1438[h264 @ 0x6c160e0] Width/height/bit depth/chroma idc changing with threads is not implemented. Update your FFmpeg version to the newest one from Git. If the problem still occurs, it means that your file has a feature which has not been implemented.
1439[h264 @ 0x6c160e0] decode_slice_header error
1440[h264 @ 0x6c160e0] no frame!
1441Error while decoding stream #0:0: Operation not permitted
1442[h264 @ 0x66ca000] missing picture in access unit with size 1722
1443[h264 @ 0x6970d20] no frame!
1444Error while decoding stream #0:0: Operation not permitted
1445[h264 @ 0x6c160e0] Width/height/bit depth/chroma idc changing with threads is not implemented. Update your FFmpeg version to the newest one from Git. If the problem still occurs, it means that your file has a feature which has not been implemented.
1446[h264 @ 0x6c160e0] decode_slice_header error
1447[h264 @ 0x6c160e0] no frame!
1448Error while decoding stream #0:0: Operation not permitted
1449[h264 @ 0x6970d20] Width/height/bit depth/chroma idc changing with threads is not implemented. Update your FFmpeg version to the newest one from Git. If the problem still occurs, it means that your file has a feature which has not been implemented.
1450[h264 @ 0x6970d20] decode_slice_header error
1451[h264 @ 0x6970d20] no frame!
1452Error while decoding stream #0:0: Operation not permitted
1453frame=    0 fps=0.0 q=0.0 Lsize=       0kB time=00:00:00.00 bitrate=   0.0kbits/s   
1454video:0kB audio:0kB subtitle:0 global headers:0kB muxing overhead -nan%
1455Output file is empty, nothing was encoded (check -ss / -t / -frames parameters if used)
1456==11415==
1457==11415== HEAP SUMMARY:
1458==11415==     in use at exit: 7,813,977 bytes in 28 blocks
1459==11415==   total heap usage: 2,664 allocs, 2,636 frees, 2,495,641,669 bytes allocated
1460==11415==
1461==11415== 278,895 bytes in 1 blocks are definitely lost in loss record 1 of 2
1462==11415==    at 0x4C290FE: memalign (in /usr/lib64/valgrind/vgpreload_memcheck-amd64-linux.so)
1463==11415==    by 0x4C291A7: posix_memalign (in /usr/lib64/valgrind/vgpreload_memcheck-amd64-linux.so)
1464==11415==    by 0xBA6CC1: av_mallocz (mem.c:97)
1465==11415==    by 0x98344B: av_fast_padded_malloc (utils.c:82)
1466==11415==    by 0x76F6FD: ff_h264_decode_nal (h264.c:240)
1467==11415==    by 0x774B1D: decode_nal_units (h264.c:3797)
1468==11415==    by 0x775949: ff_h264_decode_extradata (h264.c:1056)
1469==11415==    by 0x41DDFD: ff_h264_decode_init (h264.c:1104)
1470==11415==    by 0x8DFD12: ff_thread_init (pthread.c:860)
1471==11415==    by 0x987DEB: avcodec_open2 (utils.c:965)
1472==11415==    by 0x461433: transcode_init (ffmpeg.c:1882)
1473==11415==    by 0x450299: main (ffmpeg.c:2947)
1474==11415==
1475==11415== 7,535,082 bytes in 27 blocks are definitely lost in loss record 2 of 2
1476==11415==    at 0x4C290FE: memalign (in /usr/lib64/valgrind/vgpreload_memcheck-amd64-linux.so)
1477==11415==    by 0x4C291A7: posix_memalign (in /usr/lib64/valgrind/vgpreload_memcheck-amd64-linux.so)
1478==11415==    by 0xBA6CC1: av_mallocz (mem.c:97)
1479==11415==    by 0x98344B: av_fast_padded_malloc (utils.c:82)
1480==11415==    by 0x76F6FD: ff_h264_decode_nal (h264.c:240)
1481==11415==    by 0x774B1D: decode_nal_units (h264.c:3797)
1482==11415==    by 0x775DA2: decode_frame (h264.c:4117)
1483==11415==    by 0x8DE245: frame_worker_thread (pthread.c:388)
1484==11415==    by 0x55C6E0D: start_thread (in /lib64/libpthread-2.15.so)
1485==11415==
1486==11415== LEAK SUMMARY:
1487==11415==    definitely lost: 7,813,977 bytes in 28 blocks
1488==11415==    indirectly lost: 0 bytes in 0 blocks
1489==11415==      possibly lost: 0 bytes in 0 blocks
1490==11415==    still reachable: 0 bytes in 0 blocks
1491==11415==         suppressed: 0 bytes in 0 blocks
1492==11415==
1493==11415== For counts of detected and suppressed errors, rerun with: -v
1494==11415== ERROR SUMMARY: 2 errors from 2 contexts (suppressed: 2 from 2)