Ticket #1883: ffmpeg-20120907-git-070b0e1-win64__ffprobe-20121102-185917.log

File ffmpeg-20120907-git-070b0e1-win64__ffprobe-20121102-185917.log, 3.9 KB (added by starkline, 4 years ago)
Line 
1ffprobe started on 2012-11-02 at 18:59:17
2Report written to "ffprobe-20121102-185917.log"
3Command line:
4"C:\\Program Files (x86)\\ffmpeg_old\\ffmpeg-20120907-git-070b0e1-win64-shared_GOOD\\bin\\ffprobe.exe" -report "E:\\Downloads\\sample-1.wmv"
5ffprobe version N-44264-g070b0e1 Copyright (c) 2007-2012 the FFmpeg developers
6  built on Sep  7 2012 17:40:42 with gcc 4.7.1 (GCC)
7  configuration: --disable-static --enable-shared --enable-gpl --enable-version3 --disable-pthreads --enable-runtime-cpudetect --enable-avisynth --enable-bzlib --enable-frei0r --enable-libass --enable-libcelt --enable-libopencore-amrnb --enable-libopencore-amrwb --enable-libfreetype --enable-libgsm --enable-libmp3lame --enable-libnut --enable-libopenjpeg --enable-librtmp --enable-libschroedinger --enable-libspeex --enable-libtheora --enable-libutvideo --enable-libvo-aacenc --enable-libvo-amrwbenc --enable-libvorbis --enable-libvpx --enable-libx264 --enable-libxavs --enable-libxvid --enable-zlib
8  libavutil      51. 72.100 / 51. 72.100
9  libavcodec     54. 55.100 / 54. 55.100
10  libavformat    54. 25.105 / 54. 25.105
11  libavdevice    54.  2.100 / 54.  2.100
12  libavfilter     3. 16.100 /  3. 16.100
13  libswscale      2.  1.101 /  2.  1.101
14  libswresample   0. 15.100 /  0. 15.100
15  libpostproc    52.  0.100 / 52.  0.100
16[asf @ 000000000066f4e0] Format asf probed with size=2048 and score=100
17[asf @ 000000000066f4e0] gpos mismatch our pos=24, end=38
18[asf @ 000000000066f4e0] gpos mismatch our pos=24, end=26
19[asf @ 000000000066f4e0] gpos mismatch our pos=24, end=128
20[asf @ 000000000066f4e0] gpos mismatch our pos=24, end=268
21[asf @ 000000000066f4e0] gpos mismatch our pos=24, end=38
22[asf @ 000000000066f4e0] File position before avformat_find_stream_info() is 1772
23[asf @ 000000000066f4e0] parser not found for codec wmav2, packets or times may be invalid.
24[wmv3 @ 00000000004df060] Header: 4FF90801
25[wmv3 @ 00000000004df060] Profile 1:
26frmrtq_postproc=7, bitrtq_postproc=31
27LoopFilter=1, MultiRes=0, FastUVMC=0, Extended MV=0
28Rangered=0, VSTransform=1, Overlap=0, SyncMarker=0
29DQuant=0, Quantizer mode=0, Max B frames=0
30[wmv3 @ 00000000004df060] Extra data: 8 bits left, value: 0
31[asf @ 000000000066f4e0] parser not found for codec wmav2, packets or times may be invalid.
32[asf @ 000000000066f4e0] All info found
33rfps: 29.666667 0.013612
34rfps: 29.750000 0.007173
35rfps: 29.833333 0.002795
36rfps: 29.833333 0.002795
37rfps: 29.916667 0.000478
38rfps: 29.916667 0.000478
39rfps: 30.000000 0.000221
40rfps: 30.000000 0.000221
41rfps: 30.083333 0.002025
42rfps: 30.083333 0.002025
43rfps: 30.166667 0.005889
44rfps: 30.250000 0.011814
45rfps: 30.333333 0.019800
46rfps: 59.583333 0.018907
47rfps: 59.583333 0.018907
48rfps: 59.666667 0.011181
49rfps: 59.666667 0.011181
50rfps: 59.750000 0.005516
51rfps: 59.750000 0.005516
52rfps: 59.833333 0.001911
53rfps: 59.916667 0.000367
54rfps: 60.000000 0.000884
55rfps: 29.970030 0.000076
56rfps: 29.970030 0.000076
57rfps: 59.940060 0.000304
58[asf @ 000000000066f4e0] File position after avformat_find_stream_info() is 428598
59Input #0, asf, from 'E:\Downloads\sample-1.wmv':
60  Metadata:
61    comment         : Processed by freeware version of AsfBin
62    WMFSDKVersion   : 12.0.7601.17514
63    WMFSDKNeeded    : 0.0.0.0000
64    IsVBR           : 0
65  Duration: 00:00:05.88, start: 0.000000, bitrate: 2176 kb/s
66    Stream #0:0, 10, 1/1000: Audio: wmav2 (a[1][0][0] / 0x0161), 44100 Hz, 2 channels, s16, 96 kb/s
67    Stream #0:1, 41, 1/1000: Video: wmv3 (Main) (WMV3 / 0x33564D57), yuv420p, 640x480, 2000 kb/s, SAR 4:3 DAR 16:9, 29.97 tbr, 1k tbn, 1k tbc
68[wmv3 @ 00000000004df060] Header: 4FF90801
69[wmv3 @ 00000000004df060] Profile 1:
70frmrtq_postproc=7, bitrtq_postproc=31
71LoopFilter=1, MultiRes=0, FastUVMC=0, Extended MV=0
72Rangered=0, VSTransform=1, Overlap=0, SyncMarker=0
73DQuant=0, Quantizer mode=0, Max B frames=0
74[wmv3 @ 00000000004df060] Extra data: 8 bits left, value: 0
75[AVIOContext @ 0000000000677b00] Statistics: 458752 bytes read, 0 seeks