Ticket #1800: MediaInfo.txt

File MediaInfo.txt, 6.5 KB (added by raffairon, 4 years ago)
Line 
1General
2Complete name                            : C:\data\tmp\Love Thy Brother.m4v
3Format                                   : MPEG-4
4Codec ID                                 : M4V
5File size                                : 105 MiB
6Duration                                 : 9mn 6s
7Overall bit rate mode                    : Variable
8Overall bit rate                         : 1 610 Kbps
9Movie name                               : Love Thy Brother
10Performer                                : Shorts International
11Genre                                    : Cortometraggi
12Recorded date                            : UTC 2006-08-02 07:00:00
13Encoded date                             : UTC 2006-08-15 23:00:13
14Tagged date                              : UTC 2006-08-15 23:46:12
15Writing library                          : Apple QuickTime
16Copyright                                : © 2011 SHORTS™
17Cover                                    : Yes
18apID                                     : raffamaiden
19cnID                                     : 175933687
20atID                                     : 510017781
21geID                                     : 4414
22sfID                                     : 143450
23desc                                     : Based on a scary afternoon years ago... A comedic look at the disastrous effects of sibling rivalry, burglars and brothers--what a mix!  Directed by RALPH MACCHIO (Karate Kid).
24stik                                     : 9
25purd                                     : 2012-10-06 23:24:37
26xid                                      : ShortsInternational:vendor_id:SHORTS_LOVETHYBROTHER
27flvr                                     : 4:640x480LC-128
28iTunEXTC                                 : it-movie|T|100|
29ldes                                     : An out and out comedy! Two intensely competitive brothers, home after school, are tied up and robbed in their own home. RALPH MACCHIO directs this engaging, humorous story based on one scary afternoon in his childhood.
30iTunMOVI                                 : <?xml version="1.0" encoding="UTF-8"?> / <!DOCTYPE plist PUBLIC "-//Apple//DTD PLIST 1.0//EN" "http://www.apple.com/DTDs/PropertyList-1.0.dtd"> / <plist version="1.0"> / <dict> /   <key>asset-info</key> /         <dict> /                <key>file-size</key> /          <integer>109575712</integer> /          <key>flavor</key> /             <string>4:640x480LC-128</string> /      </dict> /       <key>cast</key> /       <array> /               <dict> /                        <key>adamId</key> /                     <integer>510017781</integer> /                  <key>name</key> /                       <string>Gideon Jacobs</string> /                </dict> /               <dict> /                        <key>adamId</key> /                     <integer>510017785</integer> /                  <key>name</key> /                       <string>Bobby Boriello</string> /               </dict> /               <dict> /                        <key>adamId</key> /                     <integer>510017809</integer> /                  <key>name</key> /                       <string>Todd Weeks</string> /           </dict> /               <dict> /                        <key>adamId</key> /                     <integer>510017813</integer> /                  <key>name</key> /                       <string>Lorna Ventura</string> /                </dict> /       </array> /      <key>codirectors</key> /        <array/> /      <key>copy-warning</key> /       <string>&amp;nbsp;</string> /   <key>directors</key> /  <array> /               <dict> /                        <key>adamId</key> /                     <integer>263445904</integer> /                  <key>name</key> /                       <string>Ralph Macchio</string> /                </dict> /       </array> /      <key>producers</key> /  <array> /               <dict> /                        <key>adamId</key> /                     <integer>510017821</integer> /                  <key>name</key> /                       <string>Andrew Marcus</string> /                </dict> /       </array> /      <key>screenwriters</key> /      <array> /               <dict> /                        <key>adamId</key> /                     <integer>263445904</integer> /                  <key>name</key> /                       <string>Ralph Macchio</string> /                </dict> /       </array> /      <key>studio</key> /     <string>SHORTS™</string> / </dict> / </plist>
31
32Video
33ID                                       : 1
34Format                                   : AVC
35Format/Info                              : Advanced Video Codec
36Format profile                           : Baseline@L3.0
37Format settings, CABAC                   : No
38Format settings, ReFrames                : 1 frame
39Codec ID                                 : drmi / avc1
40Codec ID/Info                            : Advanced Video Coding
41Duration                                 : 9mn 6s
42Bit rate mode                            : Variable
43Bit rate                                 : 1 473 Kbps
44Maximum bit rate                         : 4 006 Kbps
45Width                                    : 640 pixels
46Height                                   : 360 pixels
47Display aspect ratio                     : 16:9
48Frame rate mode                          : Constant
49Frame rate                               : 24.000 fps
50Color space                              : YUV
51Chroma subsampling                       : 4:2:0
52Bit depth                                : 8 bits
53Scan type                                : Progressive
54Bits/(Pixel*Frame)                       : 0.266
55Stream size                              : 96.0 MiB (91%)
56Language                                 : English
57Encoded date                             : UTC 2006-08-15 23:44:58
58Tagged date                              : UTC 2006-08-15 23:46:12
59Color primaries                          : BT.601 NTSC
60Transfer characteristics                 : BT.709
61Matrix coefficients                      : BT.601
62
63Audio
64ID                                       : 2
65Format                                   : AAC
66Format/Info                              : Advanced Audio Codec
67Format profile                           : LC
68Codec ID                                 : 40
69Duration                                 : 9mn 6s
70Source duration                          : 9mn 6s
71Bit rate mode                            : Constant
72Bit rate                                 : 128 Kbps
73Channel(s)                               : 2 channels
74Channel positions                        : Front: L R
75Sampling rate                            : 44.1 KHz
76Compression mode                         : Lossy
77Stream size                              : 8.35 MiB (8%)
78Source stream size                       : 8.35 MiB (8%)
79Language                                 : English
80Encoded date                             : UTC 2006-08-15 23:44:59
81Tagged date                              : UTC 2006-08-15 23:46:12
82Encryption                               : iTunes
83
84Menu
85ID                                       : 3
86Duration                                 : 9mn 6s
87Language                                 : English
88Encoded date                             : UTC 2006-08-15 23:46:12
89Tagged date                              : UTC 2006-08-15 23:46:12
90