Ticket #1706: ffmpeg_crash_linux.txt

File ffmpeg_crash_linux.txt, 3.3 KB (added by fekete, 4 years ago)

GDB Output from linux

Line 
1Starting program: /usr/bin/ffmpeg -i ~/shared/Incomming/video/superbowl.ts -f flv -an "rtmp://192.168.11.93/live/livestream"
2[Thread debugging using libthread_db enabled]
3Using host libthread_db library "/lib/x86_64-linux-gnu/libthread_db.so.1".
4WARNING: gnome-keyring:: couldn't connect to: /tmp/keyring-U71ygr/pkcs11: No such file or directory
5ffmpeg version 0.11.1 Copyright (c) 2000-2012 the FFmpeg developers
6  built on Jul 31 2012 16:16:27 with gcc 4.7.1
7  configuration: --prefix=/usr --extra-cflags='-g -O2 -fstack-protector --param=ssp-buffer-size=4 -Wformat -Werror=format-security ' --extra-ldflags='-Wl,-z,relro' --cc='ccache cc' --enable-shared --enable-libmp3lame --enable-gpl --enable-nonfree --disable-decoder=libdirac --enable-libvorbis --enable-pthreads --enable-libfaac --enable-libxvid --enable-postproc --enable-x11grab --enable-libgsm --enable-libtheora --enable-libopencore-amrnb --enable-libopencore-amrwb --enable-libx264 --enable-libspeex --enable-nonfree --disable-stripping --enable-libschroedinger --disable-encoder=libschroedinger --enable-version3 --enable-libopenjpeg --enable-libvpx --enable-librtmp --enable-avfilter --enable-libfreetype --enable-libvo-aacenc --disable-decoder=amrnb --enable-libvo-amrwbenc --enable-libaacplus --libdir=/usr/lib/x86_64-linux-gnu --disable-vda --enable-libbluray --enable-libcdio --enable-gnutls --enable-frei0r --enable-openssl --enable-libass --enable-libdc1394 --disable-altivec --disable-armv5te --disable-armv6 -  libavutil      51. 54.100 / 51. 54.100
8  libavcodec     54. 23.100 / 54. 23.100
9  libavformat    54.  6.100 / 54.  6.100
10  libavdevice    54.  0.100 / 54.  0.100
11  libavfilter     2. 77.100 /  2. 77.100
12  libswscale      2.  1.100 /  2.  1.100
13  libswresample   0. 15.100 /  0. 15.100
14  libpostproc    52.  0.100 / 52.  0.100
15[mpegts @ 0x646a20] PES packet size mismatch
16Input #0, mpegts, from '/home/user/shared/Incomming/video/superbowl.ts':                                                                                           
17  Duration: 00:14:59.38, start: 0.417022, bitrate: 12638 kb/s
18  Program 1
19    Stream #0:0[0x800]: Video: mpeg2video (Main) ([2][0][0][0] / 0x0002), yuv420p, 1280x720 [SAR 1:1 DAR 16:9], 25000 kb/s, 59.96 fps, 59.94 tbr, 90k tbn, 119.88 tbc
20    Stream #0:1[0x801]: Audio: ac3 ([129][0][0][0] / 0x0081), 48000 Hz, 5.1(side), s16, 448 kb/s
21WARNING: gnome-keyring:: couldn't connect to: /tmp/keyring-U71ygr/pkcs11: No such file or directory
22[buffer @ 0x65c220] w:1280 h:720 pixfmt:yuv420p tb:1/90000 sar:1/1 sws_param:flags=2
23[buffersink @ 0x65c740] No opaque field provided
24Output #0, flv, to 'rtmp://192.168.11.93/live/livestream':                                                                                                         
25  Metadata:
26    encoder         : Lavf54.6.100
27    Stream #0:0: Video: flv1 ([2][0][0][0] / 0x0002), yuv420p, 1280x720 [SAR 1:1 DAR 16:9], q=2-31, 200 kb/s, 1k tbn, 59.94 tbc
28Stream mapping:
29  Stream #0:0 -> #0:0 (mpeg2video -> flv)
30Press [q] to stop, [?] for help
31frame=  410 fps= 36 q=31.0 size=    2675kB time=00:00:06.84 bitrate=3203.8kbits/s     
32Program received signal SIGPIPE, Broken pipe.
330x00007ffff59b6602 in __libc_send (fd=<optimized out>, buf=0xa52861, n=129, flags=<optimized out>) at ../sysdeps/unix/sysv/linux/x86_64/send.c:28
3428      ../sysdeps/unix/sysv/linux/x86_64/send.c: No such file or directory.