Ticket #1686: ffmpeg.output.txt

File ffmpeg.output.txt, 23.5 KB (added by jonb, 4 years ago)

The output from some of the ffmpeg commands before I interrupted it.

Line 
1ffmpeg version 0.7.13, Copyright (c) 2000-2011 the FFmpeg developers
2  built on Jun 13 2012 14:14:09 with gcc 4.4.5
3  configuration: --enable-libdc1394 --prefix=/usr --extra-cflags='-Wall -g ' --cc='ccache cc' --enable-shared --enable-libmp3lame --enable-gpl --enable-libvorbis --enable-pthreads --enable-libfaac --enable-libxvid --enable-postproc --enable-x11grab --enable-libgsm --enable-libtheora --enable-libopencore-amrnb --enable-libopencore-amrwb --enable-libx264 --enable-libspeex --enable-nonfree --disable-stripping --enable-avfilter --enable-libdirac --disable-decoder=libdirac --enable-libfreetype --enable-libschroedinger --disable-encoder=libschroedinger --enable-version3 --enable-libopenjpeg --enable-libvpx --enable-librtmp --extra-libs=-lgcrypt --disable-altivec --disable-armv5te --disable-armv6 --disable-vis
4  libavutil    50. 43. 0 / 50. 43. 0
5  libavcodec   52.123. 0 / 52.123. 0
6  libavformat  52.111. 0 / 52.111. 0
7  libavdevice  52.  5. 0 / 52.  5. 0
8  libavfilter   1. 80. 0 /  1. 80. 0
9  libswscale    0. 14. 1 /  0. 14. 1
10  libpostproc  51.  2. 0 / 51.  2. 0
11[mpegts @ 0x127c2e0] max_analyze_duration 5000000 reached at 5000000
12
13Seems stream 0 codec frame rate differs from container frame rate: 50.00 (50/1) -> 50.00 (50/1)
14Input #0, mpegts, from '00000.MTS':
15  Duration: 00:30:16.79, start: 0.820033, bitrate: 9000 kb/s
16  Program 1
17    Stream #0.0[0x1011]: Video: h264 (High), yuv420p, 1440x1080 [PAR 4:3 DAR 16:9], 50 fps, 50 tbr, 90k tbn, 50 tbc
18    Stream #0.1[0x1100]: Audio: ac3, 48000 Hz, stereo, s16, 256 kb/s
19[buffer @ 0x129dda0] w:1440 h:1080 pixfmt:yuv420p tb:1/1000000 sar:4/3 sws_param:
20[libx264 @ 0x1281d00] Default settings detected, using medium profile
21[libx264 @ 0x1281d00] using SAR=4/3
22[libx264 @ 0x1281d00] using cpu capabilities: MMX2 SSE2Fast FastShuffle SSEMisalign LZCNT
23[libx264 @ 0x1281d00] profile Main, level 4.0
24Output #0, rawvideo, to '/dev/null':
25  Metadata:
26    encoder         : Lavf52.111.0
27    Stream #0.0: Video: libx264, yuv420p, 1440x1080 [PAR 4:3 DAR 16:9], q=2-31, pass 1, 200 kb/s, 90k tbn, 25 tbc
28Stream mapping:
29  Stream #0.0 -> #0.0
30Press [q] to stop, [?] for help
31frame=34470 fps= 15 q=28.0 Lsize=  384827kB time=00:22:58.72 bitrate=2286.5kbits/s
32video:384827kB audio:0kB global headers:0kB muxing overhead 0.000000%
33frame I:139   Avg QP:18.71  size: 72254
34[libx264 @ 0x1281d00] frame P:18265 Avg QP:21.30  size: 16000
35[libx264 @ 0x1281d00] frame B:16066 Avg QP:23.94  size:  5713
36[libx264 @ 0x1281d00] consecutive B-frames: 17.3% 55.4% 18.9%  8.4%
37[libx264 @ 0x1281d00] mb I  I16..4: 68.8%  0.0% 31.2%
38[libx264 @ 0x1281d00] mb P  I16..4: 24.8%  0.0%  0.0%  P16..4: 33.1%  0.0%  0.0%  0.0%  0.0%    skip:42.1%
39[libx264 @ 0x1281d00] mb B  I16..4:  7.6%  0.0%  0.0%  B16..8: 11.4%  0.0%  0.0%  direct:17.7%  skip:63.3%  L0:42.4% L1:46.3% BI:11.3%
40[libx264 @ 0x1281d00] coded y,uvDC,uvAC intra: 9.4% 50.7% 4.5% inter: 7.7% 28.0% 0.1%
41[libx264 @ 0x1281d00] i16 v,h,dc,p: 38% 35% 19%  8%
42[libx264 @ 0x1281d00] i4 v,h,dc,ddl,ddr,vr,hd,vl,hu: 33% 22% 19%  2%  6%  4%  5%  4%  5%
43[libx264 @ 0x1281d00] i8c dc,h,v,p: 40% 38% 20%  3%
44[libx264 @ 0x1281d00] Weighted P-Frames: Y:0.1% UV:0.0%
45[libx264 @ 0x1281d00] kb/s:2286.41
46ffmpeg version 0.7.13, Copyright (c) 2000-2011 the FFmpeg developers
47  built on Jun 13 2012 14:14:09 with gcc 4.4.5
48  configuration: --enable-libdc1394 --prefix=/usr --extra-cflags='-Wall -g ' --cc='ccache cc' --enable-shared --enable-libmp3lame --enable-gpl --enable-libvorbis --enable-pthreads --enable-libfaac --enable-libxvid --enable-postproc --enable-x11grab --enable-libgsm --enable-libtheora --enable-libopencore-amrnb --enable-libopencore-amrwb --enable-libx264 --enable-libspeex --enable-nonfree --disable-stripping --enable-avfilter --enable-libdirac --disable-decoder=libdirac --enable-libfreetype --enable-libschroedinger --disable-encoder=libschroedinger --enable-version3 --enable-libopenjpeg --enable-libvpx --enable-librtmp --extra-libs=-lgcrypt --disable-altivec --disable-armv5te --disable-armv6 --disable-vis
49  libavutil    50. 43. 0 / 50. 43. 0
50  libavcodec   52.123. 0 / 52.123. 0
51  libavformat  52.111. 0 / 52.111. 0
52  libavdevice  52.  5. 0 / 52.  5. 0
53  libavfilter   1. 80. 0 /  1. 80. 0
54  libswscale    0. 14. 1 /  0. 14. 1
55  libpostproc  51.  2. 0 / 51.  2. 0
5600000.MTS: Invalid data found when processing input
57ffmpeg version 0.7.13, Copyright (c) 2000-2011 the FFmpeg developers
58  built on Jun 13 2012 14:14:09 with gcc 4.4.5
59  configuration: --enable-libdc1394 --prefix=/usr --extra-cflags='-Wall -g ' --cc='ccache cc' --enable-shared --enable-libmp3lame --enable-gpl --enable-libvorbis --enable-pthreads --enable-libfaac --enable-libxvid --enable-postproc --enable-x11grab --enable-libgsm --enable-libtheora --enable-libopencore-amrnb --enable-libopencore-amrwb --enable-libx264 --enable-libspeex --enable-nonfree --disable-stripping --enable-avfilter --enable-libdirac --disable-decoder=libdirac --enable-libfreetype --enable-libschroedinger --disable-encoder=libschroedinger --enable-version3 --enable-libopenjpeg --enable-libvpx --enable-librtmp --extra-libs=-lgcrypt --disable-altivec --disable-armv5te --disable-armv6 --disable-vis
60  libavutil    50. 43. 0 / 50. 43. 0
61  libavcodec   52.123. 0 / 52.123. 0
62  libavformat  52.111. 0 / 52.111. 0
63  libavdevice  52.  5. 0 / 52.  5. 0
64  libavfilter   1. 80. 0 /  1. 80. 0
65  libswscale    0. 14. 1 /  0. 14. 1
66  libpostproc  51.  2. 0 / 51.  2. 0
6700000.MTS: Invalid data found when processing input
68ffmpeg version 0.7.13, Copyright (c) 2000-2011 the FFmpeg developers
69  built on Jun 13 2012 14:14:09 with gcc 4.4.5
70  configuration: --enable-libdc1394 --prefix=/usr --extra-cflags='-Wall -g ' --cc='ccache cc' --enable-shared --enable-libmp3lame --enable-gpl --enable-libvorbis --enable-pthreads --enable-libfaac --enable-libxvid --enable-postproc --enable-x11grab --enable-libgsm --enable-libtheora --enable-libopencore-amrnb --enable-libopencore-amrwb --enable-libx264 --enable-libspeex --enable-nonfree --disable-stripping --enable-avfilter --enable-libdirac --disable-decoder=libdirac --enable-libfreetype --enable-libschroedinger --disable-encoder=libschroedinger --enable-version3 --enable-libopenjpeg --enable-libvpx --enable-librtmp --extra-libs=-lgcrypt --disable-altivec --disable-armv5te --disable-armv6 --disable-vis
71  libavutil    50. 43. 0 / 50. 43. 0
72  libavcodec   52.123. 0 / 52.123. 0
73  libavformat  52.111. 0 / 52.111. 0
74  libavdevice  52.  5. 0 / 52.  5. 0
75  libavfilter   1. 80. 0 /  1. 80. 0
76  libswscale    0. 14. 1 /  0. 14. 1
77  libpostproc  51.  2. 0 / 51.  2. 0
78
79Seems stream 0 codec frame rate differs from container frame rate: 50.00 (50/1) -> 50.00 (50/1)
80Input #0, mpegts, from '00001.MTS':
81  Duration: 00:30:08.66, start: 1817.596000, bitrate: 9040 kb/s
82  Program 1
83    Stream #0.0[0x1011]: Video: h264 (High), yuv420p, 1440x1080 [PAR 4:3 DAR 16:9], 50 fps, 50 tbr, 90k tbn, 50 tbc
84    Stream #0.1[0x1100]: Audio: ac3, 48000 Hz, stereo, s16, 256 kb/s
85[buffer @ 0xf19140] w:1440 h:1080 pixfmt:yuv420p tb:1/1000000 sar:4/3 sws_param:
86[libx264 @ 0xefcd00] Default settings detected, using medium profile
87[libx264 @ 0xefcd00] using SAR=4/3
88[libx264 @ 0xefcd00] using cpu capabilities: MMX2 SSE2Fast FastShuffle SSEMisalign LZCNT
89[libx264 @ 0xefcd00] profile Main, level 4.0
90Output #0, rawvideo, to '/dev/null':
91  Metadata:
92    encoder         : Lavf52.111.0
93    Stream #0.0: Video: libx264, yuv420p, 1440x1080 [PAR 4:3 DAR 16:9], q=2-31, pass 1, 200 kb/s, 90k tbn, 25 tbc
94Stream mapping:
95  Stream #0.0 -> #0.0
96Press [q] to stop, [?] for help
97frame=45199 fps= 16 q=28.0 Lsize=  484053kB time=00:30:07.88 bitrate=2193.4kbits/s dup=1 drop=0
98video:484053kB audio:0kB global headers:0kB muxing overhead 0.000000%
99frame I:182   Avg QP:18.64  size: 66744
100[libx264 @ 0xefcd00] frame P:24407 Avg QP:21.33  size: 15084
101[libx264 @ 0xefcd00] frame B:20610 Avg QP:23.75  size:  5597
102[libx264 @ 0xefcd00] consecutive B-frames: 16.6% 61.9% 17.5%  4.0%
103[libx264 @ 0xefcd00] mb I  I16..4: 70.2%  0.0% 29.8%
104[libx264 @ 0xefcd00] mb P  I16..4: 25.5%  0.0%  0.0%  P16..4: 31.7%  0.0%  0.0%  0.0%  0.0%    skip:42.8%
105[libx264 @ 0xefcd00] mb B  I16..4:  8.6%  0.0%  0.0%  B16..8: 10.7%  0.0%  0.0%  direct:18.3%  skip:62.4%  L0:42.9% L1:47.0% BI:10.1%
106[libx264 @ 0xefcd00] coded y,uvDC,uvAC intra: 9.3% 49.9% 4.3% inter: 7.0% 28.3% 0.1%
107[libx264 @ 0xefcd00] i16 v,h,dc,p: 39% 35% 19%  8%
108[libx264 @ 0xefcd00] i4 v,h,dc,ddl,ddr,vr,hd,vl,hu: 33% 23% 19%  2%  5%  4%  5%  4%  4%
109[libx264 @ 0xefcd00] i8c dc,h,v,p: 40% 38% 20%  3%
110[libx264 @ 0xefcd00] Weighted P-Frames: Y:0.1% UV:0.0%
111[libx264 @ 0xefcd00] kb/s:2193.28
112ffmpeg version 0.7.13, Copyright (c) 2000-2011 the FFmpeg developers
113  built on Jun 13 2012 14:14:09 with gcc 4.4.5
114  configuration: --enable-libdc1394 --prefix=/usr --extra-cflags='-Wall -g ' --cc='ccache cc' --enable-shared --enable-libmp3lame --enable-gpl --enable-libvorbis --enable-pthreads --enable-libfaac --enable-libxvid --enable-postproc --enable-x11grab --enable-libgsm --enable-libtheora --enable-libopencore-amrnb --enable-libopencore-amrwb --enable-libx264 --enable-libspeex --enable-nonfree --disable-stripping --enable-avfilter --enable-libdirac --disable-decoder=libdirac --enable-libfreetype --enable-libschroedinger --disable-encoder=libschroedinger --enable-version3 --enable-libopenjpeg --enable-libvpx --enable-librtmp --extra-libs=-lgcrypt --disable-altivec --disable-armv5te --disable-armv6 --disable-vis
115  libavutil    50. 43. 0 / 50. 43. 0
116  libavcodec   52.123. 0 / 52.123. 0
117  libavformat  52.111. 0 / 52.111. 0
118  libavdevice  52.  5. 0 / 52.  5. 0
119  libavfilter   1. 80. 0 /  1. 80. 0
120  libswscale    0. 14. 1 /  0. 14. 1
121  libpostproc  51.  2. 0 / 51.  2. 0
12200001.MTS: Invalid data found when processing input
123ffmpeg version 0.7.13, Copyright (c) 2000-2011 the FFmpeg developers
124  built on Jun 13 2012 14:14:09 with gcc 4.4.5
125  configuration: --enable-libdc1394 --prefix=/usr --extra-cflags='-Wall -g ' --cc='ccache cc' --enable-shared --enable-libmp3lame --enable-gpl --enable-libvorbis --enable-pthreads --enable-libfaac --enable-libxvid --enable-postproc --enable-x11grab --enable-libgsm --enable-libtheora --enable-libopencore-amrnb --enable-libopencore-amrwb --enable-libx264 --enable-libspeex --enable-nonfree --disable-stripping --enable-avfilter --enable-libdirac --disable-decoder=libdirac --enable-libfreetype --enable-libschroedinger --disable-encoder=libschroedinger --enable-version3 --enable-libopenjpeg --enable-libvpx --enable-librtmp --extra-libs=-lgcrypt --disable-altivec --disable-armv5te --disable-armv6 --disable-vis
126  libavutil    50. 43. 0 / 50. 43. 0
127  libavcodec   52.123. 0 / 52.123. 0
128  libavformat  52.111. 0 / 52.111. 0
129  libavdevice  52.  5. 0 / 52.  5. 0
130  libavfilter   1. 80. 0 /  1. 80. 0
131  libswscale    0. 14. 1 /  0. 14. 1
132  libpostproc  51.  2. 0 / 51.  2. 0
13300001.MTS: Invalid data found when processing input
134ffmpeg version 0.7.13, Copyright (c) 2000-2011 the FFmpeg developers
135  built on Jun 13 2012 14:14:09 with gcc 4.4.5
136  configuration: --enable-libdc1394 --prefix=/usr --extra-cflags='-Wall -g ' --cc='ccache cc' --enable-shared --enable-libmp3lame --enable-gpl --enable-libvorbis --enable-pthreads --enable-libfaac --enable-libxvid --enable-postproc --enable-x11grab --enable-libgsm --enable-libtheora --enable-libopencore-amrnb --enable-libopencore-amrwb --enable-libx264 --enable-libspeex --enable-nonfree --disable-stripping --enable-avfilter --enable-libdirac --disable-decoder=libdirac --enable-libfreetype --enable-libschroedinger --disable-encoder=libschroedinger --enable-version3 --enable-libopenjpeg --enable-libvpx --enable-librtmp --extra-libs=-lgcrypt --disable-altivec --disable-armv5te --disable-armv6 --disable-vis
137  libavutil    50. 43. 0 / 50. 43. 0
138  libavcodec   52.123. 0 / 52.123. 0
139  libavformat  52.111. 0 / 52.111. 0
140  libavdevice  52.  5. 0 / 52.  5. 0
141  libavfilter   1. 80. 0 /  1. 80. 0
142  libswscale    0. 14. 1 /  0. 14. 1
143  libpostproc  51.  2. 0 / 51.  2. 0
144
145Seems stream 0 codec frame rate differs from container frame rate: 50.00 (50/1) -> 50.00 (50/1)
146Input #0, mpegts, from '00002.MTS':
147  Duration: 00:30:11.06, start: 3626.236000, bitrate: 9030 kb/s
148  Program 1
149    Stream #0.0[0x1011]: Video: h264 (High), yuv420p, 1440x1080 [PAR 4:3 DAR 16:9], 50 fps, 50 tbr, 90k tbn, 50 tbc
150    Stream #0.1[0x1100]: Audio: ac3, 48000 Hz, stereo, s16, 256 kb/s
151[buffer @ 0x1366ba0] w:1440 h:1080 pixfmt:yuv420p tb:1/1000000 sar:4/3 sws_param:
152[libx264 @ 0x1366d00] Default settings detected, using medium profile
153[libx264 @ 0x1366d00] using SAR=4/3
154[libx264 @ 0x1366d00] using cpu capabilities: MMX2 SSE2Fast FastShuffle SSEMisalign LZCNT
155[libx264 @ 0x1366d00] profile Main, level 4.0
156Output #0, rawvideo, to '/dev/null':
157  Metadata:
158    encoder         : Lavf52.111.0
159    Stream #0.0: Video: libx264, yuv420p, 1440x1080 [PAR 4:3 DAR 16:9], q=2-31, pass 1, 200 kb/s, 90k tbn, 25 tbc
160Stream mapping:
161  Stream #0.0 -> #0.0
162Press [q] to stop, [?] for help
163frame=13549 fps= 16 q=28.0 Lsize=  147712kB time=00:09:01.88 bitrate=2233.1kbits/s dup=1 drop=0
164video:147712kB audio:0kB global headers:0kB muxing overhead 0.000000%
165frame I:55    Avg QP:18.66  size: 74336
166[libx264 @ 0x1366d00] frame P:6866  Avg QP:21.26  size: 16161
167[libx264 @ 0x1366d00] frame B:6628  Avg QP:23.73  size:  5462
168[libx264 @ 0x1366d00] consecutive B-frames: 14.6% 51.9% 25.6%  7.9%
169[libx264 @ 0x1366d00] mb I  I16..4: 67.8%  0.0% 32.2%
170[libx264 @ 0x1366d00] mb P  I16..4: 24.3%  0.0%  0.0%  P16..4: 33.7%  0.0%  0.0%  0.0%  0.0%    skip:42.0%
171[libx264 @ 0x1366d00] mb B  I16..4:  8.4%  0.0%  0.0%  B16..8: 10.4%  0.0%  0.0%  direct:18.3%  skip:62.9%  L0:43.2% L1:47.5% BI: 9.4%
172[libx264 @ 0x1366d00] coded y,uvDC,uvAC intra: 8.0% 48.4% 3.5% inter: 7.9% 28.6% 0.1%
173[libx264 @ 0x1366d00] i16 v,h,dc,p: 39% 34% 20%  8%
174[libx264 @ 0x1366d00] i4 v,h,dc,ddl,ddr,vr,hd,vl,hu: 32% 24% 18%  2%  6%  4%  5%  4%  5%
175[libx264 @ 0x1366d00] i8c dc,h,v,p: 43% 36% 19%  3%
176[libx264 @ 0x1366d00] Weighted P-Frames: Y:0.2% UV:0.1%
177[libx264 @ 0x1366d00] kb/s:2232.75
178ffmpeg version 0.7.13, Copyright (c) 2000-2011 the FFmpeg developers
179  built on Jun 13 2012 14:14:09 with gcc 4.4.5
180  configuration: --enable-libdc1394 --prefix=/usr --extra-cflags='-Wall -g ' --cc='ccache cc' --enable-shared --enable-libmp3lame --enable-gpl --enable-libvorbis --enable-pthreads --enable-libfaac --enable-libxvid --enable-postproc --enable-x11grab --enable-libgsm --enable-libtheora --enable-libopencore-amrnb --enable-libopencore-amrwb --enable-libx264 --enable-libspeex --enable-nonfree --disable-stripping --enable-avfilter --enable-libdirac --disable-decoder=libdirac --enable-libfreetype --enable-libschroedinger --disable-encoder=libschroedinger --enable-version3 --enable-libopenjpeg --enable-libvpx --enable-librtmp --extra-libs=-lgcrypt --disable-altivec --disable-armv5te --disable-armv6 --disable-vis
181  libavutil    50. 43. 0 / 50. 43. 0
182  libavcodec   52.123. 0 / 52.123. 0
183  libavformat  52.111. 0 / 52.111. 0
184  libavdevice  52.  5. 0 / 52.  5. 0
185  libavfilter   1. 80. 0 /  1. 80. 0
186  libswscale    0. 14. 1 /  0. 14. 1
187  libpostproc  51.  2. 0 / 51.  2. 0
18800002.MTS: Invalid data found when processing input
189ffmpeg version 0.7.13, Copyright (c) 2000-2011 the FFmpeg developers
190  built on Jun 13 2012 14:14:09 with gcc 4.4.5
191  configuration: --enable-libdc1394 --prefix=/usr --extra-cflags='-Wall -g ' --cc='ccache cc' --enable-shared --enable-libmp3lame --enable-gpl --enable-libvorbis --enable-pthreads --enable-libfaac --enable-libxvid --enable-postproc --enable-x11grab --enable-libgsm --enable-libtheora --enable-libopencore-amrnb --enable-libopencore-amrwb --enable-libx264 --enable-libspeex --enable-nonfree --disable-stripping --enable-avfilter --enable-libdirac --disable-decoder=libdirac --enable-libfreetype --enable-libschroedinger --disable-encoder=libschroedinger --enable-version3 --enable-libopenjpeg --enable-libvpx --enable-librtmp --extra-libs=-lgcrypt --disable-altivec --disable-armv5te --disable-armv6 --disable-vis
192  libavutil    50. 43. 0 / 50. 43. 0
193  libavcodec   52.123. 0 / 52.123. 0
194  libavformat  52.111. 0 / 52.111. 0
195  libavdevice  52.  5. 0 / 52.  5. 0
196  libavfilter   1. 80. 0 /  1. 80. 0
197  libswscale    0. 14. 1 /  0. 14. 1
198  libpostproc  51.  2. 0 / 51.  2. 0
19900002.MTS: Invalid data found when processing input
200ffmpeg version 0.7.13, Copyright (c) 2000-2011 the FFmpeg developers
201  built on Jun 13 2012 14:14:09 with gcc 4.4.5
202  configuration: --enable-libdc1394 --prefix=/usr --extra-cflags='-Wall -g ' --cc='ccache cc' --enable-shared --enable-libmp3lame --enable-gpl --enable-libvorbis --enable-pthreads --enable-libfaac --enable-libxvid --enable-postproc --enable-x11grab --enable-libgsm --enable-libtheora --enable-libopencore-amrnb --enable-libopencore-amrwb --enable-libx264 --enable-libspeex --enable-nonfree --disable-stripping --enable-avfilter --enable-libdirac --disable-decoder=libdirac --enable-libfreetype --enable-libschroedinger --disable-encoder=libschroedinger --enable-version3 --enable-libopenjpeg --enable-libvpx --enable-librtmp --extra-libs=-lgcrypt --disable-altivec --disable-armv5te --disable-armv6 --disable-vis
203  libavutil    50. 43. 0 / 50. 43. 0
204  libavcodec   52.123. 0 / 52.123. 0
205  libavformat  52.111. 0 / 52.111. 0
206  libavdevice  52.  5. 0 / 52.  5. 0
207  libavfilter   1. 80. 0 /  1. 80. 0
208  libswscale    0. 14. 1 /  0. 14. 1
209  libpostproc  51.  2. 0 / 51.  2. 0
21000002.MTS: Invalid data found when processing input
211ffmpeg version 0.7.13, Copyright (c) 2000-2011 the FFmpeg developers
212  built on Jun 13 2012 14:14:09 with gcc 4.4.5
213  configuration: --enable-libdc1394 --prefix=/usr --extra-cflags='-Wall -g ' --cc='ccache cc' --enable-shared --enable-libmp3lame --enable-gpl --enable-libvorbis --enable-pthreads --enable-libfaac --enable-libxvid --enable-postproc --enable-x11grab --enable-libgsm --enable-libtheora --enable-libopencore-amrnb --enable-libopencore-amrwb --enable-libx264 --enable-libspeex --enable-nonfree --disable-stripping --enable-avfilter --enable-libdirac --disable-decoder=libdirac --enable-libfreetype --enable-libschroedinger --disable-encoder=libschroedinger --enable-version3 --enable-libopenjpeg --enable-libvpx --enable-librtmp --extra-libs=-lgcrypt --disable-altivec --disable-armv5te --disable-armv6 --disable-vis
214  libavutil    50. 43. 0 / 50. 43. 0
215  libavcodec   52.123. 0 / 52.123. 0
216  libavformat  52.111. 0 / 52.111. 0
217  libavdevice  52.  5. 0 / 52.  5. 0
218  libavfilter   1. 80. 0 /  1. 80. 0
219  libswscale    0. 14. 1 /  0. 14. 1
220  libpostproc  51.  2. 0 / 51.  2. 0
22100002.MTS: Invalid data found when processing input
222ffmpeg version 0.7.13, Copyright (c) 2000-2011 the FFmpeg developers
223  built on Jun 13 2012 14:14:09 with gcc 4.4.5
224  configuration: --enable-libdc1394 --prefix=/usr --extra-cflags='-Wall -g ' --cc='ccache cc' --enable-shared --enable-libmp3lame --enable-gpl --enable-libvorbis --enable-pthreads --enable-libfaac --enable-libxvid --enable-postproc --enable-x11grab --enable-libgsm --enable-libtheora --enable-libopencore-amrnb --enable-libopencore-amrwb --enable-libx264 --enable-libspeex --enable-nonfree --disable-stripping --enable-avfilter --enable-libdirac --disable-decoder=libdirac --enable-libfreetype --enable-libschroedinger --disable-encoder=libschroedinger --enable-version3 --enable-libopenjpeg --enable-libvpx --enable-librtmp --extra-libs=-lgcrypt --disable-altivec --disable-armv5te --disable-armv6 --disable-vis
225  libavutil    50. 43. 0 / 50. 43. 0
226  libavcodec   52.123. 0 / 52.123. 0
227  libavformat  52.111. 0 / 52.111. 0
228  libavdevice  52.  5. 0 / 52.  5. 0
229  libavfilter   1. 80. 0 /  1. 80. 0
230  libswscale    0. 14. 1 /  0. 14. 1
231  libpostproc  51.  2. 0 / 51.  2. 0
23200002.MTS: Invalid data found when processing input
233ffmpeg version 0.7.13, Copyright (c) 2000-2011 the FFmpeg developers
234  built on Jun 13 2012 14:14:09 with gcc 4.4.5
235  configuration: --enable-libdc1394 --prefix=/usr --extra-cflags='-Wall -g ' --cc='ccache cc' --enable-shared --enable-libmp3lame --enable-gpl --enable-libvorbis --enable-pthreads --enable-libfaac --enable-libxvid --enable-postproc --enable-x11grab --enable-libgsm --enable-libtheora --enable-libopencore-amrnb --enable-libopencore-amrwb --enable-libx264 --enable-libspeex --enable-nonfree --disable-stripping --enable-avfilter --enable-libdirac --disable-decoder=libdirac --enable-libfreetype --enable-libschroedinger --disable-encoder=libschroedinger --enable-version3 --enable-libopenjpeg --enable-libvpx --enable-librtmp --extra-libs=-lgcrypt --disable-altivec --disable-armv5te --disable-armv6 --disable-vis
236  libavutil    50. 43. 0 / 50. 43. 0
237  libavcodec   52.123. 0 / 52.123. 0
238  libavformat  52.111. 0 / 52.111. 0
239  libavdevice  52.  5. 0 / 52.  5. 0
240  libavfilter   1. 80. 0 /  1. 80. 0
241  libswscale    0. 14. 1 /  0. 14. 1
242  libpostproc  51.  2. 0 / 51.  2. 0
243
244Seems stream 0 codec frame rate differs from container frame rate: 50.00 (50/1) -> 50.00 (50/1)
245Input #0, mpegts, from '00003.MTS':
246  Duration: 00:30:07.19, start: 5437.300033, bitrate: 9047 kb/s
247  Program 1
248    Stream #0.0[0x1011]: Video: h264 (High), yuv420p, 1440x1080 [PAR 4:3 DAR 16:9], 50 fps, 50 tbr, 90k tbn, 50 tbc
249    Stream #0.1[0x1100]: Audio: ac3, 48000 Hz, stereo, s16, 256 kb/s
250[buffer @ 0x175fba0] w:1440 h:1080 pixfmt:yuv420p tb:1/1000000 sar:4/3 sws_param:
251[libx264 @ 0x175fd00] Default settings detected, using medium profile
252[libx264 @ 0x175fd00] using SAR=4/3
253[libx264 @ 0x175fd00] using cpu capabilities: MMX2 SSE2Fast FastShuffle SSEMisalign LZCNT
254[libx264 @ 0x175fd00] profile Main, level 4.0
255Output #0, rawvideo, to '/dev/null':
256  Metadata:
257    encoder         : Lavf52.111.0
258    Stream #0.0: Video: libx264, yuv420p, 1440x1080 [PAR 4:3 DAR 16:9], q=2-31, pass 1, 200 kb/s, 90k tbn, 25 tbc
259Stream mapping:
260  Stream #0.0 -> #0.0
261Press [q] to stop, [?] for help
262^C^C^C^C^C^C^C^C^C^C^C^C^C^C^C^C^C^C^C^C^C^C^C^C^C^C^C^C^C^C^C^C^C^C^Cframe=20835 fps= 13 q=28.0 Lsize=  226136kB time=00:13:53.32 bitrate=2223.0kbits/s
263video:226136kB audio:0kB global headers:0kB muxing overhead 0.000000%
264frame I:84    Avg QP:18.51  size: 69956
265[libx264 @ 0x175fd00] frame P:10474 Avg QP:21.19  size: 15885
266[libx264 @ 0x175fd00] frame B:10277 Avg QP:23.56  size:  5771
267[libx264 @ 0x175fd00] consecutive B-frames: 14.7% 50.6% 23.9% 10.8%
268[libx264 @ 0x175fd00] mb I  I16..4: 68.9%  0.0% 31.1%
269[libx264 @ 0x175fd00] mb P  I16..4: 25.0%  0.0%  0.0%  P16..4: 32.4%  0.0%  0.0%  0.0%  0.0%    skip:42.6%
270[libx264 @ 0x175fd00] mb B  I16..4:  8.1%  0.0%  0.0%  B16..8: 10.8%  0.0%  0.0%  direct:18.7%  skip:62.4%  L0:42.6% L1:47.0% BI:10.3%
271[libx264 @ 0x175fd00] coded y,uvDC,uvAC intra: 9.1% 48.4% 3.6% inter: 7.4% 28.8% 0.1%
272[libx264 @ 0x175fd00] i16 v,h,dc,p: 38% 34% 19%  8%
273[libx264 @ 0x175fd00] i4 v,h,dc,ddl,ddr,vr,hd,vl,hu: 32% 24% 19%  2%  5%  4%  5%  4%  5%
274[libx264 @ 0x175fd00] i8c dc,h,v,p: 42% 37% 18%  3%
275[libx264 @ 0x175fd00] Weighted P-Frames: Y:0.2% UV:0.1%
276[libx264 @ 0x175fd00] kb/s:2222.83
277^C^C^CReceived signal 2: terminating.
278ffmpeg version 0.7.13, Copyright (c) 2000-2011 the FFmpeg developers
279  built on Jun 13 2012 14:14:09 with gcc 4.4.5
280  configuration: --enable-libdc1394 --prefix=/usr --extra-cflags='-Wall -g ' --cc='ccache cc' --enable-shared --enable-libmp3lame --enable-gpl --enable-libvorbis --enable-pthreads --enable-libfaac --enable-libxvid --enable-postproc --enable-x11grab --enable-libgsm --enable-libtheora --enable-libopencore-amrnb --enable-libopencore-amrwb --enable-libx264 --enable-libspeex --enable-nonfree --disable-stripping --enable-avfilter --enable-libdirac --disable-decoder=libdirac --enable-libfreetype --enable-libschroedinger --disable-encoder=libschroedinger --enable-version3 --enable-libopenjpeg --enable-libvpx --enable-librtmp --extra-libs=-lgcrypt --disable-altivec --disable-armv5te --disable-armv6 --disable-vis
281  libavutil    50. 43. 0 / 50. 43. 0
282  libavcodec   52.123. 0 / 52.123. 0
283  libavformat  52.111. 0 / 52.111. 0
284  libavdevice  52.  5. 0 / 52.  5. 0
285  libavfilter   1. 80. 0 /  1. 80. 0
286  libswscale    0. 14. 1 /  0. 14. 1
287  libpostproc  51.  2. 0 / 51.  2. 0
288^C