Ticket #1686: 6968a7d-good_results.txt

File 6968a7d-good_results.txt, 10.7 KB (added by jonb, 4 years ago)
Line 
1jonbendtsen@media:/jon_compiles_ffmpeg/6968a7d/ffmpeg/overwrite$ ./ffmpeg_cmdlines.sh
2total 38184
3drwxr-xr-x  2 jonbendtsen jonbendtsen       63 Aug 30 13:50 .
4drwxr-xr-x 18 jonbendtsen jonbendtsen     4096 Aug 30 13:10 ..
5-rwxr-xr-x  1 jonbendtsen jonbendtsen 19544064 Aug 30 13:11 00000.MTS
6-rwxr-xr-x  1 jonbendtsen jonbendtsen 19544064 Aug 30 13:11 00011.MTS
7-rwxr-xr-x  1 jonbendtsen jonbendtsen      548 Aug 30 13:49 ffmpeg_cmdlines.sh
8ffmpeg version N-38791-g6968a7d Copyright (c) 2000-2012 the FFmpeg developers
9  built on Aug 30 2012 12:46:33 with gcc 4.4.5
10  configuration: --enable-gpl --enable-libx264
11  libavutil      51. 42.100 / 51. 42.100
12  libavcodec     54. 10.100 / 54. 10.100
13  libavformat    54.  2.100 / 54.  2.100
14  libavdevice    53.  4.100 / 53.  4.100
15  libavfilter     2. 64.101 /  2. 64.101
16  libswscale      2.  1.100 /  2.  1.100
17  libswresample   0.  7.100 /  0.  7.100
18  libpostproc    52.  0.100 / 52.  0.100
19[h264 @ 0x2a3d1e0] Increasing reorder buffer to 1
20Input #0, mpegts, from '00000.MTS':
21  Duration: 00:00:11.04, start: 0.483756, bitrate: 14152 kb/s
22  Program 1
23    Stream #0:0[0x1011]: Video: h264 (High) (HDMV / 0x564D4448), yuv420p, 1440x1080 [SAR 4:3 DAR 16:9], 50 fps, 50 tbr, 90k tbn, 50 tbc
24    Stream #0:1[0x1100]: Audio: ac3 (AC-3 / 0x332D4341), 48000 Hz, stereo, s16, 256 kb/s
25[buffer @ 0x2a3e7a0] w:1440 h:1080 pixfmt:yuv420p tb:1/1000000 sar:4/3 sws_param:
26[yadif @ 0x2a5f6e0] mode:0 parity:-1 auto_enable:0
27[libx264 @ 0x2a3bb60] using SAR=4/3
28[libx264 @ 0x2a3bb60] using cpu capabilities: MMX2 SSE2Fast FastShuffle SSEMisalign LZCNT
29[libx264 @ 0x2a3bb60] profile Main, level 4.0
30Output #0, rawvideo, to '/dev/null':
31  Metadata:
32    encoder         : Lavf54.2.100
33    Stream #0:0: Video: h264, yuv420p, 1440x1080 [SAR 4:3 DAR 16:9], q=-1--1, pass 1, 1000 kb/s, 90k tbn, 25 tbc
34Stream mapping:
35  Stream #0:0 -> #0:0 (h264 -> libx264)
36Press [q] to stop, [?] for help
37frame=  275 fps= 36 q=-1.0 Lsize=    1412kB time=00:00:10.92 bitrate=1059.5kbits/s
38video:1412kB audio:0kB global headers:0kB muxing overhead 0.000000%
39[libx264 @ 0x2a3bb60] frame I:3     Avg QP:21.84  size: 33120
40[libx264 @ 0x2a3bb60] frame P:106   Avg QP:21.39  size: 11094
41[libx264 @ 0x2a3bb60] frame B:166   Avg QP:21.54  size:  1029
42[libx264 @ 0x2a3bb60] consecutive B-frames: 11.6% 17.5% 18.5% 52.4%
43[libx264 @ 0x2a3bb60] mb I  I16..4: 81.9%  0.0% 18.1%
44[libx264 @ 0x2a3bb60] mb P  I16..4: 15.0%  0.0%  0.0%  P16..4: 31.0%  0.0%  0.0%  0.0%  0.0%    skip:53.9%
45[libx264 @ 0x2a3bb60] mb B  I16..4:  0.6%  0.0%  0.0%  B16..8:  3.3%  0.0%  0.0%  direct: 4.6%  skip:91.4%  L0:30.1% L1:67.7% BI: 2.1%
46[libx264 @ 0x2a3bb60] final ratefactor: 22.61
47[libx264 @ 0x2a3bb60] coded y,uvDC,uvAC intra: 15.5% 32.0% 1.9% inter: 3.0% 8.1% 0.0%
48[libx264 @ 0x2a3bb60] i16 v,h,dc,p: 44% 28% 18%  9%
49[libx264 @ 0x2a3bb60] i4 v,h,dc,ddl,ddr,vr,hd,vl,hu: 23% 23% 26%  2%  5%  5%  5%  3%  8%
50[libx264 @ 0x2a3bb60] i8c dc,h,v,p: 58% 18% 22%  2%
51[libx264 @ 0x2a3bb60] Weighted P-Frames: Y:0.0% UV:0.0%
52[libx264 @ 0x2a3bb60] kb/s:1051.76
53total 40156
54drwxr-xr-x  2 jonbendtsen jonbendtsen      114 Aug 30 13:50 .
55drwxr-xr-x 18 jonbendtsen jonbendtsen     4096 Aug 30 13:10 ..
56-rwxr-xr-x  1 jonbendtsen jonbendtsen 19544064 Aug 30 13:11 00000.MTS
57-rw-r--r--  1 jonbendtsen jonbendtsen    30384 Aug 30 13:50 00000.MTS-0.log
58-rw-r--r--  1 jonbendtsen jonbendtsen  1983042 Aug 30 13:50 00000.MTS-0.log.mbtree
59-rwxr-xr-x  1 jonbendtsen jonbendtsen 19544064 Aug 30 13:11 00011.MTS
60-rwxr-xr-x  1 jonbendtsen jonbendtsen      548 Aug 30 13:49 ffmpeg_cmdlines.sh
61ffmpeg version N-38791-g6968a7d Copyright (c) 2000-2012 the FFmpeg developers
62  built on Aug 30 2012 12:46:33 with gcc 4.4.5
63  configuration: --enable-gpl --enable-libx264
64  libavutil      51. 42.100 / 51. 42.100
65  libavcodec     54. 10.100 / 54. 10.100
66  libavformat    54.  2.100 / 54.  2.100
67  libavdevice    53.  4.100 / 53.  4.100
68  libavfilter     2. 64.101 /  2. 64.101
69  libswscale      2.  1.100 /  2.  1.100
70  libswresample   0.  7.100 /  0.  7.100
71  libpostproc    52.  0.100 / 52.  0.100
72[h264 @ 0x31ae1e0] Increasing reorder buffer to 1
73Input #0, mpegts, from '00000.MTS':
74  Duration: 00:00:11.04, start: 0.483756, bitrate: 14152 kb/s
75  Program 1
76    Stream #0:0[0x1011]: Video: h264 (High) (HDMV / 0x564D4448), yuv420p, 1440x1080 [SAR 4:3 DAR 16:9], 50 fps, 50 tbr, 90k tbn, 50 tbc
77    Stream #0:1[0x1100]: Audio: ac3 (AC-3 / 0x332D4341), 48000 Hz, stereo, s16, 256 kb/s
78[buffer @ 0x31af7a0] w:1440 h:1080 pixfmt:yuv420p tb:1/1000000 sar:4/3 sws_param:
79[yadif @ 0x31d06e0] mode:0 parity:-1 auto_enable:0
80[libx264 @ 0x31acb60] using SAR=4/3
81[libx264 @ 0x31acb60] using cpu capabilities: MMX2 SSE2Fast FastShuffle SSEMisalign LZCNT
82[libx264 @ 0x31acb60] profile High, level 4.0
83Output #0, rawvideo, to '/dev/null':
84  Metadata:
85    encoder         : Lavf54.2.100
86    Stream #0:0: Video: h264, yuv420p, 1440x1080 [SAR 4:3 DAR 16:9], q=-1--1, pass 2, 1000 kb/s, 90k tbn, 25 tbc
87Stream mapping:
88  Stream #0:0 -> #0:0 (h264 -> libx264)
89Press [q] to stop, [?] for help
90frame=  275 fps= 24 q=-1.0 Lsize=    1370kB time=00:00:10.92 bitrate=1028.0kbits/s
91video:1370kB audio:0kB global headers:0kB muxing overhead 0.000000%
92[libx264 @ 0x31acb60] frame I:3     Avg QP:19.58  size: 44504
93[libx264 @ 0x31acb60] frame P:106   Avg QP:22.78  size:  9338
94[libx264 @ 0x31acb60] frame B:166   Avg QP:23.21  size:  1686
95[libx264 @ 0x31acb60] consecutive B-frames: 11.6% 17.5% 18.5% 52.4%
96[libx264 @ 0x31acb60] mb I  I16..4: 35.0% 60.1%  4.9%
97[libx264 @ 0x31acb60] mb P  I16..4:  3.2%  2.7%  0.1%  P16..4: 35.8%  3.4%  3.6%  0.0%  0.0%    skip:51.2%
98[libx264 @ 0x31acb60] mb B  I16..4:  0.0%  0.0%  0.0%  B16..8: 23.9%  0.1%  0.0%  direct: 0.1%  skip:75.9%  L0:32.6% L1:67.2% BI: 0.1%
99[libx264 @ 0x31acb60] 8x8 transform intra:49.4% inter:90.9%
100[libx264 @ 0x31acb60] coded y,uvDC,uvAC intra: 30.4% 42.3% 6.0% inter: 4.1% 10.0% 0.0%
101[libx264 @ 0x31acb60] i16 v,h,dc,p: 37% 25%  7% 31%
102[libx264 @ 0x31acb60] i8 v,h,dc,ddl,ddr,vr,hd,vl,hu: 26% 14% 36%  4%  4%  5%  4%  3%  4%
103[libx264 @ 0x31acb60] i4 v,h,dc,ddl,ddr,vr,hd,vl,hu: 36% 15% 19%  4%  5%  8%  4%  4%  5%
104[libx264 @ 0x31acb60] i8c dc,h,v,p: 60% 17% 21%  2%
105[libx264 @ 0x31acb60] Weighted P-Frames: Y:0.0% UV:0.0%
106[libx264 @ 0x31acb60] ref P L0: 63.9% 10.2% 18.4%  7.5%
107[libx264 @ 0x31acb60] ref B L0: 81.4% 16.2%  2.3%
108[libx264 @ 0x31acb60] ref B L1: 92.7%  7.3%
109[libx264 @ 0x31acb60] kb/s:1020.56
110total 40156
111drwxr-xr-x  2 jonbendtsen jonbendtsen      114 Aug 30 13:50 .
112drwxr-xr-x 18 jonbendtsen jonbendtsen     4096 Aug 30 13:10 ..
113-rwxr-xr-x  1 jonbendtsen jonbendtsen 19544064 Aug 30 13:11 00000.MTS
114-rw-r--r--  1 jonbendtsen jonbendtsen    30384 Aug 30 13:50 00000.MTS-0.log
115-rw-r--r--  1 jonbendtsen jonbendtsen  1983042 Aug 30 13:50 00000.MTS-0.log.mbtree
116-rwxr-xr-x  1 jonbendtsen jonbendtsen 19544064 Aug 30 13:11 00011.MTS
117-rwxr-xr-x  1 jonbendtsen jonbendtsen      548 Aug 30 13:49 ffmpeg_cmdlines.sh
118ffmpeg version N-38791-g6968a7d Copyright (c) 2000-2012 the FFmpeg developers
119  built on Aug 30 2012 12:46:33 with gcc 4.4.5
120  configuration: --enable-gpl --enable-libx264
121  libavutil      51. 42.100 / 51. 42.100
122  libavcodec     54. 10.100 / 54. 10.100
123  libavformat    54.  2.100 / 54.  2.100
124  libavdevice    53.  4.100 / 53.  4.100
125  libavfilter     2. 64.101 /  2. 64.101
126  libswscale      2.  1.100 /  2.  1.100
127  libswresample   0.  7.100 /  0.  7.100
128  libpostproc    52.  0.100 / 52.  0.100
129[h264 @ 0x175b1e0] Increasing reorder buffer to 1
130Input #0, mpegts, from '00000.MTS':
131  Duration: 00:00:11.04, start: 0.483756, bitrate: 14152 kb/s
132  Program 1
133    Stream #0:0[0x1011]: Video: h264 (High) (HDMV / 0x564D4448), yuv420p, 1440x1080 [SAR 4:3 DAR 16:9], 50 fps, 50 tbr, 90k tbn, 50 tbc
134    Stream #0:1[0x1100]: Audio: ac3 (AC-3 / 0x332D4341), 48000 Hz, stereo, s16, 256 kb/s
135[buffer @ 0x175c380] w:1440 h:1080 pixfmt:yuv420p tb:1/1000000 sar:4/3 sws_param:
136[yadif @ 0x177d6e0] mode:0 parity:-1 auto_enable:0
137[libx264 @ 0x1759b60] using SAR=4/3
138[libx264 @ 0x1759b60] using cpu capabilities: MMX2 SSE2Fast FastShuffle SSEMisalign LZCNT
139[libx264 @ 0x1759b60] profile High, level 4.0
140Output #0, h264, to '00000.MTS.ss438.h264':
141  Metadata:
142    encoder         : Lavf54.2.100
143    Stream #0:0: Video: h264, yuv420p, 1440x1080 [SAR 4:3 DAR 16:9], q=-1--1, pass 1, pass 2, 1000 kb/s, 90k tbn, 25 tbc
144Stream mapping:
145  Stream #0:0 -> #0:0 (h264 -> libx264)
146Press [q] to stop, [?] for help
147frame=  275 fps= 24 q=-1.0 Lsize=    1370kB time=00:00:10.92 bitrate=1028.0kbits/s
148video:1370kB audio:0kB global headers:0kB muxing overhead 0.000000%
149[libx264 @ 0x1759b60] frame I:3     Avg QP:19.58  size: 44504
150[libx264 @ 0x1759b60] frame P:106   Avg QP:22.78  size:  9338
151[libx264 @ 0x1759b60] frame B:166   Avg QP:23.21  size:  1686
152[libx264 @ 0x1759b60] consecutive B-frames: 11.6% 17.5% 18.5% 52.4%
153[libx264 @ 0x1759b60] mb I  I16..4: 35.0% 60.1%  4.9%
154[libx264 @ 0x1759b60] mb P  I16..4:  3.2%  2.7%  0.1%  P16..4: 35.8%  3.4%  3.6%  0.0%  0.0%    skip:51.2%
155[libx264 @ 0x1759b60] mb B  I16..4:  0.0%  0.0%  0.0%  B16..8: 23.9%  0.1%  0.0%  direct: 0.1%  skip:75.9%  L0:32.6% L1:67.2% BI: 0.1%
156[libx264 @ 0x1759b60] 8x8 transform intra:49.4% inter:90.9%
157[libx264 @ 0x1759b60] coded y,uvDC,uvAC intra: 30.4% 42.3% 6.0% inter: 4.1% 10.0% 0.0%
158[libx264 @ 0x1759b60] i16 v,h,dc,p: 37% 25%  7% 31%
159[libx264 @ 0x1759b60] i8 v,h,dc,ddl,ddr,vr,hd,vl,hu: 26% 14% 36%  4%  4%  5%  4%  3%  4%
160[libx264 @ 0x1759b60] i4 v,h,dc,ddl,ddr,vr,hd,vl,hu: 36% 15% 19%  4%  5%  8%  4%  4%  5%
161[libx264 @ 0x1759b60] i8c dc,h,v,p: 60% 17% 21%  2%
162[libx264 @ 0x1759b60] Weighted P-Frames: Y:0.0% UV:0.0%
163[libx264 @ 0x1759b60] ref P L0: 63.9% 10.2% 18.4%  7.5%
164[libx264 @ 0x1759b60] ref B L0: 81.4% 16.2%  2.3%
165[libx264 @ 0x1759b60] ref B L1: 92.7%  7.3%
166[libx264 @ 0x1759b60] kb/s:1020.56
167total 41532
168drwxr-xr-x  2 jonbendtsen jonbendtsen      141 Aug 30 13:50 .
169drwxr-xr-x 18 jonbendtsen jonbendtsen     4096 Aug 30 13:10 ..
170-rwxr-xr-x  1 jonbendtsen jonbendtsen 19544064 Aug 30 13:11 00000.MTS
171-rw-r--r--  1 jonbendtsen jonbendtsen    33375 Aug 30 13:50 00000.MTS-0.log
172-rw-r--r--  1 jonbendtsen jonbendtsen  1983042 Aug 30 13:50 00000.MTS-0.log.mbtree
173-rw-r--r--  1 jonbendtsen jonbendtsen  1403264 Aug 30 13:50 00000.MTS.ss438.h264
174-rwxr-xr-x  1 jonbendtsen jonbendtsen 19544064 Aug 30 13:11 00011.MTS
175-rwxr-xr-x  1 jonbendtsen jonbendtsen      548 Aug 30 13:49 ffmpeg_cmdlines.sh
176jonbendtsen@media:/jon_compiles_ffmpeg/6968a7d/ffmpeg/overwrite$ cat ffmpeg_cmdlines.sh
177ls -la
178../ffmpeg -i 00000.MTS -vcodec libx264 -acodec copy -filter:v yadif -b:v 1000000 -r 25 -s 1440x1080 -pass 1 -an -passlogfile 00000.MTS -f rawvideo -y /dev/null
179ls -la
180../ffmpeg -i 00000.MTS -vcodec libx264 -acodec copy -filter:v yadif -b:v 1000000 -r 25 -s 1440x1080 -pass 2 -an -passlogfile 00000.MTS -f rawvideo -y /dev/null || ffmpeg -i 00000.MTS
181ls -la
182../ffmpeg -i 00000.MTS -vcodec libx264 -acodec copy -filter:v yadif -b:v 1000000 -r 25 -s 1440x1080 -pass 3 -passlogfile 00000.MTS 00000.MTS.ss438.h264 || ffmpeg -i 00000.MTS
183ls -la
184