Ticket #1682: output.log

File output.log, 66.8 KB (added by intracube, 4 years ago)

ffmpeg command line output

Line 
1Running:
2ffmpeg -v 9 -loglevel 99 -i 00605.MTS -vf yadif=0,scale=720:576 -r 25 -target pal-dvd -aspect 16:9 output.mpg
3
4
5ffmpeg version N-43891-g65b552c Copyright (c) 2000-2012 the FFmpeg developers
6  built on Aug 25 2012 15:54:15 with gcc 4.6 (SUSE Linux)
7  configuration: --prefix=/home/compile/ffmpeg --bindir=/home/compile/ffmpeg/bin --datadir=/home/compile/ffmpeg/share/ffmpeg --libdir=/home/compile/ffmpeg/lib --shlibdir=/home/compile/ffmpeg/lib --incdir=/home/compile/ffmpeg/include --mandir=/home/compile/ffmpeg/share.man --enable-avresample --enable-x11grab --enable-libdc1394 --enable-libfaac --enable-libmp3lame --enable-librtmp --enable-libtheora --enable-libtwolame --enable-libv4l2 --enable-libvpx --enable-libx264 --enable-libxvid --enable-gpl --enable-nonfree
8  libavutil      51. 70.100 / 51. 70.100
9  libavcodec     54. 54.100 / 54. 54.100
10  libavformat    54. 25.104 / 54. 25.104
11  libavdevice    54.  2.100 / 54.  2.100
12  libavfilter     3. 13.101 /  3. 13.101
13  libswscale      2.  1.101 /  2.  1.101
14  libswresample   0. 15.100 /  0. 15.100
15  libpostproc    52.  0.100 / 52.  0.100
16[mpegts @ 0x1502280] Format mpegts probed with size=2048 and score=100
17[mpegts @ 0x1502280] stream=0 stream_type=1b pid=1011 prog_reg_desc=HDMV
18[mpegts @ 0x1502280] stream=1 stream_type=81 pid=1100 prog_reg_desc=HDMV
19[mpegts @ 0x1502280] File position before avformat_find_stream_info() is 0
20[mpegts @ 0x1502280] first_dts 41563 not matching first dts 43363 in que
21[mpegts @ 0x1502280] first_dts 41563 not matching first dts 46963 in que
22[h264 @ 0x1506100] Increasing reorder buffer to 1
23[h264 @ 0x1506100] no picture ooo
24[mpegts @ 0x1502280] first_dts 41563 not matching first dts 50563 in que
25[h264 @ 0x1506100] no picture ooo
26[mpegts @ 0x1502280] first_dts 41563 not matching first dts 54163 in que
27[h264 @ 0x1506100] no picture
28[mpegts @ 0x1502280] first_dts 41563 not matching first dts 57763 in que
29[mpegts @ 0x1502280] first_dts 41563 not matching first dts 61363 in que
30[mpegts @ 0x1502280] first_dts 41563 not matching first dts 64963 in que
31[mpegts @ 0x1502280] first_dts 41563 not matching first dts 68563 in que
32[mpegts @ 0x1502280] first_dts 41563 not matching first dts 72163 in que
33[mpegts @ 0x1502280] first_dts 41563 not matching first dts 75763 in que
34[mpegts @ 0x1502280] first_dts 41563 not matching first dts 79363 in que
35[mpegts @ 0x1502280] first_dts 41563 not matching first dts 82963 in que
36[mpegts @ 0x1502280] first_dts 41563 not matching first dts 86563 in que
37[mpegts @ 0x1502280] first_dts 41563 not matching first dts 90163 in que
38[mpegts @ 0x1502280] first_dts 41563 not matching first dts 93763 in que
39[mpegts @ 0x1502280] first_dts 41563 not matching first dts 97363 in que
40[mpegts @ 0x1502280] first_dts 41563 not matching first dts 100963 in que
41[mpegts @ 0x1502280] first_dts 41563 not matching first dts 104563 in que
42[mpegts @ 0x1502280] first_dts 41563 not matching first dts 108163 in que
43[mpegts @ 0x1502280] first_dts 41563 not matching first dts 111763 in que
44[mpegts @ 0x1502280] first_dts 41563 not matching first dts 115363 in que
45[mpegts @ 0x1502280] first_dts 41563 not matching first dts 118963 in que
46[mpegts @ 0x1502280] first_dts 41563 not matching first dts 122563 in que
47[mpegts @ 0x1502280] first_dts 41563 not matching first dts 126163 in que
48[mpegts @ 0x1502280] first_dts 41563 not matching first dts 129763 in que
49[mpegts @ 0x1502280] first_dts 41563 not matching first dts 133363 in que
50[mpegts @ 0x1502280] first_dts 41563 not matching first dts 136963 in que
51[mpegts @ 0x1502280] first_dts 41563 not matching first dts 140563 in que
52[mpegts @ 0x1502280] first_dts 41563 not matching first dts 144163 in que
53[mpegts @ 0x1502280] first_dts 41563 not matching first dts 147763 in que
54[mpegts @ 0x1502280] first_dts 41563 not matching first dts 151363 in que
55[mpegts @ 0x1502280] first_dts 41563 not matching first dts 154963 in que
56[mpegts @ 0x1502280] first_dts 41563 not matching first dts 158563 in que
57[mpegts @ 0x1502280] first_dts 41563 not matching first dts 162163 in que
58[mpegts @ 0x1502280] first_dts 41563 not matching first dts 165763 in que
59[mpegts @ 0x1502280] first_dts 41563 not matching first dts 169363 in que
60[mpegts @ 0x1502280] first_dts 41563 not matching first dts 172963 in que
61[mpegts @ 0x1502280] first_dts 41563 not matching first dts 176563 in que
62[mpegts @ 0x1502280] first_dts 41563 not matching first dts 180163 in que
63[mpegts @ 0x1502280] first_dts 41563 not matching first dts 183763 in que
64[mpegts @ 0x1502280] first_dts 41563 not matching first dts 187363 in que
65[mpegts @ 0x1502280] first_dts 41563 not matching first dts 190963 in que
66[mpegts @ 0x1502280] first_dts 41563 not matching first dts 194563 in que
67[mpegts @ 0x1502280] first_dts 41563 not matching first dts 198163 in que
68[mpegts @ 0x1502280] first_dts 41563 not matching first dts 201763 in que
69[mpegts @ 0x1502280] first_dts 41563 not matching first dts 205363 in que
70[mpegts @ 0x1502280] first_dts 41563 not matching first dts 208963 in que
71[mpegts @ 0x1502280] first_dts 41563 not matching first dts 212563 in que
72[mpegts @ 0x1502280] first_dts 41563 not matching first dts 216163 in que
73[mpegts @ 0x1502280] first_dts 41563 not matching first dts 219763 in que
74[mpegts @ 0x1502280] first_dts 41563 not matching first dts 223363 in que
75[mpegts @ 0x1502280] first_dts 41563 not matching first dts 226963 in que
76[mpegts @ 0x1502280] first_dts 41563 not matching first dts 230563 in que
77[mpegts @ 0x1502280] first_dts 41563 not matching first dts 234163 in que
78[mpegts @ 0x1502280] first_dts 41563 not matching first dts 237763 in que
79[mpegts @ 0x1502280] first_dts 41563 not matching first dts 241363 in que
80[mpegts @ 0x1502280] first_dts 41563 not matching first dts 244963 in que
81[mpegts @ 0x1502280] first_dts 41563 not matching first dts 248563 in que
82[mpegts @ 0x1502280] first_dts 41563 not matching first dts 252163 in que
83[mpegts @ 0x1502280] first_dts 41563 not matching first dts 255763 in que
84[mpegts @ 0x1502280] first_dts 41563 not matching first dts 259363 in que
85[mpegts @ 0x1502280] first_dts 41563 not matching first dts 262963 in que
86[mpegts @ 0x1502280] first_dts 41563 not matching first dts 266563 in que
87[mpegts @ 0x1502280] first_dts 41563 not matching first dts 270163 in que
88[mpegts @ 0x1502280] Probe buffer size limit 5000000 reached
89[mpegts @ 0x1502280] File position after avformat_find_stream_info() is 0
90Input #0, mpegts, from '00605.MTS':
91  Duration: 00:00:27.84, start: 0.461844, bitrate: 15851 kb/s
92  Program 1
93    Stream #0:0[0x1011], 128, 1/90000: Video: h264 (High) (HDMV / 0x564D4448), yuv420p, 1920x1080 [SAR 1:1 DAR 16:9], 1/50, 50 fps, 50 tbr, 90k tbn, 50 tbc
94    Stream #0:1[0x1100], 82, 1/90000: Audio: ac3 (AC-3 / 0x332D4341), 48000 Hz, stereo, s16, 256 kb/s
95[Parsed_yadif_0 @ 0x1509c20] mode:0 parity:-1 auto_enable:0
96[buffer @ 0x15090e0] Setting entry with key 'video_size' to value '1920x1080'
97[buffer @ 0x15090e0] Setting entry with key 'pix_fmt' to value '0'
98[buffer @ 0x15090e0] Setting entry with key 'time_base' to value '1/90000'
99[buffer @ 0x15090e0] Setting entry with key 'pixel_aspect' to value '1/1'
100[buffer @ 0x15090e0] Setting entry with key 'sws_param' to value 'flags=2'
101[buffer @ 0x15090e0] Setting entry with key 'frame_rate' to value '50/1'
102[graph 0 input from stream 0:0 @ 0x15096c0] w:1920 h:1080 pixfmt:yuv420p tb:1/90000 fr:50/1 sar:1/1 sws_param:flags=2
103[Parsed_scale_1 @ 0x1509e80] w:1920 h:1080 fmt:yuv420p sar:1/1 -> w:720 h:576 fmt:yuv420p sar:64/45 flags:0x4
104[scaler for output stream 0:0 @ 0x14ffa00] w:720 h:576 fmt:yuv420p sar:64/45 -> w:720 h:576 fmt:yuv420p sar:64/45 flags:0x4
105[abuffer @ 0x1502040] Setting entry with key 'time_base' to value '1/48000'
106[abuffer @ 0x1502040] Setting entry with key 'sample_rate' to value '48000'
107[abuffer @ 0x1502040] Setting entry with key 'sample_fmt' to value 's16'
108[abuffer @ 0x1502040] Setting entry with key 'channel_layout' to value '0x3'
109[graph 1 input from stream 0:1 @ 0x15000a0] tb:1/48000 samplefmt:s16 samplerate:48000 chlayout:0x3
110[aformat @ 0x1509640] Setting entry with key 'sample_fmts' to value 'flt'
111[aformat @ 0x1509640] Setting entry with key 'sample_rates' to value '48000'
112[aformat @ 0x1509640] Setting entry with key 'channel_layouts' to value '0x4,0x3,0x103,0x7,0x603,0x33,0x107,0x607,0x37,0xc,0xb,0x10b,0xf,0x60b,0x3b,0x10f,0x60f,0x3f'
113[audio format for output stream 0:1 @ 0x15a9040] auto-inserting filter 'auto-inserted resampler 0' between the filter 'Parsed_anull_0' and the filter 'audio format for output stream 0:1'
114[auto-inserted resampler 0 @ 0x1588500] chl:stereo fmt:s16 r:48000Hz -> chl:stereo fmt:flt r:48000Hz
115[mpeg2video @ 0x15077c0] detected 2 logical cores
116[mpeg2video @ 0x15077c0] intra_quant_bias = 96 inter_quant_bias = 0
117[h264 @ 0x1506100] detected 2 logical cores
118Output #0, dvd, to 'output.mpg':
119  Metadata:
120    encoder         : Lavf54.25.104
121    Stream #0:0, 0, 1/90000: Video: mpeg2video, yuv420p, 720x576 [SAR 64:45 DAR 16:9], 1/25, q=2-31, 6000 kb/s, 90k tbn, 25 tbc
122    Stream #0:1, 0, 1/90000: Audio: ac3, 48000 Hz, stereo, flt, 448 kb/s
123Stream mapping:
124  Stream #0:0 -> #0:0 (h264 -> mpeg2video)
125  Stream #0:1 -> #0:1 (ac3 -> ac3)
126Press [q] to stop, [?] for help
127[mpegts @ 0x1502280] first_dts 41563 not matching first dts 43363 in que
128[h264 @ 0x1768ec0] no picture
129[mpegts @ 0x1502280] first_dts 41563 not matching first dts 46963 in que
130[mpegts @ 0x1502280] first_dts 41563 not matching first dts 50563 in que
131[mpegts @ 0x1502280] first_dts 41563 not matching first dts 54163 in que
132*** 1 dup!
133[mpegts @ 0x1502280] first_dts 41563 not matching first dts 57763 in que
134[mpegts @ 0x1502280] first_dts 41563 not matching first dts 61363 in que
135[mpegts @ 0x1502280] first_dts 41563 not matching first dts 64963 in que
136[mpegts @ 0x1502280] first_dts 41563 not matching first dts 68563 in que
137frame=    6 fps=0.0 q=2.0 size=     122kB time=00:00:00.16 bitrate=6246.4kbits/s dup=1 drop=0   
138first_dts 41563 not matching first dts 72163 in que
139[mpegts @ 0x1502280] first_dts 41563 not matching first dts 75763 in que
140[mpegts @ 0x1502280] first_dts 41563 not matching first dts 79363 in que
141[mpegts @ 0x1502280] first_dts 41563 not matching first dts 82963 in que
142[mpegts @ 0x1502280] first_dts 41563 not matching first dts 86563 in que
143[mpegts @ 0x1502280] first_dts 41563 not matching first dts 90163 in que
144[mpegts @ 0x1502280] first_dts 41563 not matching first dts 93763 in que
145frame=   13 fps= 12 q=2.6 size=     500kB time=00:00:00.44 bitrate=9309.1kbits/s dup=1 drop=0   
146first_dts 41563 not matching first dts 97363 in que
147[mpegts @ 0x1502280] first_dts 41563 not matching first dts 100963 in que
148[mpegts @ 0x1502280] first_dts 41563 not matching first dts 104563 in que
149[mpegts @ 0x1502280] first_dts 41563 not matching first dts 108163 in que
150[mpegts @ 0x1502280] first_dts 41563 not matching first dts 111763 in que
151[mpegts @ 0x1502280] first_dts 41563 not matching first dts 115363 in que
152[mpegts @ 0x1502280] first_dts 41563 not matching first dts 118963 in que
153[mpegts @ 0x1502280] first_dts 41563 not matching first dts 122563 in que
154frame=   21 fps= 13 q=2.6 size=     748kB time=00:00:00.76 bitrate=8062.7kbits/s dup=1 drop=0   
155first_dts 41563 not matching first dts 126163 in que
156[mpegts @ 0x1502280] first_dts 41563 not matching first dts 129763 in que
157[mpegts @ 0x1502280] first_dts 41563 not matching first dts 133363 in que
158[mpegts @ 0x1502280] first_dts 41563 not matching first dts 136963 in que
159[mpegts @ 0x1502280] first_dts 41563 not matching first dts 140563 in que
160[mpegts @ 0x1502280] first_dts 41563 not matching first dts 144163 in que
161[mpegts @ 0x1502280] first_dts 41563 not matching first dts 147763 in que
162[mpegts @ 0x1502280] first_dts 41563 not matching first dts 151363 in que
163frame=   29 fps= 14 q=2.5 size=     976kB time=00:00:01.08 bitrate=7403.1kbits/s dup=1 drop=0   
164first_dts 41563 not matching first dts 154963 in que
165[mpegts @ 0x1502280] first_dts 41563 not matching first dts 158563 in que
166[mpegts @ 0x1502280] first_dts 41563 not matching first dts 162163 in que
167[mpegts @ 0x1502280] first_dts 41563 not matching first dts 165763 in que
168[mpegts @ 0x1502280] first_dts 41563 not matching first dts 169363 in que
169[mpegts @ 0x1502280] first_dts 41563 not matching first dts 172963 in que
170[mpegts @ 0x1502280] first_dts 41563 not matching first dts 176563 in que
171[mpegts @ 0x1502280] first_dts 41563 not matching first dts 180163 in que
172frame=   37 fps= 14 q=2.5 size=    1234kB time=00:00:01.40 bitrate=7220.7kbits/s dup=1 drop=0   
173first_dts 41563 not matching first dts 183763 in que
174[mpegts @ 0x1502280] first_dts 41563 not matching first dts 187363 in que
175[mpegts @ 0x1502280] first_dts 41563 not matching first dts 190963 in que
176[mpegts @ 0x1502280] first_dts 41563 not matching first dts 194563 in que
177[mpegts @ 0x1502280] first_dts 41563 not matching first dts 198163 in que
178[mpegts @ 0x1502280] first_dts 41563 not matching first dts 201763 in que
179[mpegts @ 0x1502280] first_dts 41563 not matching first dts 205363 in que
180[mpegts @ 0x1502280] first_dts 41563 not matching first dts 208963 in que
181frame=   45 fps= 14 q=2.6 size=    1464kB time=00:00:01.72 bitrate=6972.7kbits/s dup=1 drop=0   
182first_dts 41563 not matching first dts 212563 in que
183[mpegts @ 0x1502280] first_dts 41563 not matching first dts 216163 in que
184[mpegts @ 0x1502280] first_dts 41563 not matching first dts 219763 in que
185[mpegts @ 0x1502280] first_dts 41563 not matching first dts 223363 in que
186[mpegts @ 0x1502280] first_dts 41563 not matching first dts 226963 in que
187[mpegts @ 0x1502280] first_dts 41563 not matching first dts 230563 in que
188[mpegts @ 0x1502280] first_dts 41563 not matching first dts 234163 in que
189[mpegts @ 0x1502280] first_dts 41563 not matching first dts 237763 in que
190frame=   53 fps= 14 q=2.6 size=    1734kB time=00:00:02.04 bitrate=6963.2kbits/s dup=1 drop=0   
191first_dts 41563 not matching first dts 241363 in que
192[mpegts @ 0x1502280] first_dts 41563 not matching first dts 244963 in que
193[mpegts @ 0x1502280] first_dts 41563 not matching first dts 248563 in que
194[mpegts @ 0x1502280] first_dts 41563 not matching first dts 252163 in que
195[mpegts @ 0x1502280] first_dts 41563 not matching first dts 255763 in que
196[mpegts @ 0x1502280] first_dts 41563 not matching first dts 259363 in que
197[mpegts @ 0x1502280] first_dts 41563 not matching first dts 262963 in que
198[mpegts @ 0x1502280] first_dts 41563 not matching first dts 266563 in que
199frame=   61 fps= 14 q=2.5 size=    1978kB time=00:00:02.36 bitrate=6866.0kbits/s dup=1 drop=0   
200first_dts 41563 not matching first dts 270163 in que
201[mpegts @ 0x1502280] first_dts 41563 not matching first dts 273763 in que
202[mpegts @ 0x1502280] first_dts 41563 not matching first dts 277363 in que
203[mpegts @ 0x1502280] first_dts 41563 not matching first dts 280963 in que
204[mpegts @ 0x1502280] first_dts 41563 not matching first dts 284563 in que
205[mpegts @ 0x1502280] first_dts 41563 not matching first dts 288163 in que
206[mpegts @ 0x1502280] first_dts 41563 not matching first dts 291763 in que
207[mpegts @ 0x1502280] first_dts 41563 not matching first dts 295363 in que
208frame=   69 fps= 14 q=2.6 size=    2238kB time=00:00:02.68 bitrate=6840.9kbits/s dup=1 drop=0   
209first_dts 41563 not matching first dts 298963 in que
210[mpegts @ 0x1502280] first_dts 41563 not matching first dts 302563 in que
211[mpegts @ 0x1502280] first_dts 41563 not matching first dts 306163 in que
212[mpegts @ 0x1502280] first_dts 41563 not matching first dts 309763 in que
213[mpegts @ 0x1502280] first_dts 41563 not matching first dts 313363 in que
214[mpegts @ 0x1502280] first_dts 41563 not matching first dts 316963 in que
215[mpegts @ 0x1502280] first_dts 41563 not matching first dts 320563 in que
216[mpegts @ 0x1502280] first_dts 41563 not matching first dts 324163 in que
217frame=   77 fps= 15 q=2.3 size=    2518kB time=00:00:03.00 bitrate=6875.8kbits/s dup=1 drop=0   
218first_dts 41563 not matching first dts 327763 in que
219[mpegts @ 0x1502280] first_dts 41563 not matching first dts 331363 in que
220[mpegts @ 0x1502280] first_dts 41563 not matching first dts 334963 in que
221[mpegts @ 0x1502280] first_dts 41563 not matching first dts 338563 in que
222[mpegts @ 0x1502280] first_dts 41563 not matching first dts 342163 in que
223[mpegts @ 0x1502280] first_dts 41563 not matching first dts 345763 in que
224[mpegts @ 0x1502280] first_dts 41563 not matching first dts 349363 in que
225frame=   84 fps= 15 q=2.6 size=    2714kB time=00:00:03.28 bitrate=6778.4kbits/s dup=1 drop=0   
226first_dts 41563 not matching first dts 352963 in que
227[mpegts @ 0x1502280] first_dts 41563 not matching first dts 356563 in que
228[mpegts @ 0x1502280] first_dts 41563 not matching first dts 360163 in que
229[mpegts @ 0x1502280] first_dts 41563 not matching first dts 363763 in que
230[mpegts @ 0x1502280] first_dts 41563 not matching first dts 367363 in que
231[mpegts @ 0x1502280] first_dts 41563 not matching first dts 370963 in que
232[mpegts @ 0x1502280] first_dts 41563 not matching first dts 374563 in que
233[mpegts @ 0x1502280] first_dts 41563 not matching first dts 378163 in que
234frame=   92 fps= 15 q=2.2 size=    2998kB time=00:00:03.60 bitrate=6822.1kbits/s dup=1 drop=0   
235first_dts 41563 not matching first dts 381763 in que
236[mpegts @ 0x1502280] first_dts 41563 not matching first dts 385363 in que
237[mpegts @ 0x1502280] first_dts 41563 not matching first dts 388963 in que
238[mpegts @ 0x1502280] first_dts 41563 not matching first dts 392563 in que
239[mpegts @ 0x1502280] first_dts 41563 not matching first dts 396163 in que
240[mpegts @ 0x1502280] first_dts 41563 not matching first dts 399763 in que
241[mpegts @ 0x1502280] first_dts 41563 not matching first dts 403363 in que
242[mpegts @ 0x1502280] first_dts 41563 not matching first dts 406963 in que
243frame=  100 fps= 15 q=2.7 size=    3226kB time=00:00:03.92 bitrate=6741.7kbits/s dup=1 drop=0   
244first_dts 41563 not matching first dts 410563 in que
245[mpegts @ 0x1502280] first_dts 41563 not matching first dts 414163 in que
246[mpegts @ 0x1502280] first_dts 41563 not matching first dts 417763 in que
247[mpegts @ 0x1502280] first_dts 41563 not matching first dts 421363 in que
248[mpegts @ 0x1502280] first_dts 41563 not matching first dts 424963 in que
249[mpegts @ 0x1502280] first_dts 41563 not matching first dts 428563 in que
250[mpegts @ 0x1502280] first_dts 41563 not matching first dts 432163 in que
251[mpegts @ 0x1502280] first_dts 41563 not matching first dts 435763 in que
252frame=  108 fps= 15 q=2.7 size=    3500kB time=00:00:04.24 bitrate=6762.3kbits/s dup=1 drop=0   
253first_dts 41563 not matching first dts 439363 in que
254[mpegts @ 0x1502280] first_dts 41563 not matching first dts 442963 in que
255[mpegts @ 0x1502280] first_dts 41563 not matching first dts 446563 in que
256[mpegts @ 0x1502280] first_dts 41563 not matching first dts 450163 in que
257[mpegts @ 0x1502280] first_dts 41563 not matching first dts 453763 in que
258[mpegts @ 0x1502280] first_dts 41563 not matching first dts 457363 in que
259[mpegts @ 0x1502280] first_dts 41563 not matching first dts 460963 in que
260frame=  115 fps= 15 q=2.5 size=    3706kB time=00:00:04.52 bitrate=6716.7kbits/s dup=1 drop=0   
261first_dts 41563 not matching first dts 464563 in que
262[mpegts @ 0x1502280] first_dts 41563 not matching first dts 468163 in que
263[mpegts @ 0x1502280] first_dts 41563 not matching first dts 471763 in que
264[mpegts @ 0x1502280] first_dts 41563 not matching first dts 475363 in que
265[mpegts @ 0x1502280] first_dts 41563 not matching first dts 478963 in que
266[mpegts @ 0x1502280] first_dts 41563 not matching first dts 482563 in que
267[mpegts @ 0x1502280] first_dts 41563 not matching first dts 486163 in que
268[mpegts @ 0x1502280] first_dts 41563 not matching first dts 489763 in que
269frame=  123 fps= 15 q=2.7 size=    3972kB time=00:00:04.84 bitrate=6722.9kbits/s dup=1 drop=0   
270first_dts 41563 not matching first dts 493363 in que
271[mpegts @ 0x1502280] first_dts 41563 not matching first dts 496963 in que
272[mpegts @ 0x1502280] first_dts 41563 not matching first dts 500563 in que
273[mpegts @ 0x1502280] first_dts 41563 not matching first dts 504163 in que
274[mpegts @ 0x1502280] first_dts 41563 not matching first dts 507763 in que
275[mpegts @ 0x1502280] first_dts 41563 not matching first dts 511363 in que
276[mpegts @ 0x1502280] first_dts 41563 not matching first dts 514963 in que
277[mpegts @ 0x1502280] first_dts 41563 not matching first dts 518563 in que
278frame=  131 fps= 15 q=2.5 size=    4208kB time=00:00:05.16 bitrate=6680.6kbits/s dup=1 drop=0   
279first_dts 41563 not matching first dts 522163 in que
280[mpegts @ 0x1502280] first_dts 41563 not matching first dts 525763 in que
281[mpegts @ 0x1502280] first_dts 41563 not matching first dts 529363 in que
282[mpegts @ 0x1502280] first_dts 41563 not matching first dts 532963 in que
283[mpegts @ 0x1502280] first_dts 41563 not matching first dts 536563 in que
284[mpegts @ 0x1502280] first_dts 41563 not matching first dts 540163 in que
285[mpegts @ 0x1502280] first_dts 41563 not matching first dts 543763 in que
286[mpegts @ 0x1502280] first_dts 41563 not matching first dts 547363 in que
287frame=  139 fps= 15 q=2.6 size=    4472kB time=00:00:05.48 bitrate=6685.2kbits/s dup=1 drop=0   
288first_dts 41563 not matching first dts 550963 in que
289[mpegts @ 0x1502280] first_dts 41563 not matching first dts 554563 in que
290[mpegts @ 0x1502280] first_dts 41563 not matching first dts 558163 in que
291[mpegts @ 0x1502280] first_dts 41563 not matching first dts 561763 in que
292[mpegts @ 0x1502280] first_dts 41563 not matching first dts 565363 in que
293[mpegts @ 0x1502280] first_dts 41563 not matching first dts 568963 in que
294[mpegts @ 0x1502280] first_dts 41563 not matching first dts 572563 in que
295[mpegts @ 0x1502280] first_dts 41563 not matching first dts 576163 in que
296frame=  147 fps= 15 q=2.5 size=    4728kB time=00:00:05.80 bitrate=6677.9kbits/s dup=1 drop=0   
297first_dts 41563 not matching first dts 579763 in que
298[mpegts @ 0x1502280] first_dts 41563 not matching first dts 583363 in que
299[mpegts @ 0x1502280] first_dts 41563 not matching first dts 586963 in que
300[mpegts @ 0x1502280] first_dts 41563 not matching first dts 590563 in que
301[mpegts @ 0x1502280] first_dts 41563 not matching first dts 594163 in que
302[mpegts @ 0x1502280] first_dts 41563 not matching first dts 597763 in que
303[mpegts @ 0x1502280] first_dts 41563 not matching first dts 601363 in que
304[mpegts @ 0x1502280] first_dts 41563 not matching first dts 604963 in que
305frame=  155 fps= 15 q=2.8 size=    5002kB time=00:00:06.12 bitrate=6695.5kbits/s dup=1 drop=0   
306first_dts 41563 not matching first dts 608563 in que
307[mpegts @ 0x1502280] first_dts 41563 not matching first dts 612163 in que
308[mpegts @ 0x1502280] first_dts 41563 not matching first dts 615763 in que
309[mpegts @ 0x1502280] first_dts 41563 not matching first dts 619363 in que
310[mpegts @ 0x1502280] first_dts 41563 not matching first dts 622963 in que
311[mpegts @ 0x1502280] first_dts 41563 not matching first dts 626563 in que
312[mpegts @ 0x1502280] first_dts 41563 not matching first dts 630163 in que
313[mpegts @ 0x1502280] first_dts 41563 not matching first dts 633763 in que
314frame=  163 fps= 15 q=3.3 size=    5266kB time=00:00:06.44 bitrate=6698.6kbits/s dup=1 drop=0   
315first_dts 41563 not matching first dts 637363 in que
316[mpegts @ 0x1502280] first_dts 41563 not matching first dts 640963 in que
317[mpegts @ 0x1502280] first_dts 41563 not matching first dts 644563 in que
318[mpegts @ 0x1502280] first_dts 41563 not matching first dts 648163 in que
319[mpegts @ 0x1502280] first_dts 41563 not matching first dts 651763 in que
320[mpegts @ 0x1502280] first_dts 41563 not matching first dts 655363 in que
321[mpegts @ 0x1502280] first_dts 41563 not matching first dts 658963 in que
322[mpegts @ 0x1502280] first_dts 41563 not matching first dts 662563 in que
323frame=  171 fps= 15 q=3.5 size=    5544kB time=00:00:06.76 bitrate=6718.4kbits/s dup=1 drop=0   
324first_dts 41563 not matching first dts 666163 in que
325[mpegts @ 0x1502280] first_dts 41563 not matching first dts 669763 in que
326[mpegts @ 0x1502280] first_dts 41563 not matching first dts 673363 in que
327[mpegts @ 0x1502280] first_dts 41563 not matching first dts 676963 in que
328[mpegts @ 0x1502280] first_dts 41563 not matching first dts 680563 in que
329[mpegts @ 0x1502280] first_dts 41563 not matching first dts 684163 in que
330[mpegts @ 0x1502280] first_dts 41563 not matching first dts 687763 in que
331frame=  178 fps= 15 q=3.5 size=    5748kB time=00:00:07.04 bitrate=6688.6kbits/s dup=1 drop=0   
332first_dts 41563 not matching first dts 691363 in que
333[mpegts @ 0x1502280] first_dts 41563 not matching first dts 694963 in que
334[mpegts @ 0x1502280] first_dts 41563 not matching first dts 698563 in que
335[mpegts @ 0x1502280] first_dts 41563 not matching first dts 702163 in que
336[mpegts @ 0x1502280] first_dts 41563 not matching first dts 705763 in que
337[mpegts @ 0x1502280] first_dts 41563 not matching first dts 709363 in que
338[mpegts @ 0x1502280] first_dts 41563 not matching first dts 712963 in que
339[mpegts @ 0x1502280] first_dts 41563 not matching first dts 716563 in que
340frame=  186 fps= 15 q=3.5 size=    6028kB time=00:00:07.36 bitrate=6709.4kbits/s dup=1 drop=0   
341first_dts 41563 not matching first dts 720163 in que
342[mpegts @ 0x1502280] first_dts 41563 not matching first dts 723763 in que
343[mpegts @ 0x1502280] first_dts 41563 not matching first dts 727363 in que
344[mpegts @ 0x1502280] first_dts 41563 not matching first dts 730963 in que
345[mpegts @ 0x1502280] first_dts 41563 not matching first dts 734563 in que
346[mpegts @ 0x1502280] first_dts 41563 not matching first dts 738163 in que
347[mpegts @ 0x1502280] first_dts 41563 not matching first dts 741763 in que
348[mpegts @ 0x1502280] first_dts 41563 not matching first dts 745363 in que
349frame=  194 fps= 15 q=3.6 size=    6260kB time=00:00:07.68 bitrate=6677.3kbits/s dup=1 drop=0   
350first_dts 41563 not matching first dts 748963 in que
351[mpegts @ 0x1502280] first_dts 41563 not matching first dts 752563 in que
352[mpegts @ 0x1502280] first_dts 41563 not matching first dts 756163 in que
353[mpegts @ 0x1502280] first_dts 41563 not matching first dts 759763 in que
354[mpegts @ 0x1502280] first_dts 41563 not matching first dts 763363 in que
355[mpegts @ 0x1502280] first_dts 41563 not matching first dts 766963 in que
356[mpegts @ 0x1502280] first_dts 41563 not matching first dts 770563 in que
357[mpegts @ 0x1502280] first_dts 41563 not matching first dts 774163 in que
358frame=  202 fps= 15 q=3.5 size=    6532kB time=00:00:08.00 bitrate=6688.8kbits/s dup=1 drop=0   
359first_dts 41563 not matching first dts 777763 in que
360[mpegts @ 0x1502280] first_dts 41563 not matching first dts 781363 in que
361[mpegts @ 0x1502280] first_dts 41563 not matching first dts 784963 in que
362[mpegts @ 0x1502280] first_dts 41563 not matching first dts 788563 in que
363[mpegts @ 0x1502280] first_dts 41563 not matching first dts 792163 in que
364[mpegts @ 0x1502280] first_dts 41563 not matching first dts 795763 in que
365[mpegts @ 0x1502280] first_dts 41563 not matching first dts 799363 in que
366[mpegts @ 0x1502280] first_dts 41563 not matching first dts 802963 in que
367frame=  210 fps= 15 q=3.4 size=    6774kB time=00:00:08.32 bitrate=6669.8kbits/s dup=1 drop=0   
368first_dts 41563 not matching first dts 806563 in que
369[mpegts @ 0x1502280] first_dts 41563 not matching first dts 810163 in que
370[mpegts @ 0x1502280] first_dts 41563 not matching first dts 813763 in que
371[mpegts @ 0x1502280] first_dts 41563 not matching first dts 817363 in que
372[mpegts @ 0x1502280] first_dts 41563 not matching first dts 820963 in que
373[mpegts @ 0x1502280] first_dts 41563 not matching first dts 824563 in que
374[mpegts @ 0x1502280] first_dts 41563 not matching first dts 828163 in que
375[mpegts @ 0x1502280] first_dts 41563 not matching first dts 831763 in que
376frame=  218 fps= 15 q=3.4 size=    7042kB time=00:00:08.64 bitrate=6676.9kbits/s dup=1 drop=0   
377first_dts 41563 not matching first dts 835363 in que
378[mpegts @ 0x1502280] first_dts 41563 not matching first dts 838963 in que
379[mpegts @ 0x1502280] first_dts 41563 not matching first dts 842563 in que
380[mpegts @ 0x1502280] first_dts 41563 not matching first dts 846163 in que
381[mpegts @ 0x1502280] first_dts 41563 not matching first dts 849763 in que
382[mpegts @ 0x1502280] first_dts 41563 not matching first dts 853363 in que
383[mpegts @ 0x1502280] first_dts 41563 not matching first dts 856963 in que
384frame=  225 fps= 15 q=3.5 size=    7238kB time=00:00:08.92 bitrate=6647.3kbits/s dup=1 drop=0   
385first_dts 41563 not matching first dts 860563 in que
386[mpegts @ 0x1502280] first_dts 41563 not matching first dts 864163 in que
387[mpegts @ 0x1502280] first_dts 41563 not matching first dts 867763 in que
388[mpegts @ 0x1502280] first_dts 41563 not matching first dts 871363 in que
389[mpegts @ 0x1502280] first_dts 41563 not matching first dts 874963 in que
390[mpegts @ 0x1502280] first_dts 41563 not matching first dts 878563 in que
391[mpegts @ 0x1502280] first_dts 41563 not matching first dts 882163 in que
392[mpegts @ 0x1502280] first_dts 41563 not matching first dts 885763 in que
393frame=  233 fps= 15 q=3.4 size=    7518kB time=00:00:09.24 bitrate=6665.3kbits/s dup=1 drop=0   
394first_dts 41563 not matching first dts 889363 in que
395[mpegts @ 0x1502280] first_dts 41563 not matching first dts 892963 in que
396[mpegts @ 0x1502280] first_dts 41563 not matching first dts 896563 in que
397[mpegts @ 0x1502280] first_dts 41563 not matching first dts 900163 in que
398[mpegts @ 0x1502280] first_dts 41563 not matching first dts 903763 in que
399[mpegts @ 0x1502280] first_dts 41563 not matching first dts 907363 in que
400[mpegts @ 0x1502280] first_dts 41563 not matching first dts 910963 in que
401[mpegts @ 0x1502280] first_dts 41563 not matching first dts 914563 in que
402frame=  241 fps= 15 q=3.4 size=    7756kB time=00:00:09.56 bitrate=6646.1kbits/s dup=1 drop=0   
403first_dts 41563 not matching first dts 918163 in que
404[mpegts @ 0x1502280] first_dts 41563 not matching first dts 921763 in que
405[mpegts @ 0x1502280] first_dts 41563 not matching first dts 925363 in que
406[mpegts @ 0x1502280] first_dts 41563 not matching first dts 928963 in que
407[mpegts @ 0x1502280] first_dts 41563 not matching first dts 932563 in que
408[mpegts @ 0x1502280] first_dts 41563 not matching first dts 936163 in que
409[mpegts @ 0x1502280] first_dts 41563 not matching first dts 939763 in que
410[mpegts @ 0x1502280] first_dts 41563 not matching first dts 943363 in que
411frame=  249 fps= 15 q=3.3 size=    8008kB time=00:00:09.88 bitrate=6639.8kbits/s dup=1 drop=0   
412first_dts 41563 not matching first dts 946963 in que
413[mpegts @ 0x1502280] first_dts 41563 not matching first dts 950563 in que
414[mpegts @ 0x1502280] first_dts 41563 not matching first dts 954163 in que
415[mpegts @ 0x1502280] first_dts 41563 not matching first dts 957763 in que
416[mpegts @ 0x1502280] first_dts 41563 not matching first dts 961363 in que
417[mpegts @ 0x1502280] first_dts 41563 not matching first dts 964963 in que
418[mpegts @ 0x1502280] first_dts 41563 not matching first dts 968563 in que
419[mpegts @ 0x1502280] first_dts 41563 not matching first dts 972163 in que
420frame=  257 fps= 15 q=2.5 size=    8264kB time=00:00:10.20 bitrate=6637.1kbits/s dup=1 drop=0   
421first_dts 41563 not matching first dts 975763 in que
422[mpegts @ 0x1502280] first_dts 41563 not matching first dts 979363 in que
423[mpegts @ 0x1502280] first_dts 41563 not matching first dts 982963 in que
424[mpegts @ 0x1502280] first_dts 41563 not matching first dts 986563 in que
425[mpegts @ 0x1502280] first_dts 41563 not matching first dts 990163 in que
426[mpegts @ 0x1502280] first_dts 41563 not matching first dts 993763 in que
427[mpegts @ 0x1502280] first_dts 41563 not matching first dts 997363 in que
428[mpegts @ 0x1502280] first_dts 41563 not matching first dts 1000963 in que
429frame=  265 fps= 15 q=3.1 size=    8506kB time=00:00:10.52 bitrate=6623.7kbits/s dup=1 drop=0   
430first_dts 41563 not matching first dts 1004563 in que
431[mpegts @ 0x1502280] first_dts 41563 not matching first dts 1008163 in que
432[mpegts @ 0x1502280] first_dts 41563 not matching first dts 1011763 in que
433[mpegts @ 0x1502280] first_dts 41563 not matching first dts 1015363 in que
434[mpegts @ 0x1502280] first_dts 41563 not matching first dts 1018963 in que
435[mpegts @ 0x1502280] first_dts 41563 not matching first dts 1022563 in que
436[mpegts @ 0x1502280] first_dts 41563 not matching first dts 1026163 in que
437[mpegts @ 0x1502280] first_dts 41563 not matching first dts 1029763 in que
438frame=  273 fps= 15 q=3.1 size=    8764kB time=00:00:10.84 bitrate=6623.1kbits/s dup=1 drop=0   
439first_dts 41563 not matching first dts 1033363 in que
440[mpegts @ 0x1502280] first_dts 41563 not matching first dts 1036963 in que
441[mpegts @ 0x1502280] first_dts 41563 not matching first dts 1040563 in que
442[mpegts @ 0x1502280] first_dts 41563 not matching first dts 1044163 in que
443[mpegts @ 0x1502280] first_dts 41563 not matching first dts 1047763 in que
444[mpegts @ 0x1502280] first_dts 41563 not matching first dts 1051363 in que
445[mpegts @ 0x1502280] first_dts 41563 not matching first dts 1054963 in que
446[mpegts @ 0x1502280] first_dts 41563 not matching first dts 1058563 in que
447frame=  281 fps= 15 q=2.4 size=    8996kB time=00:00:11.16 bitrate=6603.5kbits/s dup=1 drop=0   
448first_dts 41563 not matching first dts 1062163 in que
449[mpegts @ 0x1502280] first_dts 41563 not matching first dts 1065763 in que
450[mpegts @ 0x1502280] first_dts 41563 not matching first dts 1069363 in que
451[mpegts @ 0x1502280] first_dts 41563 not matching first dts 1072963 in que
452[mpegts @ 0x1502280] first_dts 41563 not matching first dts 1076563 in que
453[mpegts @ 0x1502280] first_dts 41563 not matching first dts 1080163 in que
454[mpegts @ 0x1502280] first_dts 41563 not matching first dts 1083763 in que
455[mpegts @ 0x1502280] first_dts 41563 not matching first dts 1087363 in que
456frame=  289 fps= 15 q=2.4 size=    9270kB time=00:00:11.48 bitrate=6615.0kbits/s dup=1 drop=0   
457first_dts 41563 not matching first dts 1090963 in que
458[mpegts @ 0x1502280] first_dts 41563 not matching first dts 1094563 in que
459[mpegts @ 0x1502280] first_dts 41563 not matching first dts 1098163 in que
460[mpegts @ 0x1502280] first_dts 41563 not matching first dts 1101763 in que
461[mpegts @ 0x1502280] first_dts 41563 not matching first dts 1105363 in que
462[mpegts @ 0x1502280] first_dts 41563 not matching first dts 1108963 in que
463[mpegts @ 0x1502280] first_dts 41563 not matching first dts 1112563 in que
464[mpegts @ 0x1502280] first_dts 41563 not matching first dts 1116163 in que
465frame=  297 fps= 15 q=2.6 size=    9504kB time=00:00:11.80 bitrate=6598.0kbits/s dup=1 drop=0   
466first_dts 41563 not matching first dts 1119763 in que
467[mpegts @ 0x1502280] first_dts 41563 not matching first dts 1123363 in que
468[mpegts @ 0x1502280] first_dts 41563 not matching first dts 1126963 in que
469[mpegts @ 0x1502280] first_dts 41563 not matching first dts 1130563 in que
470[mpegts @ 0x1502280] first_dts 41563 not matching first dts 1134163 in que
471[mpegts @ 0x1502280] first_dts 41563 not matching first dts 1137763 in que
472[mpegts @ 0x1502280] first_dts 41563 not matching first dts 1141363 in que
473[mpegts @ 0x1502280] first_dts 41563 not matching first dts 1144963 in que
474frame=  305 fps= 15 q=2.5 size=    9756kB time=00:00:12.12 bitrate=6594.2kbits/s dup=1 drop=0   
475first_dts 41563 not matching first dts 1148563 in que
476[mpegts @ 0x1502280] first_dts 41563 not matching first dts 1152163 in que
477[mpegts @ 0x1502280] first_dts 41563 not matching first dts 1155763 in que
478[mpegts @ 0x1502280] first_dts 41563 not matching first dts 1159363 in que
479[mpegts @ 0x1502280] first_dts 41563 not matching first dts 1162963 in que
480[mpegts @ 0x1502280] first_dts 41563 not matching first dts 1166563 in que
481[mpegts @ 0x1502280] first_dts 41563 not matching first dts 1170163 in que
482[mpegts @ 0x1502280] first_dts 41563 not matching first dts 1173763 in que
483frame=  313 fps= 15 q=2.4 size=   10008kB time=00:00:12.44 bitrate=6590.5kbits/s dup=1 drop=0   
484first_dts 41563 not matching first dts 1177363 in que
485[mpegts @ 0x1502280] first_dts 41563 not matching first dts 1180963 in que
486[mpegts @ 0x1502280] first_dts 41563 not matching first dts 1184563 in que
487[mpegts @ 0x1502280] first_dts 41563 not matching first dts 1188163 in que
488[mpegts @ 0x1502280] first_dts 41563 not matching first dts 1191763 in que
489[mpegts @ 0x1502280] first_dts 41563 not matching first dts 1195363 in que
490[mpegts @ 0x1502280] first_dts 41563 not matching first dts 1198963 in que
491[mpegts @ 0x1502280] first_dts 41563 not matching first dts 1202563 in que
492frame=  321 fps= 15 q=2.4 size=   10276kB time=00:00:12.76 bitrate=6597.3kbits/s dup=1 drop=0   
493first_dts 41563 not matching first dts 1206163 in que
494[mpegts @ 0x1502280] first_dts 41563 not matching first dts 1209763 in que
495[mpegts @ 0x1502280] first_dts 41563 not matching first dts 1213363 in que
496[mpegts @ 0x1502280] first_dts 41563 not matching first dts 1216963 in que
497[mpegts @ 0x1502280] first_dts 41563 not matching first dts 1220563 in que
498[mpegts @ 0x1502280] first_dts 41563 not matching first dts 1224163 in que
499[mpegts @ 0x1502280] first_dts 41563 not matching first dts 1227763 in que
500frame=  328 fps= 15 q=2.5 size=   10494kB time=00:00:13.04 bitrate=6592.5kbits/s dup=1 drop=0   
501first_dts 41563 not matching first dts 1231363 in que
502[mpegts @ 0x1502280] first_dts 41563 not matching first dts 1234963 in que
503[mpegts @ 0x1502280] first_dts 41563 not matching first dts 1238563 in que
504[mpegts @ 0x1502280] first_dts 41563 not matching first dts 1242163 in que
505[mpegts @ 0x1502280] first_dts 41563 not matching first dts 1245763 in que
506[mpegts @ 0x1502280] first_dts 41563 not matching first dts 1249363 in que
507[mpegts @ 0x1502280] first_dts 41563 not matching first dts 1252963 in que
508[mpegts @ 0x1502280] first_dts 41563 not matching first dts 1256563 in que
509frame=  336 fps= 15 q=2.6 size=   10754kB time=00:00:13.36 bitrate=6594.1kbits/s dup=1 drop=0   
510first_dts 41563 not matching first dts 1260163 in que
511[mpegts @ 0x1502280] first_dts 41563 not matching first dts 1263763 in que
512[mpegts @ 0x1502280] first_dts 41563 not matching first dts 1267363 in que
513[mpegts @ 0x1502280] first_dts 41563 not matching first dts 1270963 in que
514[mpegts @ 0x1502280] first_dts 41563 not matching first dts 1274563 in que
515[mpegts @ 0x1502280] first_dts 41563 not matching first dts 1278163 in que
516[mpegts @ 0x1502280] first_dts 41563 not matching first dts 1281763 in que
517[mpegts @ 0x1502280] first_dts 41563 not matching first dts 1285363 in que
518frame=  344 fps= 15 q=2.6 size=   11002kB time=00:00:13.68 bitrate=6588.3kbits/s dup=1 drop=0   
519first_dts 41563 not matching first dts 1288963 in que
520[mpegts @ 0x1502280] first_dts 41563 not matching first dts 1292563 in que
521[mpegts @ 0x1502280] first_dts 41563 not matching first dts 1296163 in que
522[mpegts @ 0x1502280] first_dts 41563 not matching first dts 1299763 in que
523[mpegts @ 0x1502280] first_dts 41563 not matching first dts 1303363 in que
524[mpegts @ 0x1502280] first_dts 41563 not matching first dts 1306963 in que
525[mpegts @ 0x1502280] first_dts 41563 not matching first dts 1310563 in que
526frame=  351 fps= 15 q=3.0 size=   11270kB time=00:00:13.96 bitrate=6613.5kbits/s dup=1 drop=0   
527first_dts 41563 not matching first dts 1314163 in que
528[mpegts @ 0x1502280] first_dts 41563 not matching first dts 1317763 in que
529[mpegts @ 0x1502280] first_dts 41563 not matching first dts 1321363 in que
530[mpegts @ 0x1502280] first_dts 41563 not matching first dts 1324963 in que
531[mpegts @ 0x1502280] first_dts 41563 not matching first dts 1328563 in que
532[mpegts @ 0x1502280] first_dts 41563 not matching first dts 1332163 in que
533[mpegts @ 0x1502280] first_dts 41563 not matching first dts 1335763 in que
534[mpegts @ 0x1502280] first_dts 41563 not matching first dts 1339363 in que
535frame=  359 fps= 15 q=3.3 size=   11528kB time=00:00:14.28 bitrate=6613.3kbits/s dup=1 drop=0   
536first_dts 41563 not matching first dts 1342963 in que
537[mpegts @ 0x1502280] first_dts 41563 not matching first dts 1346563 in que
538[mpegts @ 0x1502280] first_dts 41563 not matching first dts 1350163 in que
539[mpegts @ 0x1502280] first_dts 41563 not matching first dts 1353763 in que
540[mpegts @ 0x1502280] first_dts 41563 not matching first dts 1357363 in que
541[mpegts @ 0x1502280] first_dts 41563 not matching first dts 1360963 in que
542[mpegts @ 0x1502280] first_dts 41563 not matching first dts 1364563 in que
543[mpegts @ 0x1502280] first_dts 41563 not matching first dts 1368163 in que
544frame=  367 fps= 15 q=3.2 size=   11792kB time=00:00:14.60 bitrate=6616.4kbits/s dup=1 drop=0   
545first_dts 41563 not matching first dts 1371763 in que
546[mpegts @ 0x1502280] first_dts 41563 not matching first dts 1375363 in que
547[mpegts @ 0x1502280] first_dts 41563 not matching first dts 1378963 in que
548[mpegts @ 0x1502280] first_dts 41563 not matching first dts 1382563 in que
549[mpegts @ 0x1502280] first_dts 41563 not matching first dts 1386163 in que
550[mpegts @ 0x1502280] first_dts 41563 not matching first dts 1389763 in que
551[mpegts @ 0x1502280] first_dts 41563 not matching first dts 1393363 in que
552[mpegts @ 0x1502280] first_dts 41563 not matching first dts 1396963 in que
553frame=  375 fps= 15 q=2.8 size=   12014kB time=00:00:14.92 bitrate=6596.4kbits/s dup=1 drop=0   
554first_dts 41563 not matching first dts 1400563 in que
555[mpegts @ 0x1502280] first_dts 41563 not matching first dts 1404163 in que
556[mpegts @ 0x1502280] first_dts 41563 not matching first dts 1407763 in que
557[mpegts @ 0x1502280] first_dts 41563 not matching first dts 1411363 in que
558[mpegts @ 0x1502280] first_dts 41563 not matching first dts 1414963 in que
559[mpegts @ 0x1502280] first_dts 41563 not matching first dts 1418563 in que
560[mpegts @ 0x1502280] first_dts 41563 not matching first dts 1422163 in que
561frame=  382 fps= 15 q=2.9 size=   12258kB time=00:00:15.20 bitrate=6606.4kbits/s dup=1 drop=0   
562first_dts 41563 not matching first dts 1425763 in que
563[mpegts @ 0x1502280] first_dts 41563 not matching first dts 1429363 in que
564[mpegts @ 0x1502280] first_dts 41563 not matching first dts 1432963 in que
565[mpegts @ 0x1502280] first_dts 41563 not matching first dts 1436563 in que
566[mpegts @ 0x1502280] first_dts 41563 not matching first dts 1440163 in que
567[mpegts @ 0x1502280] first_dts 41563 not matching first dts 1443763 in que
568[mpegts @ 0x1502280] first_dts 41563 not matching first dts 1447363 in que
569[mpegts @ 0x1502280] first_dts 41563 not matching first dts 1450963 in que
570frame=  390 fps= 15 q=2.5 size=   12488kB time=00:00:15.52 bitrate=6591.6kbits/s dup=1 drop=0   
571first_dts 41563 not matching first dts 1454563 in que
572[mpegts @ 0x1502280] first_dts 41563 not matching first dts 1458163 in que
573[mpegts @ 0x1502280] first_dts 41563 not matching first dts 1461763 in que
574[mpegts @ 0x1502280] first_dts 41563 not matching first dts 1465363 in que
575[mpegts @ 0x1502280] first_dts 41563 not matching first dts 1468963 in que
576[mpegts @ 0x1502280] first_dts 41563 not matching first dts 1472563 in que
577[mpegts @ 0x1502280] first_dts 41563 not matching first dts 1476163 in que
578[mpegts @ 0x1502280] first_dts 41563 not matching first dts 1479763 in que
579frame=  398 fps= 15 q=2.7 size=   12758kB time=00:00:15.84 bitrate=6598.1kbits/s dup=1 drop=0   
580first_dts 41563 not matching first dts 1483363 in que
581[mpegts @ 0x1502280] first_dts 41563 not matching first dts 1486963 in que
582[mpegts @ 0x1502280] first_dts 41563 not matching first dts 1490563 in que
583[mpegts @ 0x1502280] first_dts 41563 not matching first dts 1494163 in que
584[mpegts @ 0x1502280] first_dts 41563 not matching first dts 1497763 in que
585[mpegts @ 0x1502280] first_dts 41563 not matching first dts 1501363 in que
586[mpegts @ 0x1502280] first_dts 41563 not matching first dts 1504963 in que
587[mpegts @ 0x1502280] first_dts 41563 not matching first dts 1508563 in que
588frame=  406 fps= 15 q=2.5 size=   12986kB time=00:00:16.16 bitrate=6583.0kbits/s dup=1 drop=0   
589first_dts 41563 not matching first dts 1512163 in que
590[mpegts @ 0x1502280] first_dts 41563 not matching first dts 1515763 in que
591[mpegts @ 0x1502280] first_dts 41563 not matching first dts 1519363 in que
592[mpegts @ 0x1502280] first_dts 41563 not matching first dts 1522963 in que
593[mpegts @ 0x1502280] first_dts 41563 not matching first dts 1526563 in que
594[mpegts @ 0x1502280] first_dts 41563 not matching first dts 1530163 in que
595[mpegts @ 0x1502280] first_dts 41563 not matching first dts 1533763 in que
596[mpegts @ 0x1502280] first_dts 41563 not matching first dts 1537363 in que
597frame=  414 fps= 15 q=2.9 size=   13274kB time=00:00:16.48 bitrate=6598.3kbits/s dup=1 drop=0   
598first_dts 41563 not matching first dts 1540963 in que
599[mpegts @ 0x1502280] first_dts 41563 not matching first dts 1544563 in que
600[mpegts @ 0x1502280] first_dts 41563 not matching first dts 1548163 in que
601[mpegts @ 0x1502280] first_dts 41563 not matching first dts 1551763 in que
602[mpegts @ 0x1502280] first_dts 41563 not matching first dts 1555363 in que
603[mpegts @ 0x1502280] first_dts 41563 not matching first dts 1558963 in que
604[mpegts @ 0x1502280] first_dts 41563 not matching first dts 1562563 in que
605[mpegts @ 0x1502280] first_dts 41563 not matching first dts 1566163 in que
606frame=  422 fps= 15 q=2.2 size=   13562kB time=00:00:16.80 bitrate=6613.1kbits/s dup=1 drop=0   
607first_dts 41563 not matching first dts 1569763 in que
608[mpegts @ 0x1502280] first_dts 41563 not matching first dts 1573363 in que
609[mpegts @ 0x1502280] first_dts 41563 not matching first dts 1576963 in que
610[mpegts @ 0x1502280] first_dts 41563 not matching first dts 1580563 in que
611[mpegts @ 0x1502280] first_dts 41563 not matching first dts 1584163 in que
612[mpegts @ 0x1502280] first_dts 41563 not matching first dts 1587763 in que
613[mpegts @ 0x1502280] first_dts 41563 not matching first dts 1591363 in que
614frame=  429 fps= 15 q=2.9 size=   13766kB time=00:00:17.08 bitrate=6602.5kbits/s dup=1 drop=0   
615first_dts 41563 not matching first dts 1594963 in que
616[mpegts @ 0x1502280] first_dts 41563 not matching first dts 1598563 in que
617[mpegts @ 0x1502280] first_dts 41563 not matching first dts 1602163 in que
618[mpegts @ 0x1502280] first_dts 41563 not matching first dts 1605763 in que
619[mpegts @ 0x1502280] first_dts 41563 not matching first dts 1609363 in que
620[mpegts @ 0x1502280] first_dts 41563 not matching first dts 1612963 in que
621[mpegts @ 0x1502280] first_dts 41563 not matching first dts 1616563 in que
622[mpegts @ 0x1502280] first_dts 41563 not matching first dts 1620163 in que
623frame=  437 fps= 15 q=2.1 size=   14032kB time=00:00:17.40 bitrate=6606.3kbits/s dup=1 drop=0   
624first_dts 41563 not matching first dts 1623763 in que
625[mpegts @ 0x1502280] first_dts 41563 not matching first dts 1627363 in que
626[mpegts @ 0x1502280] first_dts 41563 not matching first dts 1630963 in que
627[mpegts @ 0x1502280] first_dts 41563 not matching first dts 1634563 in que
628[mpegts @ 0x1502280] first_dts 41563 not matching first dts 1638163 in que
629[mpegts @ 0x1502280] first_dts 41563 not matching first dts 1641763 in que
630[mpegts @ 0x1502280] first_dts 41563 not matching first dts 1645363 in que
631[mpegts @ 0x1502280] first_dts 41563 not matching first dts 1648963 in que
632frame=  445 fps= 15 q=2.8 size=   14264kB time=00:00:17.72 bitrate=6594.3kbits/s dup=1 drop=0   
633first_dts 41563 not matching first dts 1652563 in que
634[mpegts @ 0x1502280] first_dts 41563 not matching first dts 1656163 in que
635[mpegts @ 0x1502280] first_dts 41563 not matching first dts 1659763 in que
636[mpegts @ 0x1502280] first_dts 41563 not matching first dts 1663363 in que
637[mpegts @ 0x1502280] first_dts 41563 not matching first dts 1666963 in que
638[mpegts @ 0x1502280] first_dts 41563 not matching first dts 1670563 in que
639[mpegts @ 0x1502280] first_dts 41563 not matching first dts 1674163 in que
640[mpegts @ 0x1502280] first_dts 41563 not matching first dts 1677763 in que
641frame=  453 fps= 15 q=2.8 size=   14544kB time=00:00:18.04 bitrate=6604.5kbits/s dup=1 drop=0   
642first_dts 41563 not matching first dts 1681363 in que
643[mpegts @ 0x1502280] first_dts 41563 not matching first dts 1684963 in que
644[mpegts @ 0x1502280] first_dts 41563 not matching first dts 1688563 in que
645[mpegts @ 0x1502280] first_dts 41563 not matching first dts 1692163 in que
646[mpegts @ 0x1502280] first_dts 41563 not matching first dts 1695763 in que
647[mpegts @ 0x1502280] first_dts 41563 not matching first dts 1699363 in que
648[mpegts @ 0x1502280] first_dts 41563 not matching first dts 1702963 in que
649[mpegts @ 0x1502280] first_dts 41563 not matching first dts 1706563 in que
650frame=  461 fps= 15 q=2.6 size=   14764kB time=00:00:18.36 bitrate=6587.5kbits/s dup=1 drop=0   
651first_dts 41563 not matching first dts 1710163 in que
652[mpegts @ 0x1502280] first_dts 41563 not matching first dts 1713763 in que
653[mpegts @ 0x1502280] first_dts 41563 not matching first dts 1717363 in que
654[mpegts @ 0x1502280] first_dts 41563 not matching first dts 1720963 in que
655[mpegts @ 0x1502280] first_dts 41563 not matching first dts 1724563 in que
656[mpegts @ 0x1502280] first_dts 41563 not matching first dts 1728163 in que
657[mpegts @ 0x1502280] first_dts 41563 not matching first dts 1731763 in que
658[mpegts @ 0x1502280] first_dts 41563 not matching first dts 1735363 in que
659frame=  469 fps= 15 q=2.8 size=   15050kB time=00:00:18.68 bitrate=6600.1kbits/s dup=1 drop=0   
660first_dts 41563 not matching first dts 1738963 in que
661[mpegts @ 0x1502280] first_dts 41563 not matching first dts 1742563 in que
662[mpegts @ 0x1502280] first_dts 41563 not matching first dts 1746163 in que
663[mpegts @ 0x1502280] first_dts 41563 not matching first dts 1749763 in que
664[mpegts @ 0x1502280] first_dts 41563 not matching first dts 1753363 in que
665[mpegts @ 0x1502280] first_dts 41563 not matching first dts 1756963 in que
666[mpegts @ 0x1502280] first_dts 41563 not matching first dts 1760563 in que
667[mpegts @ 0x1502280] first_dts 41563 not matching first dts 1764163 in que
668frame=  477 fps= 15 q=2.5 size=   15268kB time=00:00:19.00 bitrate=6582.9kbits/s dup=1 drop=0   
669first_dts 41563 not matching first dts 1767763 in que
670[mpegts @ 0x1502280] first_dts 41563 not matching first dts 1771363 in que
671[mpegts @ 0x1502280] first_dts 41563 not matching first dts 1774963 in que
672[mpegts @ 0x1502280] first_dts 41563 not matching first dts 1778563 in que
673[mpegts @ 0x1502280] first_dts 41563 not matching first dts 1782163 in que
674[mpegts @ 0x1502280] first_dts 41563 not matching first dts 1785763 in que
675[mpegts @ 0x1502280] first_dts 41563 not matching first dts 1789363 in que
676[mpegts @ 0x1502280] first_dts 41563 not matching first dts 1792963 in que
677frame=  485 fps= 15 q=2.7 size=   15554kB time=00:00:19.32 bitrate=6595.2kbits/s dup=1 drop=0   
678first_dts 41563 not matching first dts 1796563 in que
679[mpegts @ 0x1502280] first_dts 41563 not matching first dts 1800163 in que
680[mpegts @ 0x1502280] first_dts 41563 not matching first dts 1803763 in que
681[mpegts @ 0x1502280] first_dts 41563 not matching first dts 1807363 in que
682[mpegts @ 0x1502280] first_dts 41563 not matching first dts 1810963 in que
683[mpegts @ 0x1502280] first_dts 41563 not matching first dts 1814563 in que
684[mpegts @ 0x1502280] first_dts 41563 not matching first dts 1818163 in que
685[mpegts @ 0x1502280] first_dts 41563 not matching first dts 1821763 in que
686frame=  493 fps= 15 q=2.7 size=   15786kB time=00:00:19.64 bitrate=6584.5kbits/s dup=1 drop=0   
687first_dts 41563 not matching first dts 1825363 in que
688[mpegts @ 0x1502280] first_dts 41563 not matching first dts 1828963 in que
689[mpegts @ 0x1502280] first_dts 41563 not matching first dts 1832563 in que
690[mpegts @ 0x1502280] first_dts 41563 not matching first dts 1836163 in que
691[mpegts @ 0x1502280] first_dts 41563 not matching first dts 1839763 in que
692[mpegts @ 0x1502280] first_dts 41563 not matching first dts 1843363 in que
693[mpegts @ 0x1502280] first_dts 41563 not matching first dts 1846963 in que
694[mpegts @ 0x1502280] first_dts 41563 not matching first dts 1850563 in que
695frame=  501 fps= 15 q=2.8 size=   16068kB time=00:00:19.96 bitrate=6594.6kbits/s dup=1 drop=0   
696first_dts 41563 not matching first dts 1854163 in que
697[mpegts @ 0x1502280] first_dts 41563 not matching first dts 1857763 in que
698[mpegts @ 0x1502280] first_dts 41563 not matching first dts 1861363 in que
699[mpegts @ 0x1502280] first_dts 41563 not matching first dts 1864963 in que
700[mpegts @ 0x1502280] first_dts 41563 not matching first dts 1868563 in que
701[mpegts @ 0x1502280] first_dts 41563 not matching first dts 1872163 in que
702[mpegts @ 0x1502280] first_dts 41563 not matching first dts 1875763 in que
703[mpegts @ 0x1502280] first_dts 41563 not matching first dts 1879363 in que
704frame=  509 fps= 15 q=2.9 size=   16318kB time=00:00:20.28 bitrate=6591.6kbits/s dup=1 drop=0   
705first_dts 41563 not matching first dts 1882963 in que
706[mpegts @ 0x1502280] first_dts 41563 not matching first dts 1886563 in que
707[mpegts @ 0x1502280] first_dts 41563 not matching first dts 1890163 in que
708[mpegts @ 0x1502280] first_dts 41563 not matching first dts 1893763 in que
709[mpegts @ 0x1502280] first_dts 41563 not matching first dts 1897363 in que
710[mpegts @ 0x1502280] first_dts 41563 not matching first dts 1900963 in que
711[mpegts @ 0x1502280] first_dts 41563 not matching first dts 1904563 in que
712frame=  516 fps= 15 q=3.5 size=   16590kB time=00:00:20.56 bitrate=6610.2kbits/s dup=1 drop=0   
713first_dts 41563 not matching first dts 1908163 in que
714[mpegts @ 0x1502280] first_dts 41563 not matching first dts 1911763 in que
715[mpegts @ 0x1502280] first_dts 41563 not matching first dts 1915363 in que
716[mpegts @ 0x1502280] first_dts 41563 not matching first dts 1918963 in que
717[mpegts @ 0x1502280] first_dts 41563 not matching first dts 1922563 in que
718[mpegts @ 0x1502280] first_dts 41563 not matching first dts 1926163 in que
719[mpegts @ 0x1502280] first_dts 41563 not matching first dts 1929763 in que
720[mpegts @ 0x1502280] first_dts 41563 not matching first dts 1933363 in que
721frame=  524 fps= 15 q=3.5 size=   16828kB time=00:00:20.88 bitrate=6602.2kbits/s dup=1 drop=0   
722first_dts 41563 not matching first dts 1936963 in que
723[mpegts @ 0x1502280] first_dts 41563 not matching first dts 1940563 in que
724[mpegts @ 0x1502280] first_dts 41563 not matching first dts 1944163 in que
725[mpegts @ 0x1502280] first_dts 41563 not matching first dts 1947763 in que
726[mpegts @ 0x1502280] first_dts 41563 not matching first dts 1951363 in que
727[mpegts @ 0x1502280] first_dts 41563 not matching first dts 1954963 in que
728[mpegts @ 0x1502280] first_dts 41563 not matching first dts 1958563 in que
729[mpegts @ 0x1502280] first_dts 41563 not matching first dts 1962163 in que
730frame=  532 fps= 15 q=3.6 size=   17098kB time=00:00:21.20 bitrate=6606.9kbits/s dup=1 drop=0   
731first_dts 41563 not matching first dts 1965763 in que
732[mpegts @ 0x1502280] first_dts 41563 not matching first dts 1969363 in que
733[mpegts @ 0x1502280] first_dts 41563 not matching first dts 1972963 in que
734[mpegts @ 0x1502280] first_dts 41563 not matching first dts 1976563 in que
735[mpegts @ 0x1502280] first_dts 41563 not matching first dts 1980163 in que
736[mpegts @ 0x1502280] first_dts 41563 not matching first dts 1983763 in que
737[mpegts @ 0x1502280] first_dts 41563 not matching first dts 1987363 in que
738[mpegts @ 0x1502280] first_dts 41563 not matching first dts 1990963 in que
739frame=  540 fps= 15 q=3.4 size=   17346kB time=00:00:21.52 bitrate=6603.1kbits/s dup=1 drop=0   
740first_dts 41563 not matching first dts 1994563 in que
741[mpegts @ 0x1502280] first_dts 41563 not matching first dts 1998163 in que
742[mpegts @ 0x1502280] first_dts 41563 not matching first dts 2001763 in que
743[mpegts @ 0x1502280] first_dts 41563 not matching first dts 2005363 in que
744[mpegts @ 0x1502280] first_dts 41563 not matching first dts 2008963 in que
745[mpegts @ 0x1502280] first_dts 41563 not matching first dts 2012563 in que
746[mpegts @ 0x1502280] first_dts 41563 not matching first dts 2016163 in que
747[mpegts @ 0x1502280] first_dts 41563 not matching first dts 2019763 in que
748frame=  548 fps= 15 q=3.4 size=   17610kB time=00:00:21.84 bitrate=6605.4kbits/s dup=1 drop=0   
749first_dts 41563 not matching first dts 2023363 in que
750[mpegts @ 0x1502280] first_dts 41563 not matching first dts 2026963 in que
751[mpegts @ 0x1502280] first_dts 41563 not matching first dts 2030563 in que
752[mpegts @ 0x1502280] first_dts 41563 not matching first dts 2034163 in que
753[mpegts @ 0x1502280] first_dts 41563 not matching first dts 2037763 in que
754[mpegts @ 0x1502280] first_dts 41563 not matching first dts 2041363 in que
755[mpegts @ 0x1502280] first_dts 41563 not matching first dts 2044963 in que
756[mpegts @ 0x1502280] first_dts 41563 not matching first dts 2048563 in que
757frame=  556 fps= 15 q=3.4 size=   17850kB time=00:00:22.16 bitrate=6598.7kbits/s dup=1 drop=0   
758first_dts 41563 not matching first dts 2052163 in que
759[mpegts @ 0x1502280] first_dts 41563 not matching first dts 2055763 in que
760[mpegts @ 0x1502280] first_dts 41563 not matching first dts 2059363 in que
761[mpegts @ 0x1502280] first_dts 41563 not matching first dts 2062963 in que
762[mpegts @ 0x1502280] first_dts 41563 not matching first dts 2066563 in que
763[mpegts @ 0x1502280] first_dts 41563 not matching first dts 2070163 in que
764[mpegts @ 0x1502280] first_dts 41563 not matching first dts 2073763 in que
765[mpegts @ 0x1502280] first_dts 41563 not matching first dts 2077363 in que
766frame=  564 fps= 15 q=3.5 size=   18116kB time=00:00:22.48 bitrate=6601.7kbits/s dup=1 drop=0   
767first_dts 41563 not matching first dts 2080963 in que
768[mpegts @ 0x1502280] first_dts 41563 not matching first dts 2084563 in que
769[mpegts @ 0x1502280] first_dts 41563 not matching first dts 2088163 in que
770[mpegts @ 0x1502280] first_dts 41563 not matching first dts 2091763 in que
771[mpegts @ 0x1502280] first_dts 41563 not matching first dts 2095363 in que
772[mpegts @ 0x1502280] first_dts 41563 not matching first dts 2098963 in que
773[mpegts @ 0x1502280] first_dts 41563 not matching first dts 2102563 in que
774frame=  571 fps= 15 q=3.3 size=   18326kB time=00:00:22.76 bitrate=6596.1kbits/s dup=1 drop=0   
775first_dts 41563 not matching first dts 2106163 in que
776[mpegts @ 0x1502280] first_dts 41563 not matching first dts 2109763 in que
777[mpegts @ 0x1502280] first_dts 41563 not matching first dts 2113363 in que
778[mpegts @ 0x1502280] first_dts 41563 not matching first dts 2116963 in que
779[mpegts @ 0x1502280] first_dts 41563 not matching first dts 2120563 in que
780[mpegts @ 0x1502280] first_dts 41563 not matching first dts 2124163 in que
781[mpegts @ 0x1502280] first_dts 41563 not matching first dts 2127763 in que
782[mpegts @ 0x1502280] first_dts 41563 not matching first dts 2131363 in que
783frame=  579 fps= 15 q=3.2 size=   18588kB time=00:00:23.08 bitrate=6597.6kbits/s dup=1 drop=0   
784first_dts 41563 not matching first dts 2134963 in que
785[mpegts @ 0x1502280] first_dts 41563 not matching first dts 2138563 in que
786[mpegts @ 0x1502280] first_dts 41563 not matching first dts 2142163 in que
787[mpegts @ 0x1502280] first_dts 41563 not matching first dts 2145763 in que
788[mpegts @ 0x1502280] first_dts 41563 not matching first dts 2149363 in que
789[mpegts @ 0x1502280] first_dts 41563 not matching first dts 2152963 in que
790[mpegts @ 0x1502280] first_dts 41563 not matching first dts 2156563 in que
791frame=  586 fps= 15 q=3.0 size=   18788kB time=00:00:23.36 bitrate=6588.7kbits/s dup=1 drop=0   
792first_dts 41563 not matching first dts 2160163 in que
793[mpegts @ 0x1502280] first_dts 41563 not matching first dts 2163763 in que
794[mpegts @ 0x1502280] first_dts 41563 not matching first dts 2167363 in que
795[mpegts @ 0x1502280] first_dts 41563 not matching first dts 2170963 in que
796[mpegts @ 0x1502280] first_dts 41563 not matching first dts 2174563 in que
797[mpegts @ 0x1502280] first_dts 41563 not matching first dts 2178163 in que
798[mpegts @ 0x1502280] first_dts 41563 not matching first dts 2181763 in que
799[mpegts @ 0x1502280] first_dts 41563 not matching first dts 2185363 in que
800frame=  594 fps= 15 q=3.0 size=   19058kB time=00:00:23.68 bitrate=6593.0kbits/s dup=1 drop=0   
801first_dts 41563 not matching first dts 2188963 in que
802[mpegts @ 0x1502280] first_dts 41563 not matching first dts 2192563 in que
803[mpegts @ 0x1502280] first_dts 41563 not matching first dts 2196163 in que
804[mpegts @ 0x1502280] first_dts 41563 not matching first dts 2199763 in que
805[mpegts @ 0x1502280] first_dts 41563 not matching first dts 2203363 in que
806[mpegts @ 0x1502280] first_dts 41563 not matching first dts 2206963 in que
807[mpegts @ 0x1502280] first_dts 41563 not matching first dts 2210563 in que
808[mpegts @ 0x1502280] first_dts 41563 not matching first dts 2214163 in que
809frame=  602 fps= 15 q=2.2 size=   19332kB time=00:00:24.00 bitrate=6598.7kbits/s dup=1 drop=0   
810first_dts 41563 not matching first dts 2217763 in que
811[mpegts @ 0x1502280] first_dts 41563 not matching first dts 2221363 in que
812[mpegts @ 0x1502280] first_dts 41563 not matching first dts 2224963 in que
813[mpegts @ 0x1502280] first_dts 41563 not matching first dts 2228563 in que
814[mpegts @ 0x1502280] first_dts 41563 not matching first dts 2232163 in que
815[mpegts @ 0x1502280] first_dts 41563 not matching first dts 2235763 in que
816[mpegts @ 0x1502280] first_dts 41563 not matching first dts 2239363 in que
817frame=  609 fps= 15 q=2.9 size=   19526kB time=00:00:24.28 bitrate=6588.0kbits/s dup=1 drop=0   
818first_dts 41563 not matching first dts 2242963 in que
819[mpegts @ 0x1502280] first_dts 41563 not matching first dts 2246563 in que
820[mpegts @ 0x1502280] first_dts 41563 not matching first dts 2250163 in que
821[mpegts @ 0x1502280] first_dts 41563 not matching first dts 2253763 in que
822[mpegts @ 0x1502280] first_dts 41563 not matching first dts 2257363 in que
823[mpegts @ 0x1502280] first_dts 41563 not matching first dts 2260963 in que
824[mpegts @ 0x1502280] first_dts 41563 not matching first dts 2264563 in que
825[mpegts @ 0x1502280] first_dts 41563 not matching first dts 2268163 in que
826frame=  617 fps= 15 q=2.0 size=   19794kB time=00:00:24.60 bitrate=6591.6kbits/s dup=1 drop=0   
827first_dts 41563 not matching first dts 2271763 in que
828[mpegts @ 0x1502280] first_dts 41563 not matching first dts 2275363 in que
829[mpegts @ 0x1502280] first_dts 41563 not matching first dts 2278963 in que
830[mpegts @ 0x1502280] first_dts 41563 not matching first dts 2282563 in que
831[mpegts @ 0x1502280] first_dts 41563 not matching first dts 2286163 in que
832[mpegts @ 0x1502280] first_dts 41563 not matching first dts 2289763 in que
833[mpegts @ 0x1502280] first_dts 41563 not matching first dts 2293363 in que
834[mpegts @ 0x1502280] first_dts 41563 not matching first dts 2296963 in que
835frame=  625 fps= 15 q=2.5 size=   20018kB time=00:00:24.92 bitrate=6580.6kbits/s dup=1 drop=0   
836first_dts 41563 not matching first dts 2300563 in que
837[mpegts @ 0x1502280] first_dts 41563 not matching first dts 2304163 in que
838[mpegts @ 0x1502280] first_dts 41563 not matching first dts 2307763 in que
839[mpegts @ 0x1502280] first_dts 41563 not matching first dts 2311363 in que
840[mpegts @ 0x1502280] first_dts 41563 not matching first dts 2314963 in que
841[mpegts @ 0x1502280] first_dts 41563 not matching first dts 2318563 in que
842[mpegts @ 0x1502280] first_dts 41563 not matching first dts 2322163 in que
843[mpegts @ 0x1502280] first_dts 41563 not matching first dts 2325763 in que
844frame=  633 fps= 15 q=2.8 size=   20304kB time=00:00:25.24 bitrate=6590.0kbits/s dup=1 drop=0   
845first_dts 41563 not matching first dts 2329363 in que
846[mpegts @ 0x1502280] first_dts 41563 not matching first dts 2332963 in que
847[mpegts @ 0x1502280] first_dts 41563 not matching first dts 2336563 in que
848[mpegts @ 0x1502280] first_dts 41563 not matching first dts 2340163 in que
849[mpegts @ 0x1502280] first_dts 41563 not matching first dts 2343763 in que
850[mpegts @ 0x1502280] first_dts 41563 not matching first dts 2347363 in que
851[mpegts @ 0x1502280] first_dts 41563 not matching first dts 2350963 in que
852[mpegts @ 0x1502280] first_dts 41563 not matching first dts 2354563 in que
853frame=  641 fps= 15 q=2.8 size=   20546kB time=00:00:25.56 bitrate=6585.0kbits/s dup=1 drop=0   
854first_dts 41563 not matching first dts 2358163 in que
855[mpegts @ 0x1502280] first_dts 41563 not matching first dts 2361763 in que
856[mpegts @ 0x1502280] first_dts 41563 not matching first dts 2365363 in que
857[mpegts @ 0x1502280] first_dts 41563 not matching first dts 2368963 in que
858[mpegts @ 0x1502280] first_dts 41563 not matching first dts 2372563 in que
859[mpegts @ 0x1502280] first_dts 41563 not matching first dts 2376163 in que
860[mpegts @ 0x1502280] first_dts 41563 not matching first dts 2379763 in que
861frame=  648 fps= 15 q=3.3 size=   20818kB time=00:00:25.84 bitrate=6599.9kbits/s dup=1 drop=0   
862first_dts 41563 not matching first dts 2383363 in que
863[mpegts @ 0x1502280] first_dts 41563 not matching first dts 2386963 in que
864[mpegts @ 0x1502280] first_dts 41563 not matching first dts 2390563 in que
865[mpegts @ 0x1502280] first_dts 41563 not matching first dts 2394163 in que
866[mpegts @ 0x1502280] first_dts 41563 not matching first dts 2397763 in que
867[mpegts @ 0x1502280] first_dts 41563 not matching first dts 2401363 in que
868[mpegts @ 0x1502280] first_dts 41563 not matching first dts 2404963 in que
869[mpegts @ 0x1502280] first_dts 41563 not matching first dts 2408563 in que
870frame=  656 fps= 15 q=3.7 size=   21068kB time=00:00:26.16 bitrate=6597.4kbits/s dup=1 drop=0   
871first_dts 41563 not matching first dts 2412163 in que
872[mpegts @ 0x1502280] first_dts 41563 not matching first dts 2415763 in que
873[mpegts @ 0x1502280] first_dts 41563 not matching first dts 2419363 in que
874[mpegts @ 0x1502280] first_dts 41563 not matching first dts 2422963 in que
875[mpegts @ 0x1502280] first_dts 41563 not matching first dts 2426563 in que
876[mpegts @ 0x1502280] first_dts 41563 not matching first dts 2430163 in que
877[mpegts @ 0x1502280] first_dts 41563 not matching first dts 2433763 in que
878frame=  663 fps= 15 q=4.2 size=   21320kB time=00:00:26.44 bitrate=6605.7kbits/s dup=1 drop=0   
879first_dts 41563 not matching first dts 2437363 in que
880[mpegts @ 0x1502280] first_dts 41563 not matching first dts 2440963 in que
881[mpegts @ 0x1502280] first_dts 41563 not matching first dts 2444563 in que
882[mpegts @ 0x1502280] first_dts 41563 not matching first dts 2448163 in que
883[mpegts @ 0x1502280] first_dts 41563 not matching first dts 2451763 in que
884[mpegts @ 0x1502280] first_dts 41563 not matching first dts 2455363 in que
885[mpegts @ 0x1502280] first_dts 41563 not matching first dts 2458963 in que
886[mpegts @ 0x1502280] first_dts 41563 not matching first dts 2462563 in que
887frame=  671 fps= 15 q=3.8 size=   21562kB time=00:00:26.76 bitrate=6600.7kbits/s dup=1 drop=0   
888first_dts 41563 not matching first dts 2466163 in que
889[mpegts @ 0x1502280] first_dts 41563 not matching first dts 2469763 in que
890[mpegts @ 0x1502280] first_dts 41563 not matching first dts 2473363 in que
891[mpegts @ 0x1502280] first_dts 41563 not matching first dts 2476963 in que
892[mpegts @ 0x1502280] first_dts 41563 not matching first dts 2480563 in que
893[mpegts @ 0x1502280] first_dts 41563 not matching first dts 2484163 in que
894[mpegts @ 0x1502280] first_dts 41563 not matching first dts 2487763 in que
895[mpegts @ 0x1502280] first_dts 41563 not matching first dts 2491363 in que
896frame=  679 fps= 15 q=3.4 size=   21820kB time=00:00:27.08 bitrate=6600.8kbits/s dup=1 drop=0   
897first_dts 41563 not matching first dts 2494963 in que
898[mpegts @ 0x1502280] first_dts 41563 not matching first dts 2498563 in que
899[mpegts @ 0x1502280] first_dts 41563 not matching first dts 2502163 in que
900[mpegts @ 0x1502280] first_dts 41563 not matching first dts 2505763 in que
901[mpegts @ 0x1502280] first_dts 41563 not matching first dts 2509363 in que
902[mpegts @ 0x1502280] first_dts 41563 not matching first dts 2512963 in que
903[mpegts @ 0x1502280] first_dts 41563 not matching first dts 2516563 in que
904[mpegts @ 0x1502280] first_dts 41563 not matching first dts 2520163 in que
905frame=  687 fps= 15 q=2.8 size=   22030kB time=00:00:27.40 bitrate=6586.5kbits/s dup=1 drop=0   
906first_dts 41563 not matching first dts 2523763 in que
907[mpegts @ 0x1502280] first_dts 41563 not matching first dts 2527363 in que
908[mpegts @ 0x1502280] first_dts 41563 not matching first dts 2530963 in que
909[mpegts @ 0x1502280] first_dts 41563 not matching first dts 2534563 in que
910[mpegts @ 0x1502280] first_dts 41563 not matching first dts 2538163 in que
911[mpegts @ 0x1502280] first_dts 41563 not matching first dts 2541763 in que
912frame=  697 fps= 15 q=2.7 size=   22352kB time=00:00:27.80 bitrate=6586.6kbits/s dup=1 drop=0   
913EOF on sink link output stream 0:0:default.
914[output stream 0:1 @ 0x15a1460] EOF on sink link output stream 0:1:default.
915No more output streams to write to, finishing.
916frame=  697 fps= 15 q=2.7 Lsize=   22396kB time=00:00:27.84 bitrate=6590.1kbits/s dup=1 drop=0   
917video:20457kB audio:1522kB subtitle:0 global headers:0kB muxing overhead 1.894409%
918[AVIOContext @ 0x150a8c0] Statistics: 60770448 bytes read, 2 seeks