Ticket #1678: pre_8f5bb35.log

File pre_8f5bb35.log, 5.3 KB (added by jwjwjw, 4 years ago)

ffmpeg log from fbbe092 (generates an in sync file with a duration of 00:01:37.76)

Line 
1ffmpeg version N-32545-gfbbe092, Copyright (c) 2000-2011 the FFmpeg developers
2  built on Aug 26 2012 14:22:30 with clang 4.0 ((tags/Apple/clang-421.0.60))
3  configuration: --prefix=/Users/jw/ffmpeg --enable-gpl --enable-swscale --enable-avfilter --enable-nonfree --mandir=/opt/local/share/man --enable-shared --enable-pthreads --disable-indevs --cc=/usr/bin/clang --arch=x86_64 --disable-doc
4  libavutil    51. 16. 0 / 51. 16. 0
5  libavcodec   53. 13. 0 / 53. 13. 0
6  libavformat  53. 12. 0 / 53. 12. 0
7  libavdevice  53.  3. 0 / 53.  3. 0
8  libavfilter   2. 40. 0 /  2. 40. 0
9  libswscale    2.  1. 0 /  2.  1. 0
10  libpostproc  51.  2. 0 / 51.  2. 0
11[h264 @ 0x7fce21823400] AVC: nal size 21839902
12[h264 @ 0x7fce21823400] no frame!
13Input #0, mov,mp4,m4a,3gp,3g2,mj2, from 'bbcnews-original.mp4':
14  Metadata:
15    major_brand     : isom
16    minor_version   : 512
17    compatible_brands: isomiso2avc1mp41
18    encoder         : Lavf54.25.104
19  Duration: 00:01:37.70, start: 0.000000, bitrate: 853 kb/s
20    Stream #0.0(und): Video: h264 (Main) (avc1 / 0x31637661), yuv420p, 640x360 [SAR 1:1 DAR 16:9], 751 kb/s, 26.63 fps, 25 tbr, 1k tbn, 50 tbc
21    Stream #0.1(und): Audio: aac (mp4a / 0x6134706D), 44100 Hz, stereo, s16, 93 kb/s
22[buffer @ 0x7fce21415040] w:640 h:360 pixfmt:yuv420p tb:1/1000000 sar:1/1 sws_param:
23[aac @ 0x7fce2181cc00] Unsupported bit depth: 0
24[aac @ 0x7fce21813600] Unsupported bit depth: 0
25Output #0, mp4, to 'output.mp4':
26  Metadata:
27    major_brand     : isom
28    minor_version   : 512
29    compatible_brands: isomiso2avc1mp41
30    encoder         : Lavf53.12.0
31    Stream #0.0(und), 0, 1/25: Video: mpeg4 ( [0][0][0] / 0x0020), yuv420p, 640x360 [SAR 1:1 DAR 16:9], 1/25, q=2-31, 200 kb/s, 25 tbn, 25 tbc
32    Stream #0.1(und), 0, 1/44100: Audio: aac (@[0][0][0] / 0x0040), 44100 Hz, stereo, s16, 128 kb/s
33Stream mapping:
34  Stream #0.0 -> #0.0 (h264 -> mpeg4)
35  Stream #0.1 -> #0.1 (aac -> aac)
36Press [q] to stop, [?] for help
37[h264 @ 0x7fce21823400] AVC: nal size 21839902
38[h264 @ 0x7fce21823400] no frame!
39Error while decoding stream #0.0
40[h264 @ 0x7fce21823400] no picture
41*** drop!
42*** drop!
43*** drop!
44*** drop!
45*** drop!
46*** drop!
47*** drop!
48*** drop!
49*** drop!
50*** drop!
51*** drop!
52*** drop!
53*** drop!
54*** drop!
55*** drop!
56*** drop!
57*** drop!
58*** drop!
59*** drop!
60*** drop!
61*** drop!
62*** drop!
63*** drop!
64*** drop!
65*** drop!
66*** drop!
67*** drop!
68*** drop!
69*** drop!
70*** drop!
71*** drop!
72*** drop!
73*** drop!
74*** drop!
75*** drop!
76*** drop!
77*** drop!
78*** drop!
79*** drop!
80*** drop!
81*** drop!
82*** drop!
83*** drop!
84*** drop!
85*** drop!
86*** drop!
87*** drop!
88*** drop!
89*** drop!
90*** drop!
91*** drop!
92*** drop!
93*** drop!
94*** drop!
95*** drop!
96*** drop!
97*** drop!
98*** drop!
99*** drop!
100*** drop!
101*** drop!
102*** drop!
103*** drop!
104*** drop!
105*** drop!
106*** drop!
107*** drop!
108*** drop!
109*** drop!
110*** drop!
111*** drop!
112*** drop!
113*** drop!
114*** drop!
115*** drop!
116*** drop!
117*** drop!
118*** drop!
119*** drop!
120*** drop!
121*** drop!
122*** drop!
123*** drop!
124*** drop!
125*** drop!
126*** drop!
127*** drop!
128*** drop!
129*** drop!
130*** drop!
131*** drop!
132*** drop!
133*** drop!
134*** drop!
135*** drop!
136*** drop!
137*** drop!
138*** drop!
139*** drop!
140*** drop!
141*** drop!
142*** drop!
143*** drop!
144*** drop!
145*** drop!
146*** drop!
147*** drop!
148*** drop!
149*** drop!
150*** drop!
151*** drop!
152*** drop!
153*** drop!
154*** drop!
155*** drop!
156*** drop!
157*** drop!
158*** drop!
159*** drop!
160*** drop!
161*** drop!
162*** drop!
163*** drop!
164*** drop!
165*** drop!
166*** drop!
167*** drop!
168*** drop!
169*** drop!
170*** drop!
171*** drop!
172*** drop!
173*** drop!
174*** drop!
175*** drop!
176*** drop!
177*** drop!
178*** drop!
179*** drop!
180*** drop!
181*** drop!
182*** drop!
183*** drop!
184*** drop!
185*** drop!
186*** drop!
187*** drop!
188*** drop!
189*** drop!
190*** drop!
191*** drop!
192*** drop!
193*** drop!
194*** drop!
195*** drop!
196*** drop!
197*** drop!
198frame=   70 fps=  0 q=24.8 size=     309kB time=00:00:02.73 bitrate= 925.1kbits/s dup=0 drop=157   
199frame=  210 fps=208 q=31.0 size=     610kB time=00:00:08.33 bitrate= 599.4kbits/s dup=0 drop=157   
200frame=  354 fps=234 q=31.0 size=    1022kB time=00:00:14.09 bitrate= 593.7kbits/s dup=0 drop=157   
201frame=  501 fps=249 q=31.0 size=    1352kB time=00:00:19.96 bitrate= 554.5kbits/s dup=0 drop=157   
202frame=  638 fps=253 q=31.0 size=    1790kB time=00:00:25.44 bitrate= 576.2kbits/s dup=0 drop=157   
203frame=  801 fps=265 q=31.0 size=    2100kB time=00:00:31.99 bitrate= 537.7kbits/s dup=0 drop=157   
204frame=  980 fps=279 q=31.0 size=    2352kB time=00:00:39.12 bitrate= 492.4kbits/s dup=0 drop=157   
205frame= 1151 fps=286 q=24.8 size=    2598kB time=00:00:45.97 bitrate= 463.0kbits/s dup=0 drop=157   
206frame= 1325 fps=293 q=31.0 size=    2857kB time=00:00:52.94 bitrate= 442.1kbits/s dup=0 drop=157   
207frame= 1489 fps=296 q=24.8 size=    3112kB time=00:00:59.48 bitrate= 428.6kbits/s dup=0 drop=157   
208frame= 1647 fps=298 q=31.0 size=    3382kB time=00:01:05.80 bitrate= 421.0kbits/s dup=0 drop=157   
209frame= 1807 fps=300 q=31.0 size=    3671kB time=00:01:12.23 bitrate= 416.4kbits/s dup=0 drop=157   
210frame= 1971 fps=302 q=31.0 size=    3926kB time=00:01:18.78 bitrate= 408.2kbits/s dup=0 drop=157   
211frame= 2131 fps=303 q=31.0 size=    4171kB time=00:01:25.17 bitrate= 401.2kbits/s dup=0 drop=157   
212frame= 2293 fps=305 q=24.8 size=    4404kB time=00:01:31.67 bitrate= 393.6kbits/s dup=0 drop=157   
213frame= 2428 fps=302 q=31.0 size=    4597kB time=00:01:37.05 bitrate= 388.0kbits/s dup=0 drop=157   
214frame= 2444 fps=302 q=31.0 Lsize=    4684kB time=00:01:37.68 bitrate= 392.8kbits/s dup=0 drop=157   
215
216video:3140kB audio:1490kB global headers:0kB muxing overhead 1.166076%