Ticket #1678: bbc1-ok.log

File bbc1-ok.log, 4.0 KB (added by jwjwjw, 4 years ago)

Log of the old version of ffmpeg that generates an in sync file

Line 
1ffmpeg -i bbc1sample.mp4 -v 9 -loglevel 99 -vb 300k -vsync 1 -async 1 -acodec libfaac -ab 192k -ac 2 -ar 44100 -vcodec mpeg4 bbc1-ok.mov
2ffmpeg version N-31890-gecaf514, Copyright (c) 2000-2011 the FFmpeg developers
3  built on Aug 14 2011 20:17:18 with clang 2.1 (tags/Apple/clang-163.7.1)
4  configuration: --prefix=/opt/local --enable-gpl --enable-postproc --enable-swscale --enable-avfilter --enable-libmp3lame --enable-libvorbis --enable-libtheora --enable-libdirac --enable-libschroedinger --enable-libfaac --enable-libxvid --enable-libx264 --enable-libvpx --enable-libspeex --enable-nonfree --mandir=/opt/local/share/man --enable-shared --enable-pthreads --disable-indevs --cc=/Developer/usr/bin/clang --arch=x86_64
5  libavutil    51. 12. 0 / 51. 12. 0
6  libavcodec   53. 10. 0 / 53. 10. 0
7  libavformat  53.  7. 0 / 53.  7. 0
8  libavdevice  53.  3. 0 / 53.  3. 0
9  libavfilter   2. 31. 1 /  2. 31. 1
10  libswscale    2.  0. 0 /  2.  0. 0
11  libpostproc  51.  2. 0 / 51.  2. 0
12[h264 @ 0x7fa0e4026000] AVC: nal size 21839902
13[h264 @ 0x7fa0e4026000] no frame!
14Input #0, mov,mp4,m4a,3gp,3g2,mj2, from 'bbc1sample.mp4':
15  Metadata:
16    major_brand     : isom
17    minor_version   : 512
18    compatible_brands: isomiso2avc1mp41
19    encoder         : Lavf54.25.104
20  Duration: 00:00:49.58, start: 0.000000, bitrate: 901 kb/s
21    Stream #0.0(und): Video: h264 (Main), yuv420p, 640x360 [SAR 1:1 DAR 16:9], 798 kb/s, 28.27 fps, 25 tbr, 1k tbn, 50 tbc
22    Stream #0.1(und): Audio: aac, 44100 Hz, stereo, s16, 93 kb/s
23File 'bbc1-ok.mov' already exists. Overwrite ? [y/N] y
24[buffer @ 0x7fa0e3c2cde0] w:640 h:360 pixfmt:yuv420p tb:1/1000000 sar:1/1 sws_param:
25[aac @ 0x7fa0e4013600] Unsupported bit depth: 0
26Output #0, mov, to 'bbc1-ok.mov':
27  Metadata:
28    major_brand     : isom
29    minor_version   : 512
30    compatible_brands: isomiso2avc1mp41
31    encoder         : Lavf53.7.0
32    Stream #0.0(und), 0, 1/25: Video: mpeg4, yuv420p, 640x360 [SAR 1:1 DAR 16:9], 1/25, q=2-31, 300 kb/s, 25 tbn, 25 tbc
33    Stream #0.1(und), 0, 1/44100: Audio: libfaac, 44100 Hz, 2 channels, s16, 192 kb/s
34Stream mapping:
35  Stream #0.0 -> #0.0
36  Stream #0.1 -> #0.1
37Press [q] to stop, [?] for help
38[h264 @ 0x7fa0e4026000] AVC: nal size 21839902
39[h264 @ 0x7fa0e4026000] no frame!
40Error while decoding stream #0.0
41[h264 @ 0x7fa0e4026000] no picture
42*** drop!
43*** drop!
44*** drop!
45*** drop!
46*** drop!
47*** drop!
48*** drop!
49*** drop!
50*** drop!
51*** drop!
52*** drop!
53*** drop!
54*** drop!
55*** drop!
56*** drop!
57*** drop!
58*** drop!
59*** drop!
60*** drop!
61*** drop!
62*** drop!
63*** drop!
64*** drop!
65*** drop!
66*** drop!
67*** drop!
68*** drop!
69*** drop!
70*** drop!
71*** drop!
72*** drop!
73*** drop!
74*** drop!
75*** drop!
76*** drop!
77*** drop!
78*** drop!
79*** drop!
80*** drop!
81*** drop!
82*** drop!
83*** drop!
84*** drop!
85*** drop!
86*** drop!
87*** drop!
88*** drop!
89*** drop!
90*** drop!
91*** drop!
92*** drop!
93*** drop!
94*** drop!
95*** drop!
96*** drop!
97*** drop!
98*** drop!
99*** drop!
100*** drop!
101*** drop!
102*** drop!
103*** drop!
104*** drop!
105*** drop!
106*** drop!
107*** drop!
108*** drop!
109*** drop!
110*** drop!
111*** drop!
112*** drop!
113*** drop!
114*** drop!
115*** drop!
116*** drop!
117*** drop!
118*** drop!
119*** drop!
120*** drop!
121*** drop!
122*** drop!
123*** drop!
124*** drop!
125*** drop!
126*** drop!
127*** drop!
128*** drop!
129*** drop!
130*** drop!
131*** drop!
132*** drop!
133*** drop!
134*** drop!
135*** drop!
136*** drop!
137*** drop!
138*** drop!
139*** drop!
140*** drop!
141*** drop!
142*** drop!
143*** drop!
144*** drop!
145*** drop!
146*** drop!
147*** drop!
148*** drop!
149*** drop!
150*** drop!
151*** drop!
152*** drop!
153*** drop!
154*** drop!
155*** drop!
156*** drop!
157*** drop!
158*** drop!
159*** drop!
160*** drop!
161*** drop!
162*** drop!
163*** drop!
164*** drop!
165*** drop!
166*** drop!
167*** drop!
168*** drop!
169*** drop!
170*** drop!
171*** drop!
172*** drop!
173*** drop!
174*** drop!
175*** drop!
176*** drop!
177*** drop!
178*** drop!
179*** drop!
180*** drop!
181*** drop!
182*** drop!
183*** drop!
184*** drop!
185*** drop!
186*** drop!
187*** drop!
188*** drop!
189*** drop!
190*** drop!
191*** drop!
192*** drop!
193*** drop!
194*** drop!
195*** drop!
196*** drop!
197*** drop!
198*** drop!
199*** drop!
200*** drop!
201*** drop!
202frame= 1241 fps=223 q=31.0 Lsize=    3052kB time=00:00:49.57 bitrate= 504.4kbits/s dup=0 drop=160   
203video:2105kB audio:920kB global headers:0kB muxing overhead 0.926839%