Ticket #1595: ffmpeg-master.log

File ffmpeg-master.log, 3.9 KB (added by bartbogdan, 4 years ago)
Line 
1ffmpeg started on 2012-08-02 at 14:03:20
2Report written to "ffmpeg-20120802-140320.log"
3Command line:
4ffmpeg -i example-input.avi -report -qscale 5 -an -vcodec libtheora example-theora-master.ogg
5ffmpeg version N-43114-g1f68be4 Copyright (c) 2000-2012 the FFmpeg developers
6  built on Aug  2 2012 10:47:23 with gcc 4.4.6 (GCC) 20120305 (Red Hat 4.4.6-4)
7  configuration: --enable-gpl --enable-libtheora
8  libavutil      51. 66.100 / 51. 66.100
9  libavcodec     54. 46.100 / 54. 46.100
10  libavformat    54. 22.100 / 54. 22.100
11  libavdevice    54.  2.100 / 54.  2.100
12  libavfilter     3.  5.101 /  3.  5.101
13  libswscale      2.  1.100 /  2.  1.100
14  libswresample   0. 15.100 /  0. 15.100
15  libpostproc    52.  0.100 / 52.  0.100
16[avi @ 0x2a919c0] Format avi probed with size=2048 and score=100
17[avi @ 0x2a92000] use odml:1
18st:1 removing common factor 2 from timebase
19[avi @ 0x2a919c0] non-interleaved AVI
20[avi @ 0x2a919c0] File position before avformat_find_stream_info() is 2048
21[avi @ 0x2a919c0] parser not found for codec msvideo1, packets or times may be invalid.
22[avi @ 0x2a919c0] parser not found for codec pcm_s16le, packets or times may be invalid.
23[avi @ 0x2a919c0] parser not found for codec msvideo1, packets or times may be invalid.
24[avi @ 0x2a919c0] parser not found for codec pcm_s16le, packets or times may be invalid.
25[avi @ 0x2a919c0] All info found
26[avi @ 0x2a919c0] File position after avformat_find_stream_info() is 4104
27Guessed Channel Layout for  Input Stream #0.1 : mono
28Input #0, avi, from 'example-input.avi':
29  Duration: 00:00:03.73, start: 0.000000, bitrate: 1586 kb/s
30    Stream #0:0, 1, 1/15: Video: msvideo1 (CRAM / 0x4D415243), rgb555le, 596x524, 15 tbr, 15 tbn, 15 tbc
31    Metadata:
32      title           : _snagtmp.avi Video #1
33    Stream #0:1, 1, 1/22050: Audio: pcm_s16le ([1][0][0][0] / 0x0001), 22050 Hz, mono, s16, 352 kb/s
34    Metadata:
35      title           : Microsoft Waveform: _snagtmp.wav
36Please use -q:a or -q:v, -qscale is ambiguous
37[buffer @ 0x2a8ef40] Setting entry with key 'video_size' to value '596x524'
38[buffer @ 0x2a8ef40] Setting entry with key 'pix_fmt' to value '46'
39[buffer @ 0x2a8ef40] Setting entry with key 'time_base' to value '1/15'
40[buffer @ 0x2a8ef40] Setting entry with key 'pixel_aspect' to value '0/1'
41[buffer @ 0x2a8ef40] Setting entry with key 'sws_param' to value 'flags=2'
42[buffer @ 0x2a8ef40] Setting entry with key 'frame_rate' to value '15/1'
43[graph 0 input from stream 0:0 @ 0x2a8f3c0] w:596 h:524 pixfmt:rgb555le tb:1/15 fr:15/1 sar:0/1 sws_param:flags=2
44[format @ 0x2a8f1a0] auto-inserting filter 'auto-inserted scaler 0' between the filter 'Parsed_null_0' and the filter 'format'
45[auto-inserted scaler 0 @ 0x2a90460] picking yuv444p out of 3 ref:rgb555le alpha:0
46[auto-inserted scaler 0 @ 0x2a90460] w:596 h:524 fmt:rgb555le sar:0/1 -> w:596 h:524 fmt:yuv444p sar:0/1 flags:0x4
47[ogg @ 0x2aa86e0] theora kfgshift 6, vrev 1
48Output #0, ogg, to 'example-theora-master.ogg':
49  Metadata:
50    encoder         : Lavf54.22.100
51    Stream #0:0, 0, 1/15: Video: theora, yuv444p, 596x524, q=2-31, 200 kb/s, 15 tbn, 15 tbc
52    Metadata:
53      title           : _snagtmp.avi Video #1
54Stream mapping:
55  Stream #0:0 -> #0:0 (msvideo1 -> libtheora)
56Press [q] to stop, [?] for help
57frame=    9 fps=0.0 q=0.0 size=       3kB time=00:00:00.60 bitrate=  44.9kbits/s   
58frame=   22 fps= 21 q=0.0 size=      19kB time=00:00:01.46 bitrate= 108.3kbits/s   
59frame=   35 fps= 22 q=0.0 size=      42kB time=00:00:02.33 bitrate= 147.6kbits/s   
60frame=   48 fps= 23 q=0.0 size=      69kB time=00:00:03.20 bitrate= 175.5kbits/s   
61EOF on sink link output stream 0:0:default.
62No more inputs to read from, finishing.
63frame=   56 fps= 24 q=0.0 Lsize=     116kB time=00:00:03.73 bitrate= 254.7kbits/s   
64video:112kB audio:0kB subtitle:0 global headers:3kB muxing overhead 0.692127%
65[AVIOContext @ 0x2a9a060] Statistics: 1684136 bytes read, 32 seeks