Ticket #1595: ffmpeg-0.11.1.log

File ffmpeg-0.11.1.log, 2.9 KB (added by bartbogdan, 4 years ago)
Line 
1ffmpeg started on 2012-08-02 at 14:07:38
2Report written to "ffmpeg-20120802-140738.log"
3Command line:
4ffmpeg -i example-input.avi -report -qscale 5 -an -vcodec libtheora example-theora-0.11.1.ogg
5ffmpeg version 0.11.1 Copyright (c) 2000-2012 the FFmpeg developers
6  built on Aug  2 2012 12:58:52 with gcc 4.4.6 20120305 (Red Hat 4.4.6-4)
7  configuration: --enable-gpl --enable-libtheora
8  libavutil      51. 54.100 / 51. 54.100
9  libavcodec     54. 23.100 / 54. 23.100
10  libavformat    54.  6.100 / 54.  6.100
11  libavdevice    54.  0.100 / 54.  0.100
12  libavfilter     2. 77.100 /  2. 77.100
13  libswscale      2.  1.100 /  2.  1.100
14  libswresample   0. 15.100 /  0. 15.100
15  libpostproc    52.  0.100 / 52.  0.100
16[avi @ 0x23e6ac0] Format avi probed with size=2048 and score=100
17[AVI demuxer @ 0x23e7000] use odml:1
18st:1 removing common factor 2 from timebase
19[avi @ 0x23e6ac0] non-interleaved AVI
20[avi @ 0x23e6ac0] File position before avformat_find_stream_info() is 2048
21[avi @ 0x23e6ac0] parser not found for codec msvideo1, packets or times may be invalid.
22[avi @ 0x23e6ac0] parser not found for codec pcm_s16le, packets or times may be invalid.
23[avi @ 0x23e6ac0] All info found
24[avi @ 0x23e6ac0] File position after avformat_find_stream_info() is 4104
25Guessed Channel Layout for  Input Stream #0.1 : mono
26Input #0, avi, from 'example-input.avi':
27  Duration: 00:00:03.73, start: 0.000000, bitrate: 1586 kb/s
28    Stream #0:0, 1, 1/15: Video: msvideo1 (CRAM / 0x4D415243), rgb555le, 596x524, 15 tbr, 15 tbn, 15 tbc
29    Metadata:
30      title           : _snagtmp.avi Video #1
31    Stream #0:1, 1, 1/22050: Audio: pcm_s16le ([1][0][0][0] / 0x0001), 22050 Hz, mono, s16, 352 kb/s
32    Metadata:
33      title           : Microsoft Waveform: _snagtmp.wav
34Please use -q:a or -q:v, -qscale is ambiguous
35[buffer @ 0x23e1fe0] w:596 h:524 pixfmt:rgb555le tb:1/15 sar:0/1 sws_param:flags=2
36[buffersink @ 0x23e2520] No opaque field provided
37[format @ 0x23e28c0] auto-inserting filter 'auto-inserted scaler 0' between the filter 'src' and the filter 'format'
38[scale @ 0x23e3540] w:596 h:524 fmt:rgb555le sar:0/1 -> w:596 h:524 fmt:yuv420p sar:0/1 flags:0x4
39[ogg @ 0x23fd160] theora kfgshift 6, vrev 1
40Output #0, ogg, to 'example-theora-0.11.1.ogg':
41  Metadata:
42    encoder         : Lavf54.6.100
43    Stream #0:0, 0, 1/15: Video: theora, yuv420p, 596x524, q=2-31, 200 kb/s, 15 tbn, 15 tbc
44    Metadata:
45      title           : _snagtmp.avi Video #1
46Stream mapping:
47  Stream #0:0 -> #0:0 (msvideo1 -> libtheora)
48Press [q] to stop, [?] for help
49frame=   14 fps=0.0 q=0.0 size=      16kB time=00:00:00.93 bitrate= 140.3kbits/s   
50frame=   32 fps= 31 q=0.0 size=      34kB time=00:00:02.13 bitrate= 130.3kbits/s   
51frame=   56 fps= 36 q=0.0 size=      77kB time=00:00:03.73 bitrate= 169.7kbits/s   
52frame=   56 fps= 36 q=0.0 Lsize=      93kB time=00:00:03.73 bitrate= 204.0kbits/s   
53video:89kB audio:0kB global headers:3kB muxing overhead 0.770615%