Ticket #1556: encode.log

File encode.log, 7.1 KB (added by FishB8, 4 years ago)

stderr output for ~5 sec encoding

Line 
1ffmpeg version 0.11.1 Copyright (c) 2000-2012 the FFmpeg developers
2  built on Jul 19 2012 09:20:40 with gcc 4.6.3
3  configuration: --prefix=/usr --libdir=/usr/lib64 --shlibdir=/usr/lib64 --mandir=/usr/share/man --enable-shared --cc=x86_64-pc-linux-gnu-gcc --cxx=x86_64-pc-linux-gnu-g++ --ar=x86_64-pc-linux-gnu-ar --optflags='-O2 -march=native -mfpmath=sse -ftree-vectorize -fprefetch-loop-arrays -pipe' --extra-cflags='-O2 -march=native -mfpmath=sse -ftree-vectorize -fprefetch-loop-arrays -pipe' --extra-cxxflags='-O2 -march=native -mfpmath=sse -ftree-vectorize -fprefetch-loop-arrays -pipe -fvisibility-inlines-hidden' --disable-static --enable-gpl --enable-version3 --enable-postproc --enable-avfilter --disable-stripping --disable-debug --disable-doc --enable-openssl --enable-nonfree --enable-gnutls --enable-libmp3lame --enable-libvo-aacenc --enable-libtheora --enable-libx264 --enable-libxvid --enable-libaacplus --enable-nonfree --enable-libfaac --enable-nonfree --enable-libdc1394 --disable-indev=v4l --disable-indev=v4l2 --disable-indev=oss --enable-x11grab --enable-libpulse --disable-outdev=oss --enable-frei0r --enable-font  libavutil      51. 54.100 / 51. 54.100
4  libavcodec     54. 23.100 / 54. 23.100
5  libavformat    54.  6.100 / 54.  6.100
6  libavdevice    54.  0.100 / 54.  0.100
7  libavfilter     2. 77.100 /  2. 77.100
8  libswscale      2.  1.100 /  2.  1.100
9  libswresample   0. 15.100 /  0. 15.100
10  libpostproc    52.  0.100 / 52.  0.100
11[decklink @ 0x821020] DeckLink grabbber BETA
12[decklink @ 0x821020] Video num:1000, den:60000
13[decklink @ 0x821020] Stream #1: not enough frames to estimate rate; consider increasing probesize
14[decklink @ 0x821020] Estimating duration from bitrate, this may be inaccurate
15Guessed Channel Layout for  Input Stream #0.1 : stereo
16Input #0, decklink, from '':
17  Duration: N/A, start: 0.000000, bitrate: 886272 kb/s
18    Stream #0:0: Video: rawvideo (UYVY / 0x59565955), uyvy422, 1280x720, 884736 kb/s, 60 fps, 60 tbr, 1000k tbn, 60 tbc
19    Stream #0:1: Audio: pcm_s16le, 48000 Hz, stereo, s16, 1536 kb/s
20[buffer @ 0x82eae0] w:1280 h:720 pixfmt:uyvy422 tb:1/1000000 sar:0/1 sws_param:flags=2
21[buffersink @ 0x82bd00] No opaque field provided
22[scale @ 0xa04f20] w:1280 h:720 fmt:uyvy422 sar:0/1 -> w:640 h:360 fmt:yuv420p sar:0/1 flags:0x4
23[libx264 @ 0x82dde0] using cpu capabilities: MMX2 SSE2Fast SSSE3 FastShuffle SSE4.2
24[libx264 @ 0x82dde0] profile High, level 3.0
25[libx264 @ 0x82dde0] 264 - core 125 - H.264/MPEG-4 AVC codec - Copyleft 2003-2012 - http://www.videolan.org/x264.html - options: cabac=1 ref=5 deblock=1:0:0 analyse=0x3:0x113 me=umh subme=8 psy=1 psy_rd=1.00:0.00 mixed_ref=1 me_range=16 chroma_me=1 trellis=2 8x8dct=1 cqm=0 deadzone=21,11 fast_pskip=1 chroma_qp_offset=-2 threads=12 lookahead_threads=2 sliced_threads=0 nr=0 decimate=1 interlaced=0 bluray_compat=0 constrained_intra=0 bframes=3 b_pyramid=2 b_adapt=2 b_bias=0 direct=3 weightb=1 open_gop=0 weightp=2 keyint=250 keyint_min=25 scenecut=40 intra_refresh=0 rc_lookahead=50 rc=crf mbtree=1 crf=22.0 qcomp=0.60 qpmin=0 qpmax=69 qpstep=4 ip_ratio=1.40 aq=1:1.00
26Output #0, nut, to 'pipe:':
27  Metadata:
28    encoder         : Lavf54.6.100
29    Stream #0:0: Video: h264 (H264 / 0x34363248), yuv420p, 640x360, q=-1--1, 30 tbn, 30 tbc
30    Stream #0:1: Audio: aac ([255][0][0][0] / 0x00FF), 48000 Hz, stereo, s16, 64 kb/s
31Stream mapping:
32  Stream #0:0 -> #0:0 (rawvideo -> libx264)
33  Stream #0:1 -> #0:1 (pcm_s16le -> libaacplus)
34Press [q] to stop, [?] for help
35frame=   17 fps=0.0 q=0.0 size=       0kB time=00:00:00.00 bitrate=   0.0kbits/s dup=0 drop=15   
36frame=   32 fps= 32 q=0.0 size=       0kB time=00:00:00.00 bitrate=   0.0kbits/s dup=0 drop=30   
37frame=   48 fps= 32 q=0.0 size=       0kB time=00:00:00.00 bitrate=   0.0kbits/s dup=0 drop=45   
38frame=   63 fps= 31 q=0.0 size=       0kB time=00:00:00.00 bitrate=   0.0kbits/s dup=0 drop=60   
39frame=   79 fps= 31 q=28.0 size=      20kB time=00:00:00.36 bitrate= 450.6kbits/s dup=0 drop=75   
40frame=   94 fps= 31 q=28.0 size=      26kB time=00:00:00.86 bitrate= 242.4kbits/s dup=0 drop=90   
41frame=  109 fps= 31 q=28.0 size=      30kB time=00:00:01.36 bitrate= 182.8kbits/s dup=0 drop=106   
42frame=  124 fps= 31 q=28.0 size=      35kB time=00:00:01.86 bitrate= 153.2kbits/s dup=0 drop=121   
43frame=  139 fps= 30 q=28.0 size=      40kB time=00:00:02.36 bitrate= 137.8kbits/s dup=0 drop=137   
44frame=  154 fps= 30 q=28.0 size=      45kB time=00:00:02.86 bitrate= 127.5kbits/s dup=0 drop=152   
45frame=  170 fps= 30 q=28.0 size=      49kB time=00:00:03.40 bitrate= 119.2kbits/s dup=0 drop=167   
46frame=  185 fps= 30 q=28.0 size=      54kB time=00:00:03.90 bitrate= 114.1kbits/s dup=0 drop=182   
47frame=  200 fps= 30 q=28.0 size=      59kB time=00:00:04.40 bitrate= 110.1kbits/s dup=0 drop=198   
48frame=  215 fps= 30 q=28.0 size=      64kB time=00:00:04.90 bitrate= 106.9kbits/s dup=0 drop=213   
49frame=  231 fps= 30 q=28.0 size=      69kB time=00:00:05.43 bitrate= 103.8kbits/s dup=0 drop=228   
50frame=  246 fps= 30 q=28.0 size=      74kB time=00:00:05.93 bitrate= 101.6kbits/s dup=0 drop=243   
51frame=  261 fps= 30 q=28.0 size=      78kB time=00:00:06.43 bitrate=  99.6kbits/s dup=0 drop=258   
52frame=  277 fps= 30 q=28.0 size=      83kB time=00:00:06.96 bitrate=  98.0kbits/s dup=0 drop=273   
53frame=  292 fps= 30 q=28.0 size=      88kB time=00:00:07.46 bitrate=  96.8kbits/s dup=0 drop=288   
54frame=  307 fps= 30 q=28.0 size=      93kB time=00:00:07.96 bitrate=  95.3kbits/s dup=0 drop=304   
55frame=  322 fps= 30 q=28.0 size=     125kB time=00:00:08.46 bitrate= 121.1kbits/s dup=0 drop=319   
56frame=  337 fps= 30 q=28.0 size=     131kB time=00:00:08.96 bitrate= 119.3kbits/s dup=0 drop=335   
57frame=  352 fps= 30 q=28.0 size=     136kB time=00:00:09.46 bitrate= 117.4kbits/s dup=0 drop=350   
58frame=  368 fps= 30 q=28.0 size=     141kB time=00:00:10.00 bitrate= 115.3kbits/s dup=0 drop=365   
59frame=  383 fps= 30 q=28.0 size=     146kB time=00:00:10.50 bitrate= 113.8kbits/s dup=0 drop=380   
60frame=  398 fps= 30 q=28.0 size=     151kB time=00:00:11.00 bitrate= 112.4kbits/s dup=0 drop=396   
61frame=  414 fps= 30 q=28.0 size=     156kB time=00:00:11.53 bitrate= 110.8kbits/s dup=0 drop=411   
62frame=  429 fps= 30 q=28.0 size=     161kB time=00:00:12.03 bitrate= 109.7kbits/s dup=0 drop=426   
63frame=  445 fps= 30 q=28.0 size=     166kB time=00:00:12.56 bitrate= 108.4kbits/s dup=0 drop=441   
64frame=  460 fps= 30 q=28.0 size=     171kB time=00:00:13.06 bitrate= 107.4kbits/s dup=0 drop=456   
65frame=  475 fps= 30 q=28.0 size=     176kB time=00:00:13.56 bitrate= 106.5kbits/s dup=0 drop=472   
66frame=  490 fps= 30 q=28.0 size=     181kB time=00:00:14.06 bitrate= 105.4kbits/s dup=0 drop=487   
67frame=  505 fps= 30 q=28.0 size=     186kB time=00:00:14.56 bitrate= 104.6kbits/s dup=0 drop=503   
68frame=  520 fps= 30 q=28.0 size=     191kB time=00:00:15.06 bitrate= 103.9kbits/s dup=0 drop=518   
69frame=  536 fps= 30 q=28.0 size=     196kB time=00:00:15.60 bitrate= 103.0kbits/s dup=0 drop=533   
70frame=  551 fps= 30 q=28.0 size=     201kB time=00:00:16.10 bitrate= 102.4kbits/s dup=0 drop=548   
71frame=  566 fps= 30 q=28.0 size=     206kB time=00:00:16.60 bitrate= 101.8kbits/s dup=0 drop=564   
72frame=  582 fps= 30 q=28.0 size=     239kB time=00:00:17.13 bitrate= 114.3kbits/s dup=0 drop=579