Ticket #1425: ffmpeg-20120606-100145.log

File ffmpeg-20120606-100145.log, 31.5 KB (added by knovz, 4 years ago)

ffmpeg log generated by -report

Line 
1ffmpeg started on 2012-06-06 at 10:01:45
2Report written to "ffmpeg-20120606-100145.log"
3Command line:
4ffmpeg -v 9 -loglevel 99 -report -i rtsp://192.168.1.222/mpeg4/1/media.amp -map 0 -vcodec mpeg4 -t 60 -f segment -segment_time 5 -segment_format mp4 -segment_list testsegmentedmp4.m3u8 -segment_list_size 30 "testsegmentstartdelay%03d.mp4"
5ffmpeg version N-41352-gc8a1101 Copyright (c) 2000-2012 the FFmpeg developers
6  built on Jun  6 2012 09:34:33 with gcc 4.6.1
7  configuration: --enable-gpl --enable-libx264 --enable-x11grab
8  libavutil      51. 56.100 / 51. 56.100
9  libavcodec     54. 25.100 / 54. 25.100
10  libavformat    54.  6.101 / 54.  6.101
11  libavdevice    54.  0.100 / 54.  0.100
12  libavfilter     2. 78.100 /  2. 78.100
13  libswscale      2.  1.100 /  2.  1.100
14  libswresample   0. 15.100 /  0. 15.100
15  libpostproc    52.  0.100 / 52.  0.100
16[rtsp @ 0xa26ba60] SDP:
17v=0
18o=- 1338973314348473 1338973314348482 IN IP4 192.168.1.222
19s=Media Presentation
20e=NONE
21c=IN IP4 0.0.0.0
22b=AS:8000
23t=0 0
24a=control:*
25a=range:npt=now-
26a=mpeg4-iod: "data:application/mpeg4-iod;base64,AoFSAE8BAf/1AQNuAAFAUGRhdGE6YXBwbGljYXRpb24vbXBlZzQtb2QtYXU7YmFzZTY0LEFSMEJHd1VmQXhjQXlTUUFaUVFOSUJFRWsrQUFlaElBQUhvU0FBWUJCQT09BA0BBQAEAAAAAAAAAAAABgkBAAAAAAAAAAADOgACQDZkYXRhOmFwcGxpY2F0aW9uL21wZWc0LWJpZnMtYXU7YmFzZTY0LHdCQVNZUVNJVUVVRlB3QT0EEgINAAACAAAAAAAAAAAFAwAAQAYJAQAAAAAAAAAA"
27m=video 0 RTP/AVP 9video codec set to: mpeg4
28[rtsp @ 0xa26ba60] hello state=0
29[rtsp @ 0xa26ba60] All info found
30[rtsp @ 0xa26ba60] Estimating duration from bitrate, this may be inaccurate
31Input #0, rtsp, from 'rtsp://192.168.1.222/mpeg4/1/media.amp':
32  Metadata:
33    title           : Media Presentation
34  Duration: N/A, start: 0.023322, bitrate: N/A
35    Stream #0:0, 2, 1/90000: Video: mpeg4 (Advanced Simple Profile), yuv420p, 640x480 [SAR 1:1 DAR 4:3], 1/100, 100 tbr, 90k tbn, 100 tbc
36[buffer @ 0xa268aa0] w:640 h:480 pixfmt:yuv420p tb:1/90000 sar:1/1 sws_param:flags=2
37[ffmpeg_buffersink @ 0xa29ed60] No opaque field provided
38[mpeg4 @ 0xa29e480] detected 2 logical cores
39[mpeg4 @ 0xa29e480] intra_quant_bias = 0 inter_quant_bias = -64
40[mpeg4 @ 0xa273ac0] detected 2 logical cores
41Output #0, segment, to 'testsegmentstartdelay%03d.mp4':
42  Metadata:
43    title           : Media Presentation
44    encoder         : Lavf54.6.101
45    Stream #0:0, 0, 1/100: Video: mpeg4 ( [0][0][0] / 0x0020), yuv420p, 640x480 [SAR 1:1 DAR 4:3], 1/100, q=2-31, 200 kb/s, 100 tbn, 100 tbc
46Stream mapping:
47  Stream #0:0 -> #0:0 (mpeg4 -> mpeg4)
48Press [q] to stop, [?] for help
49*** 2 dup!
50*** 3 dup!
51*** 2 dup!
52*** 2 dup!
53*** 3 dup!
54*** 2 dup!
55*** 6 dup!
56*** 2 dup!
57*** 2 dup!
58*** 3 dup!
59*** 2 dup!
60*** 2 dup!
61*** 6 dup!
62frame=   52 fps=0.0 q=31.0 size=       0kB time=00:00:00.52 bitrate=   0.0kbits/s dup=37 drop=0   
63*** 2 dup!
64*** 3 dup!
65*** 2 dup!
66*** 2 dup!
67*** 3 dup!
68*** 2 dup!
69*** 2 dup!
70*** 3 dup!
71*** 2 dup!
72*** 6 dup!
73*** 2 dup!
74*** 2 dup!
75*** 3 dup!
76*** 2 dup!
77frame=  102 fps= 96 q=31.0 size=       0kB time=00:00:01.02 bitrate=   0.0kbits/s dup=73 drop=0   
78*** 2 dup!
79*** 6 dup!
80*** 2 dup!
81*** 3 dup!
82*** 2 dup!
83*** 2 dup!
84*** 3 dup!
85*** 2 dup!
86*** 2 dup!
87*** 3 dup!
88*** 2 dup!
89*** 6 dup!
90*** 2 dup!
91*** 2 dup!
92frame=  155 fps= 98 q=31.0 size=       0kB time=00:00:01.55 bitrate=   0.0kbits/s dup=112 drop=0   
93*** 3 dup!
94*** 2 dup!
95*** 2 dup!
96*** 6 dup!
97*** 2 dup!
98*** 3 dup!
99*** 2 dup!
100*** 2 dup!
101*** 3 dup!
102*** 2 dup!
103*** 2 dup!
104*** 3 dup!
105*** 5 dup!
106*** 3 dup!
107frame=  209 fps= 99 q=31.0 size=       0kB time=00:00:02.09 bitrate=   0.0kbits/s dup=152 drop=0   
108*** 2 dup!
109*** 2 dup!
110*** 3 dup!
111*** 2 dup!
112*** 2 dup!
113*** 6 dup!
114*** 2 dup!
115*** 3 dup!
116*** 2 dup!
117*** 2 dup!
118*** 3 dup!
119*** 2 dup!
120*** 2 dup!
121*** 3 dup!
122frame=  259 fps= 98 q=31.0 size=       0kB time=00:00:02.59 bitrate=   0.0kbits/s dup=188 drop=0   
123*** 5 dup!
124*** 3 dup!
125*** 2 dup!
126*** 2 dup!
127*** 3 dup!
128*** 2 dup!
129*** 2 dup!
130*** 6 dup!
131*** 2 dup!
132*** 3 dup!
133*** 2 dup!
134*** 2 dup!
135*** 3 dup!
136*** 2 dup!
137frame=  312 fps= 99 q=31.0 size=       0kB time=00:00:03.12 bitrate=   0.0kbits/s dup=227 drop=0   
138*** 2 dup!
139*** 3 dup!
140*** 5 dup!
141*** 3 dup!
142*** 2 dup!
143*** 2 dup!
144*** 3 dup!
145*** 2 dup!
146*** 2 dup!
147*** 6 dup!
148*** 2 dup!
149*** 3 dup!
150*** 2 dup!
151*** 2 dup!
152frame=  365 fps= 99 q=31.0 size=       0kB time=00:00:03.65 bitrate=   0.0kbits/s dup=266 drop=0   
153*** 3 dup!
154*** 2 dup!
155*** 2 dup!
156*** 3 dup!
157*** 5 dup!
158*** 3 dup!
159*** 2 dup!
160*** 2 dup!
161*** 3 dup!
162*** 2 dup!
163*** 2 dup!
164*** 6 dup!
165*** 2 dup!
166*** 3 dup!
167frame=  419 fps=100 q=31.0 size=       0kB time=00:00:04.19 bitrate=   0.0kbits/s dup=306 drop=0   
168*** 2 dup!
169*** 2 dup!
170*** 3 dup!
171*** 2 dup!
172*** 2 dup!
173*** 3 dup!
174*** 5 dup!
175*** 3 dup!
176*** 2 dup!
177*** 2 dup!
178*** 3 dup!
179*** 2 dup!
180*** 2 dup!
181*** 6 dup!
182frame=  472 fps=100 q=31.0 size=       0kB time=00:00:04.72 bitrate=   0.0kbits/s dup=345 drop=0   
183*** 2 dup!
184*** 3 dup!
185*** 2 dup!
186*** 2 dup!
187*** 3 dup!
188*** 2 dup!
189*** 2 dup!
190*** 6 dup!
191*** 2 dup!
192[segment @ 0xa29ddc0] Next segment starts at 0 504
193*** 3 dup!
194*** 2 dup!
195*** 2 dup!
196*** 3 dup!
197*** 5 dup!
198frame=  525 fps=100 q=31.0 size=       0kB time=00:00:05.25 bitrate=   0.0kbits/s dup=384 drop=0   
199*** 3 dup!
200*** 2 dup!
201*** 2 dup!
202*** 3 dup!
203*** 2 dup!
204*** 2 dup!
205*** 3 dup!
206*** 2 dup!
207*** 2 dup!
208*** 6 dup!
209*** 2 dup!
210*** 3 dup!
211*** 2 dup!
212*** 2 dup!
213frame=  575 fps= 99 q=31.0 size=       0kB time=00:00:05.75 bitrate=   0.0kbits/s dup=420 drop=0   
214*** 3 dup!
215*** 5 dup!
216*** 3 dup!
217*** 2 dup!
218*** 2 dup!
219*** 3 dup!
220*** 2 dup!
221*** 2 dup!
222*** 3 dup!
223*** 5 dup!
224*** 3 dup!
225*** 2 dup!
226*** 2 dup!
227*** 3 dup!
228frame=  629 fps= 99 q=31.0 size=       0kB time=00:00:06.29 bitrate=   0.0kbits/s dup=460 drop=0   
229*** 2 dup!
230*** 6 dup!
231*** 2 dup!
232*** 2 dup!
233*** 3 dup!
234*** 2 dup!
235*** 2 dup!
236*** 6 dup!
237*** 2 dup!
238*** 3 dup!
239*** 2 dup!
240*** 2 dup!
241*** 3 dup!
242*** 2 dup!
243frame=  682 fps= 99 q=31.0 size=       0kB time=00:00:06.82 bitrate=   0.0kbits/s dup=499 drop=0   
244*** 2 dup!
245*** 6 dup!
246*** 2 dup!
247*** 3 dup!
248*** 2 dup!
249*** 2 dup!
250*** 3 dup!
251*** 5 dup!
252*** 3 dup!
253*** 2 dup!
254*** 2 dup!
255*** 3 dup!
256*** 2 dup!
257*** 2 dup!
258frame=  735 fps= 99 q=31.0 size=       0kB time=00:00:07.35 bitrate=   0.0kbits/s dup=538 drop=0   
259*** 3 dup!
260*** 5 dup!
261*** 3 dup!
262*** 2 dup!
263*** 2 dup!
264*** 3 dup!
265*** 2 dup!
266*** 6 dup!
267*** 2 dup!
268*** 2 dup!
269*** 3 dup!
270*** 2 dup!
271*** 2 dup!
272*** 3 dup!
273frame=  789 fps=100 q=31.0 size=       0kB time=00:00:07.89 bitrate=   0.0kbits/s dup=578 drop=0   
274*** 2 dup!
275*** 2 dup!
276*** 3 dup!
277*** 5 dup!
278*** 3 dup!
279*** 2 dup!
280*** 2 dup!
281*** 3 dup!
282*** 2 dup!
283*** 6 dup!
284*** 2 dup!
285*** 2 dup!
286*** 3 dup!
287*** 2 dup!
288frame=  842 fps=100 q=31.0 size=       0kB time=00:00:08.42 bitrate=   0.0kbits/s dup=617 drop=0   
289*** 2 dup!
290*** 3 dup!
291*** 2 dup!
292*** 6 dup!
293*** 2 dup!
294*** 2 dup!
295*** 3 dup!
296*** 2 dup!
297*** 2 dup!
298*** 6 dup!
299*** 2 dup!
300*** 3 dup!
301*** 2 dup!
302*** 2 dup!
303frame=  895 fps=100 q=31.0 size=       0kB time=00:00:08.95 bitrate=   0.0kbits/s dup=656 drop=0   
304*** 3 dup!
305*** 5 dup!
306*** 3 dup!
307*** 2 dup!
308*** 2 dup!
309*** 3 dup!
310*** 2 dup!
311*** 2 dup!
312*** 3 dup!
313*** 5 dup!
314*** 3 dup!
315*** 2 dup!
316*** 2 dup!
317*** 3 dup!
318frame=  949 fps=100 q=24.8 size=       0kB time=00:00:09.49 bitrate=   0.0kbits/s dup=696 drop=0   
319*** 2 dup!
320*** 6 dup!
321*** 2 dup!
322*** 2 dup!
323*** 3 dup!
324*** 2 dup!
325*** 2 dup!
326*** 3 dup!
327*** 2 dup!
328*** 2 dup!
329*** 3 dup!
330*** 5 dup!
331*** 3 dup!
332*** 2 dup!
333frame= 1002 fps=100 q=31.0 size=       0kB time=00:00:10.02 bitrate=   0.0kbits/s dup=735 drop=0   
334*** 2 dup!
335*** 3 dup!
336[segment @ 0xa29ddc0] Next segment starts at 0 1008
337*** 2 dup!
338*** 6 dup!
339*** 2 dup!
340*** 2 dup!
341*** 3 dup!
342*** 2 dup!
343*** 2 dup!
344*** 3 dup!
345*** 2 dup!
346*** 2 dup!
347*** 3 dup!
348*** 5 dup!
349frame= 1055 fps=100 q=31.0 size=       0kB time=00:00:10.55 bitrate=   0.0kbits/s dup=774 drop=0   
350*** 3 dup!
351*** 2 dup!
352*** 2 dup!
353*** 3 dup!
354*** 2 dup!
355*** 6 dup!
356*** 2 dup!
357*** 2 dup!
358*** 3 dup!
359*** 2 dup!
360*** 2 dup!
361*** 3 dup!
362*** 2 dup!
363*** 2 dup!
364frame= 1105 fps=100 q=24.8 size=       0kB time=00:00:11.05 bitrate=   0.0kbits/s dup=810 drop=0   
365*** 3 dup!
366*** 5 dup!
367*** 3 dup!
368*** 2 dup!
369*** 2 dup!
370*** 3 dup!
371*** 2 dup!
372*** 6 dup!
373*** 2 dup!
374*** 2 dup!
375*** 3 dup!
376*** 2 dup!
377*** 2 dup!
378*** 3 dup!
379frame= 1159 fps=100 q=31.0 size=       0kB time=00:00:11.59 bitrate=   0.0kbits/s dup=850 drop=0   
380*** 2 dup!
381*** 2 dup!
382*** 3 dup!
383*** 5 dup!
384*** 3 dup!
385*** 2 dup!
386*** 2 dup!
387*** 3 dup!
388*** 2 dup!
389*** 6 dup!
390*** 2 dup!
391*** 3 dup!
392*** 2 dup!
393*** 2 dup!
394frame= 1212 fps=100 q=31.0 size=       0kB time=00:00:12.12 bitrate=   0.0kbits/s dup=889 drop=0   
395*** 3 dup!
396*** 2 dup!
397*** 2 dup!
398*** 3 dup!
399*** 2 dup!
400*** 6 dup!
401*** 2 dup!
402*** 2 dup!
403*** 3 dup!
404*** 2 dup!
405*** 2 dup!
406*** 6 dup!
407*** 2 dup!
408*** 3 dup!
409frame= 1266 fps=100 q=31.0 size=       0kB time=00:00:12.66 bitrate=   0.0kbits/s dup=929 drop=0   
410*** 2 dup!
411*** 2 dup!
412*** 3 dup!
413*** 2 dup!
414*** 2 dup!
415*** 3 dup!
416*** 5 dup!
417*** 3 dup!
418*** 2 dup!
419*** 2 dup!
420*** 3 dup!
421*** 2 dup!
422*** 2 dup!
423*** 6 dup!
424frame= 1319 fps=100 q=31.0 size=       0kB time=00:00:13.19 bitrate=   0.0kbits/s dup=968 drop=0   
425*** 2 dup!
426*** 3 dup!
427*** 2 dup!
428*** 2 dup!
429*** 3 dup!
430*** 2 dup!
431*** 2 dup!
432*** 3 dup!
433*** 2 dup!
434*** 6 dup!
435*** 2 dup!
436*** 2 dup!
437*** 3 dup!
438*** 2 dup!
439frame= 1369 fps=100 q=24.8 size=       0kB time=00:00:13.69 bitrate=   0.0kbits/s dup=1004 drop=0   
440*** 2 dup!
441*** 6 dup!
442*** 2 dup!
443*** 3 dup!
444*** 2 dup!
445*** 2 dup!
446*** 3 dup!
447*** 2 dup!
448*** 2 dup!
449*** 6 dup!
450*** 2 dup!
451*** 3 dup!
452*** 2 dup!
453*** 2 dup!
454frame= 1422 fps=100 q=31.0 size=       0kB time=00:00:14.22 bitrate=   0.0kbits/s dup=1043 drop=0   
455*** 3 dup!
456*** 5 dup!
457*** 3 dup!
458*** 2 dup!
459*** 2 dup!
460*** 3 dup!
461*** 2 dup!
462*** 2 dup!
463*** 3 dup!
464*** 2 dup!
465*** 6 dup!
466*** 2 dup!
467*** 2 dup!
468*** 3 dup!
469frame= 1476 fps=100 q=31.0 size=       0kB time=00:00:14.76 bitrate=   0.0kbits/s dup=1083 drop=0   
470*** 2 dup!
471*** 2 dup!
472*** 3 dup!
473*** 5 dup!
474*** 3 dup!
475*** 2 dup!
476*** 2 dup!
477[segment @ 0xa29ddc0] Next segment starts at 0 1500
478*** 3 dup!
479*** 2 dup!
480*** 2 dup!
481*** 3 dup!
482*** 5 dup!
483*** 3 dup!
484*** 2 dup!
485frame= 1529 fps=100 q=31.0 size=       0kB time=00:00:15.29 bitrate=   0.0kbits/s dup=1122 drop=0   
486*** 2 dup!
487*** 3 dup!
488*** 2 dup!
489*** 6 dup!
490*** 2 dup!
491*** 2 dup!
492*** 3 dup!
493*** 2 dup!
494*** 2 dup!
495*** 6 dup!
496*** 2 dup!
497*** 3 dup!
498*** 2 dup!
499*** 2 dup!
500frame= 1582 fps=100 q=31.0 size=       0kB time=00:00:15.82 bitrate=   0.0kbits/s dup=1161 drop=0   
501*** 3 dup!
502*** 2 dup!
503*** 2 dup!
504*** 6 dup!
505*** 2 dup!
506*** 3 dup!
507*** 2 dup!
508*** 2 dup!
509*** 3 dup!
510*** 5 dup!
511*** 3 dup!
512*** 2 dup!
513*** 2 dup!
514*** 3 dup!
515frame= 1636 fps=100 q=31.0 size=       0kB time=00:00:16.36 bitrate=   0.0kbits/s dup=1201 drop=0   
516*** 2 dup!
517*** 2 dup!
518*** 3 dup!
519*** 5 dup!
520*** 3 dup!
521*** 2 dup!
522*** 2 dup!
523*** 3 dup!
524*** 2 dup!
525*** 6 dup!
526*** 2 dup!
527*** 2 dup!
528*** 3 dup!
529*** 2 dup!
530frame= 1689 fps=100 q=31.0 size=       0kB time=00:00:16.89 bitrate=   0.0kbits/s dup=1240 drop=0   
531*** 2 dup!
532*** 3 dup!
533*** 2 dup!
534*** 2 dup!
535*** 6 dup!
536*** 2 dup!
537*** 3 dup!
538*** 2 dup!
539*** 2 dup!
540*** 3 dup!
541*** 2 dup!
542*** 6 dup!
543*** 2 dup!
544*** 2 dup!
545frame= 1742 fps=100 q=31.0 size=       0kB time=00:00:17.42 bitrate=   0.0kbits/s dup=1279 drop=0   
546*** 3 dup!
547*** 2 dup!
548*** 2 dup!
549*** 3 dup!
550*** 2 dup!
551*** 6 dup!
552*** 2 dup!
553*** 2 dup!
554*** 3 dup!
555*** 2 dup!
556*** 2 dup!
557*** 6 dup!
558*** 2 dup!
559frame= 1792 fps=100 q=31.0 size=       0kB time=00:00:17.92 bitrate=   0.0kbits/s dup=1316 drop=0   
560*** 3 dup!
561*** 2 dup!
562*** 2 dup!
563*** 3 dup!
564*** 5 dup!
565*** 3 dup!
566*** 2 dup!
567*** 2 dup!
568*** 3 dup!
569*** 2 dup!
570*** 2 dup!
571*** 3 dup!
572*** 5 dup!
573*** 3 dup!
574*** 2 dup!
575frame= 1849 fps=100 q=24.8 size=       0kB time=00:00:18.49 bitrate=   0.0kbits/s dup=1358 drop=0   
576*** 2 dup!
577*** 3 dup!
578*** 2 dup!
579*** 6 dup!
580*** 2 dup!
581*** 2 dup!
582*** 3 dup!
583*** 2 dup!
584*** 2 dup!
585*** 3 dup!
586*** 2 dup!
587*** 2 dup!
588*** 6 dup!
589*** 2 dup!
590frame= 1902 fps=100 q=31.0 size=       0kB time=00:00:19.02 bitrate=   0.0kbits/s dup=1397 drop=0   
591*** 3 dup!
592*** 2 dup!
593*** 2 dup!
594*** 3 dup!
595*** 2 dup!
596*** 6 dup!
597*** 2 dup!
598*** 2 dup!
599*** 3 dup!
600*** 2 dup!
601*** 2 dup!
602*** 3 dup!
603*** 2 dup!
604*** 2 dup!
605frame= 1952 fps=100 q=31.0 size=       0kB time=00:00:19.52 bitrate=   0.0kbits/s dup=1433 drop=0   
606*** 6 dup!
607*** 2 dup!
608*** 3 dup!
609*** 2 dup!
610*** 2 dup!
611*** 3 dup!
612*** 2 dup!
613*** 6 dup!
614*** 2 dup!
615*** 2 dup!
616*** 3 dup!
617*** 2 dup!
618*** 2 dup!
619*** 3 dup!
620[segment @ 0xa29ddc0] Next segment starts at 0 2004
621frame= 2006 fps=100 q=31.0 size=       0kB time=00:00:20.06 bitrate=   0.0kbits/s dup=1473 drop=0   
622*** 2 dup!
623*** 2 dup!
624*** 6 dup!
625*** 2 dup!
626*** 3 dup!
627*** 2 dup!
628*** 2 dup!
629*** 3 dup!
630*** 2 dup!
631*** 6 dup!
632*** 2 dup!
633*** 2 dup!
634*** 3 dup!
635*** 2 dup!
636frame= 2059 fps=100 q=31.0 size=       0kB time=00:00:20.59 bitrate=   0.0kbits/s dup=1512 drop=0   
637*** 2 dup!
638*** 3 dup!
639*** 2 dup!
640*** 2 dup!
641*** 3 dup!
642*** 5 dup!
643*** 3 dup!
644*** 2 dup!
645*** 2 dup!
646*** 3 dup!
647*** 2 dup!
648*** 6 dup!
649*** 2 dup!
650*** 2 dup!
651frame= 2112 fps=100 q=31.0 size=       0kB time=00:00:21.12 bitrate=   0.0kbits/s dup=1551 drop=0   
652*** 3 dup!
653*** 2 dup!
654*** 2 dup!
655*** 3 dup!
656*** 2 dup!
657*** 2 dup!
658*** 3 dup!
659*** 5 dup!
660*** 3 dup!
661*** 2 dup!
662*** 2 dup!
663*** 3 dup!
664*** 2 dup!
665*** 6 dup!
666frame= 2166 fps=100 q=31.0 size=       0kB time=00:00:21.66 bitrate=   0.0kbits/s dup=1591 drop=0   
667*** 2 dup!
668*** 2 dup!
669*** 3 dup!
670*** 2 dup!
671*** 2 dup!
672*** 3 dup!
673*** 2 dup!
674*** 2 dup!
675*** 6 dup!
676*** 2 dup!
677*** 3 dup!
678*** 2 dup!
679*** 2 dup!
680*** 3 dup!
681frame= 2216 fps=100 q=31.0 size=       0kB time=00:00:22.16 bitrate=   0.0kbits/s dup=1627 drop=0   
682*** 2 dup!
683*** 6 dup!
684*** 2 dup!
685*** 2 dup!
686*** 3 dup!
687*** 2 dup!
688*** 2 dup!
689*** 3 dup!
690*** 2 dup!
691*** 2 dup!
692*** 3 dup!
693*** 5 dup!
694*** 3 dup!
695*** 2 dup!
696frame= 2269 fps=100 q=24.8 size=       0kB time=00:00:22.69 bitrate=   0.0kbits/s dup=1666 drop=0   
697*** 2 dup!
698*** 3 dup!
699*** 2 dup!
700*** 6 dup!
701*** 2 dup!
702*** 2 dup!
703*** 3 dup!
704*** 2 dup!
705*** 2 dup!
706*** 3 dup!
707*** 2 dup!
708*** 6 dup!
709*** 2 dup!
710*** 2 dup!
711frame= 2322 fps=100 q=31.0 size=       0kB time=00:00:23.22 bitrate=   0.0kbits/s dup=1705 drop=0   
712*** 3 dup!
713*** 2 dup!
714*** 2 dup!
715*** 6 dup!
716*** 2 dup!
717*** 3 dup!
718*** 2 dup!
719*** 2 dup!
720*** 3 dup!
721*** 2 dup!
722*** 2 dup!
723*** 3 dup!
724*** 2 dup!
725*** 6 dup!
726frame= 2376 fps=100 q=31.0 size=       0kB time=00:00:23.76 bitrate=   0.0kbits/s dup=1745 drop=0   
727*** 2 dup!
728*** 2 dup!
729*** 3 dup!
730*** 2 dup!
731*** 2 dup!
732*** 6 dup!
733*** 2 dup!
734*** 3 dup!
735*** 2 dup!
736*** 2 dup!
737*** 3 dup!
738*** 2 dup!
739*** 2 dup!
740*** 6 dup!
741frame= 2429 fps=100 q=31.0 size=       0kB time=00:00:24.29 bitrate=   0.0kbits/s dup=1784 drop=0   
742*** 2 dup!
743*** 3 dup!
744*** 2 dup!
745*** 2 dup!
746*** 3 dup!
747*** 5 dup!
748*** 3 dup!
749*** 2 dup!
750*** 2 dup!
751*** 3 dup!
752*** 2 dup!
753*** 6 dup!
754*** 2 dup!
755*** 2 dup!
756frame= 2482 fps=100 q=31.0 size=       0kB time=00:00:24.82 bitrate=   0.0kbits/s dup=1823 drop=0   
757*** 3 dup!
758*** 2 dup!
759*** 2 dup!
760*** 3 dup!
761*** 2 dup!
762*** 6 dup!
763*** 2 dup!
764[segment @ 0xa29ddc0] Next segment starts at 0 2508
765*** 2 dup!
766*** 3 dup!
767*** 2 dup!
768*** 2 dup!
769*** 6 dup!
770*** 2 dup!
771*** 3 dup!
772frame= 2536 fps=100 q=31.0 size=       0kB time=00:00:25.36 bitrate=   0.0kbits/s dup=1863 drop=0   
773*** 2 dup!
774*** 2 dup!
775*** 3 dup!
776*** 2 dup!
777*** 2 dup!
778*** 6 dup!
779*** 2 dup!
780*** 3 dup!
781*** 2 dup!
782*** 2 dup!
783*** 3 dup!
784*** 5 dup!
785*** 3 dup!
786frame= 2586 fps=100 q=31.0 size=       0kB time=00:00:25.86 bitrate=   0.0kbits/s dup=1900 drop=0   
787*** 2 dup!
788*** 2 dup!
789*** 3 dup!
790*** 2 dup!
791*** 2 dup!
792*** 3 dup!
793*** 2 dup!
794*** 2 dup!
795*** 6 dup!
796*** 2 dup!
797*** 3 dup!
798*** 2 dup!
799*** 2 dup!
800*** 3 dup!
801frame= 2636 fps=100 q=31.0 size=       0kB time=00:00:26.36 bitrate=   0.0kbits/s dup=1936 drop=0   
802*** 5 dup!
803*** 3 dup!
804*** 2 dup!
805*** 2 dup!
806*** 3 dup!
807*** 2 dup!
808*** 2 dup!
809*** 3 dup!
810*** 5 dup!
811*** 3 dup!
812*** 2 dup!
813*** 2 dup!
814*** 3 dup!
815frame= 2686 fps=100 q=31.0 size=       0kB time=00:00:26.86 bitrate=   0.0kbits/s dup=1973 drop=0   
816*** 2 dup!
817*** 6 dup!
818*** 2 dup!
819*** 2 dup!
820*** 3 dup!
821*** 2 dup!
822*** 2 dup!
823*** 6 dup!
824*** 2 dup!
825*** 3 dup!
826*** 2 dup!
827*** 2 dup!
828*** 3 dup!
829*** 2 dup!
830frame= 2739 fps=100 q=31.0 size=       0kB time=00:00:27.39 bitrate=   0.0kbits/s dup=2012 drop=0   
831*** 2 dup!
832*** 6 dup!
833*** 2 dup!
834*** 3 dup!
835*** 2 dup!
836*** 2 dup!
837*** 3 dup!
838*** 5 dup!
839*** 3 dup!
840*** 2 dup!
841*** 2 dup!
842*** 3 dup!
843*** 2 dup!
844*** 2 dup!
845frame= 2792 fps=100 q=31.0 size=       0kB time=00:00:27.92 bitrate=   0.0kbits/s dup=2051 drop=0   
846*** 3 dup!
847*** 2 dup!
848*** 2 dup!
849*** 6 dup!
850*** 2 dup!
851*** 3 dup!
852*** 2 dup!
853*** 2 dup!
854*** 3 dup!
855*** 5 dup!
856*** 3 dup!
857*** 2 dup!
858*** 2 dup!
859*** 3 dup!
860frame= 2846 fps=100 q=31.0 size=       0kB time=00:00:28.46 bitrate=   0.0kbits/s dup=2091 drop=0   
861*** 2 dup!
862*** 2 dup!
863*** 3 dup!
864*** 2 dup!
865*** 2 dup!
866*** 6 dup!
867*** 2 dup!
868*** 3 dup!
869*** 2 dup!
870*** 2 dup!
871*** 3 dup!
872*** 5 dup!
873*** 3 dup!
874*** 2 dup!
875frame= 2899 fps=100 q=31.0 size=       0kB time=00:00:28.99 bitrate=   0.0kbits/s dup=2130 drop=0   
876*** 2 dup!
877*** 3 dup!
878*** 2 dup!
879*** 2 dup!
880*** 3 dup!
881*** 2 dup!
882*** 2 dup!
883*** 6 dup!
884*** 2 dup!
885*** 3 dup!
886*** 2 dup!
887*** 2 dup!
888*** 3 dup!
889*** 5 dup!
890frame= 2952 fps=100 q=31.0 size=       0kB time=00:00:29.52 bitrate=   0.0kbits/s dup=2169 drop=0   
891*** 3 dup!
892*** 2 dup!
893*** 2 dup!
894*** 3 dup!
895*** 2 dup!
896*** 2 dup!
897*** 3 dup!
898*** 2 dup!
899*** 6 dup!
900*** 2 dup!
901*** 2 dup!
902*** 3 dup!
903*** 2 dup!
904*** 2 dup!
905[segment @ 0xa29ddc0] Next segment starts at 0 3000
906frame= 3002 fps=100 q=31.0 size=       0kB time=00:00:30.02 bitrate=   0.0kbits/s dup=2205 drop=0   
907*** 3 dup!
908*** 5 dup!
909*** 3 dup!
910*** 2 dup!
911*** 2 dup!
912*** 3 dup!
913*** 2 dup!
914*** 2 dup!
915*** 3 dup!
916*** 2 dup!
917*** 2 dup!
918*** 6 dup!
919*** 2 dup!
920*** 3 dup!
921frame= 3056 fps=100 q=31.0 size=       0kB time=00:00:30.56 bitrate=   0.0kbits/s dup=2245 drop=0   
922*** 2 dup!
923*** 2 dup!
924*** 3 dup!
925*** 5 dup!
926*** 3 dup!
927*** 2 dup!
928*** 2 dup!
929*** 3 dup!
930*** 2 dup!
931*** 2 dup!
932*** 3 dup!
933*** 2 dup!
934*** 6 dup!
935*** 2 dup!
936frame= 3109 fps=100 q=24.8 size=       0kB time=00:00:31.09 bitrate=   0.0kbits/s dup=2284 drop=0   
937*** 2 dup!
938*** 3 dup!
939*** 2 dup!
940*** 2 dup!
941*** 3 dup!
942*** 5 dup!
943*** 3 dup!
944*** 2 dup!
945*** 2 dup!
946*** 3 dup!
947*** 2 dup!
948*** 2 dup!
949*** 3 dup!
950*** 2 dup!
951frame= 3159 fps=100 q=31.0 size=       0kB time=00:00:31.59 bitrate=   0.0kbits/s dup=2320 drop=0   
952*** 2 dup!
953*** 6 dup!
954*** 2 dup!
955*** 3 dup!
956*** 2 dup!
957*** 2 dup!
958*** 3 dup!
959*** 5 dup!
960*** 3 dup!
961*** 2 dup!
962*** 2 dup!
963*** 3 dup!
964*** 2 dup!
965*** 2 dup!
966frame= 3212 fps=100 q=31.0 size=       0kB time=00:00:32.12 bitrate=   0.0kbits/s dup=2359 drop=0   
967*** 3 dup!
968*** 5 dup!
969*** 3 dup!
970*** 2 dup!
971*** 2 dup!
972*** 3 dup!
973*** 2 dup!
974*** 6 dup!
975*** 2 dup!
976*** 2 dup!
977*** 3 dup!
978*** 2 dup!
979*** 2 dup!
980*** 3 dup!
981frame= 3266 fps=100 q=31.0 size=       0kB time=00:00:32.66 bitrate=   0.0kbits/s dup=2399 drop=0   
982*** 2 dup!
983*** 2 dup!
984*** 6 dup!
985*** 2 dup!
986*** 3 dup!
987*** 2 dup!
988*** 2 dup!
989*** 3 dup!
990*** 2 dup!
991*** 6 dup!
992*** 2 dup!
993*** 2 dup!
994*** 3 dup!
995*** 2 dup!
996frame= 3319 fps=100 q=31.0 size=       0kB time=00:00:33.19 bitrate=   0.0kbits/s dup=2438 drop=0   
997*** 2 dup!
998*** 3 dup!
999*** 2 dup!
1000*** 6 dup!
1001*** 2 dup!
1002*** 2 dup!
1003*** 3 dup!
1004*** 2 dup!
1005*** 2 dup!
1006*** 6 dup!
1007*** 2 dup!
1008*** 3 dup!
1009*** 2 dup!
1010*** 2 dup!
1011frame= 3372 fps=100 q=31.0 size=       0kB time=00:00:33.72 bitrate=   0.0kbits/s dup=2477 drop=0   
1012*** 3 dup!
1013*** 5 dup!
1014*** 3 dup!
1015*** 2 dup!
1016*** 2 dup!
1017*** 3 dup!
1018*** 2 dup!
1019*** 2 dup!
1020*** 3 dup!
1021*** 5 dup!
1022*** 3 dup!
1023*** 2 dup!
1024*** 2 dup!
1025*** 3 dup!
1026frame= 3426 fps=100 q=31.0 size=       0kB time=00:00:34.26 bitrate=   0.0kbits/s dup=2517 drop=0   
1027*** 2 dup!
1028*** 6 dup!
1029*** 2 dup!
1030*** 2 dup!
1031*** 3 dup!
1032*** 2 dup!
1033*** 2 dup!
1034*** 3 dup!
1035*** 2 dup!
1036*** 6 dup!
1037*** 2 dup!
1038*** 2 dup!
1039*** 3 dup!
1040*** 2 dup!
1041frame= 3479 fps=100 q=31.0 size=       0kB time=00:00:34.79 bitrate=   0.0kbits/s dup=2556 drop=0   
1042*** 2 dup!
1043*** 6 dup!
1044*** 2 dup!
1045*** 3 dup!
1046*** 2 dup!
1047*** 2 dup!
1048*** 3 dup!
1049[segment @ 0xa29ddc0] Next segment starts at 0 3504
1050*** 2 dup!
1051*** 2 dup!
1052*** 3 dup!
1053*** 5 dup!
1054*** 3 dup!
1055*** 2 dup!
1056*** 2 dup!
1057frame= 3532 fps=100 q=31.0 size=       0kB time=00:00:35.32 bitrate=   0.0kbits/s dup=2595 drop=0   
1058*** 3 dup!
1059*** 2 dup!
1060*** 2 dup!
1061*** 6 dup!
1062*** 2 dup!
1063*** 3 dup!
1064*** 2 dup!
1065*** 2 dup!
1066*** 3 dup!
1067*** 2 dup!
1068*** 2 dup!
1069*** 6 dup!
1070*** 2 dup!
1071*** 3 dup!
1072frame= 3586 fps=100 q=31.0 size=       0kB time=00:00:35.86 bitrate=   0.0kbits/s dup=2635 drop=0   
1073*** 2 dup!
1074*** 3 dup!
1075*** 2 dup!
1076*** 6 dup!
1077*** 2 dup!
1078*** 2 dup!
1079*** 3 dup!
1080*** 2 dup!
1081*** 2 dup!
1082*** 6 dup!
1083*** 2 dup!
1084*** 3 dup!
1085*** 2 dup!
1086*** 2 dup!
1087frame= 3639 fps=100 q=31.0 size=       0kB time=00:00:36.39 bitrate=   0.0kbits/s dup=2674 drop=0   
1088*** 3 dup!
1089*** 2 dup!
1090*** 2 dup!
1091*** 6 dup!
1092*** 2 dup!
1093*** 3 dup!
1094*** 2 dup!
1095*** 2 dup!
1096*** 3 dup!
1097*** 5 dup!
1098*** 3 dup!
1099*** 2 dup!
1100*** 2 dup!
1101*** 3 dup!
1102frame= 3693 fps=100 q=31.0 size=       0kB time=00:00:36.93 bitrate=   0.0kbits/s dup=2714 drop=0   
1103*** 2 dup!
1104*** 2 dup!
1105*** 3 dup!
1106*** 2 dup!
1107*** 6 dup!
1108*** 2 dup!
1109*** 2 dup!
1110*** 3 dup!
1111*** 2 dup!
1112*** 2 dup!
1113*** 3 dup!
1114*** 5 dup!
1115*** 3 dup!
1116*** 2 dup!
1117frame= 3746 fps=100 q=31.0 size=       0kB time=00:00:37.46 bitrate=   0.0kbits/s dup=2753 drop=0   
1118*** 2 dup!
1119*** 3 dup!
1120*** 2 dup!
1121*** 2 dup!
1122*** 3 dup!
1123*** 2 dup!
1124*** 6 dup!
1125*** 2 dup!
1126*** 2 dup!
1127*** 3 dup!
1128*** 2 dup!
1129*** 2 dup!
1130*** 3 dup!
1131*** 5 dup!
1132frame= 3799 fps=100 q=31.0 size=       0kB time=00:00:37.99 bitrate=   0.0kbits/s dup=2792 drop=0   
1133*** 3 dup!
1134*** 2 dup!
1135*** 2 dup!
1136*** 3 dup!
1137*** 2 dup!
1138*** 2 dup!
1139*** 3 dup!
1140*** 2 dup!
1141*** 6 dup!
1142*** 2 dup!
1143*** 2 dup!
1144*** 3 dup!
1145*** 2 dup!
1146*** 2 dup!
1147frame= 3849 fps=100 q=31.0 size=       0kB time=00:00:38.49 bitrate=   0.0kbits/s dup=2828 drop=0   
1148*** 3 dup!
1149*** 5 dup!
1150*** 3 dup!
1151*** 2 dup!
1152*** 2 dup!
1153*** 3 dup!
1154*** 2 dup!
1155*** 2 dup!
1156*** 3 dup!
1157*** 2 dup!
1158*** 2 dup!
1159*** 6 dup!
1160*** 2 dup!
1161*** 3 dup!
1162frame= 3903 fps=100 q=31.0 size=       0kB time=00:00:39.03 bitrate=   0.0kbits/s dup=2868 drop=0   
1163*** 2 dup!
1164*** 2 dup!
1165*** 3 dup!
1166*** 5 dup!
1167*** 3 dup!
1168*** 2 dup!
1169*** 2 dup!
1170*** 3 dup!
1171*** 2 dup!
1172*** 2 dup!
1173*** 3 dup!
1174*** 2 dup!
1175*** 6 dup!
1176*** 2 dup!
1177frame= 3956 fps=100 q=31.0 size=       0kB time=00:00:39.56 bitrate=   0.0kbits/s dup=2907 drop=0   
1178*** 2 dup!
1179*** 3 dup!
1180*** 2 dup!
1181*** 2 dup!
1182*** 3 dup!
1183*** 5 dup!
1184*** 3 dup!
1185*** 2 dup!
1186*** 2 dup!
1187*** 3 dup!
1188*** 2 dup!
1189*** 2 dup!
1190*** 3 dup!
1191*** 2 dup!
1192frame= 4006 fps=100 q=31.0 size=       0kB time=00:00:40.06 bitrate=   0.0kbits/s dup=2943 drop=0   
1193*** 6 dup!
1194[segment @ 0xa29ddc0] Next segment starts at 0 4008
1195*** 2 dup!
1196*** 2 dup!
1197*** 3 dup!
1198*** 2 dup!
1199*** 2 dup!
1200*** 3 dup!
1201*** 5 dup!
1202*** 3 dup!
1203*** 2 dup!
1204*** 2 dup!
1205*** 3 dup!
1206*** 2 dup!
1207*** 2 dup!
1208frame= 4059 fps=100 q=31.0 size=       0kB time=00:00:40.59 bitrate=   0.0kbits/s dup=2982 drop=0   
1209*** 3 dup!
1210*** 2 dup!
1211*** 6 dup!
1212*** 2 dup!
1213*** 2 dup!
1214*** 3 dup!
1215*** 2 dup!
1216*** 2 dup!
1217*** 3 dup!
1218*** 5 dup!
1219*** 3 dup!
1220*** 2 dup!
1221*** 2 dup!
1222*** 3 dup!
1223frame= 4113 fps=100 q=31.0 size=       0kB time=00:00:41.13 bitrate=   0.0kbits/s dup=3022 drop=0   
1224*** 2 dup!
1225*** 2 dup!
1226*** 3 dup!
1227*** 5 dup!
1228*** 3 dup!
1229*** 2 dup!
1230*** 2 dup!
1231*** 3 dup!
1232*** 2 dup!
1233*** 6 dup!
1234*** 2 dup!
1235*** 2 dup!
1236*** 3 dup!
1237*** 2 dup!
1238frame= 4166 fps=100 q=31.0 size=       0kB time=00:00:41.66 bitrate=   0.0kbits/s dup=3061 drop=0   
1239*** 2 dup!
1240*** 3 dup!
1241*** 2 dup!
1242*** 2 dup!
1243*** 6 dup!
1244*** 2 dup!
1245*** 3 dup!
1246*** 2 dup!
1247*** 2 dup!
1248*** 3 dup!
1249*** 2 dup!
1250*** 6 dup!
1251*** 2 dup!
1252*** 2 dup!
1253frame= 4219 fps=100 q=31.0 size=       0kB time=00:00:42.19 bitrate=   0.0kbits/s dup=3100 drop=0   
1254*** 3 dup!
1255*** 2 dup!
1256*** 2 dup!
1257*** 3 dup!
1258*** 2 dup!
1259*** 6 dup!
1260*** 2 dup!
1261*** 2 dup!
1262*** 3 dup!
1263*** 2 dup!
1264*** 2 dup!
1265*** 6 dup!
1266*** 2 dup!
1267frame= 4269 fps=100 q=31.0 size=       0kB time=00:00:42.69 bitrate=   0.0kbits/s dup=3137 drop=0   
1268*** 3 dup!
1269*** 2 dup!
1270*** 2 dup!
1271*** 3 dup!
1272*** 5 dup!
1273*** 3 dup!
1274*** 2 dup!
1275*** 2 dup!
1276*** 3 dup!
1277*** 2 dup!
1278*** 2 dup!
1279*** 3 dup!
1280*** 5 dup!
1281frame= 4319 fps=100 q=31.0 size=       0kB time=00:00:43.19 bitrate=   0.0kbits/s dup=3174 drop=0   
1282*** 3 dup!
1283*** 2 dup!
1284*** 2 dup!
1285*** 3 dup!
1286*** 2 dup!
1287*** 6 dup!
1288*** 2 dup!
1289*** 2 dup!
1290*** 3 dup!
1291*** 2 dup!
1292*** 2 dup!
1293*** 3 dup!
1294*** 2 dup!
1295*** 6 dup!
1296frame= 4373 fps=100 q=31.0 size=       0kB time=00:00:43.73 bitrate=   0.0kbits/s dup=3214 drop=0   
1297*** 2 dup!
1298*** 2 dup!
1299*** 3 dup!
1300*** 2 dup!
1301*** 2 dup!
1302*** 6 dup!
1303*** 2 dup!
1304*** 3 dup!
1305*** 2 dup!
1306*** 2 dup!
1307*** 3 dup!
1308*** 2 dup!
1309*** 2 dup!
1310*** 3 dup!
1311frame= 4423 fps=100 q=31.0 size=       0kB time=00:00:44.23 bitrate=   0.0kbits/s dup=3250 drop=0   
1312*** 2 dup!
1313*** 6 dup!
1314*** 2 dup!
1315*** 2 dup!
1316*** 3 dup!
1317*** 2 dup!
1318*** 2 dup!
1319*** 6 dup!
1320*** 2 dup!
1321*** 3 dup!
1322*** 2 dup!
1323*** 2 dup!
1324*** 3 dup!
1325*** 2 dup!
1326frame= 4476 fps=100 q=31.0 size=       0kB time=00:00:44.76 bitrate=   0.0kbits/s dup=3289 drop=0   
1327*** 2 dup!
1328*** 3 dup!
1329*** 5 dup!
1330*** 3 dup!
1331*** 2 dup!
1332*** 2 dup!
1333*** 3 dup!
1334[segment @ 0xa29ddc0] Next segment starts at 0 4500
1335*** 2 dup!
1336*** 2 dup!
1337*** 6 dup!
1338*** 2 dup!
1339*** 3 dup!
1340*** 2 dup!
1341*** 2 dup!
1342frame= 4529 fps=100 q=31.0 size=       0kB time=00:00:45.29 bitrate=   0.0kbits/s dup=3328 drop=0   
1343*** 3 dup!
1344*** 2 dup!
1345*** 2 dup!
1346*** 3 dup!
1347*** 5 dup!
1348*** 3 dup!
1349*** 2 dup!
1350*** 2 dup!
1351*** 3 dup!
1352*** 2 dup!
1353*** 2 dup!
1354*** 6 dup!
1355*** 2 dup!
1356*** 3 dup!
1357frame= 4583 fps=100 q=31.0 size=       0kB time=00:00:45.83 bitrate=   0.0kbits/s dup=3368 drop=0   
1358*** 2 dup!
1359*** 2 dup!
1360*** 3 dup!
1361*** 2 dup!
1362*** 2 dup!
1363*** 3 dup!
1364*** 5 dup!
1365*** 3 dup!
1366*** 2 dup!
1367*** 2 dup!
1368*** 3 dup!
1369*** 2 dup!
1370*** 2 dup!
1371*** 6 dup!
1372frame= 4636 fps=100 q=31.0 size=       0kB time=00:00:46.36 bitrate=   0.0kbits/s dup=3407 drop=0   
1373*** 2 dup!
1374*** 3 dup!
1375*** 2 dup!
1376*** 2 dup!
1377*** 3 dup!
1378*** 2 dup!
1379*** 2 dup!
1380*** 3 dup!
1381*** 5 dup!
1382*** 3 dup!
1383*** 2 dup!
1384*** 2 dup!
1385*** 3 dup!
1386*** 2 dup!
1387frame= 4686 fps=100 q=31.0 size=       0kB time=00:00:46.86 bitrate=   0.0kbits/s dup=3443 drop=0   
1388*** 2 dup!
1389*** 6 dup!
1390*** 2 dup!
1391*** 3 dup!
1392*** 2 dup!
1393*** 2 dup!
1394*** 3 dup!
1395*** 2 dup!
1396*** 2 dup!
1397*** 3 dup!
1398*** 5 dup!
1399*** 3 dup!
1400*** 2 dup!
1401*** 2 dup!
1402frame= 4739 fps=100 q=31.0 size=       0kB time=00:00:47.39 bitrate=   0.0kbits/s dup=3482 drop=0   
1403*** 3 dup!
1404*** 2 dup!
1405*** 2 dup!
1406*** 6 dup!
1407*** 2 dup!
1408*** 3 dup!
1409*** 2 dup!
1410*** 2 dup!
1411*** 3 dup!
1412*** 2 dup!
1413*** 2 dup!
1414*** 3 dup!
1415*** 5 dup!
1416*** 3 dup!
1417frame= 4793 fps=100 q=31.0 size=       0kB time=00:00:47.93 bitrate=   0.0kbits/s dup=3522 drop=0   
1418*** 2 dup!
1419*** 2 dup!
1420*** 3 dup!
1421*** 2 dup!
1422*** 2 dup!
1423*** 6 dup!
1424*** 2 dup!
1425*** 3 dup!
1426*** 2 dup!
1427*** 2 dup!
1428*** 3 dup!
1429*** 2 dup!
1430*** 2 dup!
1431*** 3 dup!
1432frame= 4843 fps=100 q=31.0 size=       0kB time=00:00:48.43 bitrate=   0.0kbits/s dup=3558 drop=0   
1433*** 5 dup!
1434*** 3 dup!
1435*** 2 dup!
1436*** 2 dup!
1437*** 3 dup!
1438*** 2 dup!
1439*** 2 dup!
1440*** 6 dup!
1441*** 2 dup!
1442*** 3 dup!
1443*** 2 dup!
1444*** 2 dup!
1445*** 3 dup!
1446*** 2 dup!
1447frame= 4896 fps=100 q=31.0 size=       0kB time=00:00:48.96 bitrate=   0.0kbits/s dup=3597 drop=0   
1448*** 2 dup!
1449*** 3 dup!
1450*** 5 dup!
1451*** 3 dup!
1452*** 2 dup!
1453*** 2 dup!
1454*** 3 dup!
1455*** 2 dup!
1456*** 2 dup!
1457*** 6 dup!
1458*** 2 dup!
1459*** 3 dup!
1460*** 2 dup!
1461*** 2 dup!
1462frame= 4949 fps=100 q=31.0 size=       0kB time=00:00:49.49 bitrate=   0.0kbits/s dup=3636 drop=0   
1463*** 3 dup!
1464*** 2 dup!
1465*** 2 dup!
1466*** 3 dup!
1467*** 5 dup!
1468*** 3 dup!
1469*** 2 dup!
1470*** 2 dup!
1471*** 3 dup!
1472*** 2 dup!
1473*** 2 dup!
1474*** 6 dup!
1475*** 2 dup!
1476*** 3 dup!
1477frame= 5003 fps=100 q=31.0 size=       0kB time=00:00:50.03 bitrate=   0.0kbits/s dup=3676 drop=0   
1478*** 2 dup!
1479[segment @ 0xa29ddc0] Next segment starts at 0 5004
1480*** 2 dup!
1481*** 3 dup!
1482*** 2 dup!
1483*** 2 dup!
1484*** 3 dup!
1485*** 5 dup!
1486*** 3 dup!
1487*** 2 dup!
1488*** 2 dup!
1489*** 3 dup!
1490*** 2 dup!
1491*** 2 dup!
1492*** 6 dup!
1493frame= 5056 fps=100 q=31.0 size=       0kB time=00:00:50.56 bitrate=   0.0kbits/s dup=3715 drop=0   
1494*** 2 dup!
1495*** 3 dup!
1496*** 2 dup!
1497*** 2 dup!
1498*** 3 dup!
1499*** 2 dup!
1500*** 2 dup!
1501*** 3 dup!
1502*** 5 dup!
1503*** 3 dup!
1504*** 2 dup!
1505*** 2 dup!
1506*** 3 dup!
1507*** 2 dup!
1508frame= 5106 fps=100 q=31.0 size=       0kB time=00:00:51.06 bitrate=   0.0kbits/s dup=3751 drop=0   
1509*** 2 dup!
1510*** 6 dup!
1511*** 2 dup!
1512*** 3 dup!
1513*** 2 dup!
1514*** 2 dup!
1515*** 3 dup!
1516*** 2 dup!
1517*** 2 dup!
1518*** 6 dup!
1519*** 2 dup!
1520*** 3 dup!
1521*** 2 dup!
1522*** 2 dup!
1523frame= 5159 fps=100 q=31.0 size=       0kB time=00:00:51.59 bitrate=   0.0kbits/s dup=3790 drop=0   
1524*** 3 dup!
1525*** 5 dup!
1526*** 3 dup!
1527*** 2 dup!
1528*** 2 dup!
1529*** 3 dup!
1530*** 2 dup!
1531*** 6 dup!
1532*** 2 dup!
1533*** 2 dup!
1534*** 3 dup!
1535*** 2 dup!
1536*** 2 dup!
1537*** 3 dup!
1538frame= 5213 fps=100 q=31.0 size=       0kB time=00:00:52.13 bitrate=   0.0kbits/s dup=3830 drop=0   
1539*** 2 dup!
1540*** 6 dup!
1541*** 2 dup!
1542*** 2 dup!
1543*** 3 dup!
1544*** 2 dup!
1545*** 2 dup!
1546*** 6 dup!
1547*** 2 dup!
1548*** 3 dup!
1549*** 2 dup!
1550*** 2 dup!
1551*** 3 dup!
1552*** 2 dup!
1553frame= 5266 fps=100 q=31.0 size=       0kB time=00:00:52.66 bitrate=   0.0kbits/s dup=3869 drop=0   
1554*** 2 dup!
1555*** 6 dup!
1556*** 2 dup!
1557*** 3 dup!
1558*** 2 dup!
1559*** 2 dup!
1560*** 3 dup!
1561*** 5 dup!
1562*** 3 dup!
1563*** 2 dup!
1564*** 2 dup!
1565*** 3 dup!
1566*** 2 dup!
1567*** 2 dup!
1568frame= 5319 fps=100 q=31.0 size=       0kB time=00:00:53.19 bitrate=   0.0kbits/s dup=3908 drop=0   
1569*** 3 dup!
1570*** 2 dup!
1571*** 2 dup!
1572*** 6 dup!
1573*** 2 dup!
1574*** 3 dup!
1575*** 2 dup!
1576*** 2 dup!
1577*** 3 dup!
1578*** 5 dup!
1579*** 3 dup!
1580*** 2 dup!
1581*** 2 dup!
1582*** 3 dup!
1583frame= 5373 fps=100 q=31.0 size=       0kB time=00:00:53.73 bitrate=   0.0kbits/s dup=3948 drop=0   
1584*** 2 dup!
1585*** 2 dup!
1586*** 3 dup!
1587*** 5 dup!
1588*** 3 dup!
1589*** 2 dup!
1590*** 2 dup!
1591*** 3 dup!
1592*** 2 dup!
1593*** 6 dup!
1594*** 2 dup!
1595*** 2 dup!
1596*** 3 dup!
1597*** 2 dup!
1598frame= 5426 fps=100 q=31.0 size=       0kB time=00:00:54.26 bitrate=   0.0kbits/s dup=3987 drop=0   
1599*** 2 dup!
1600*** 6 dup!
1601*** 2 dup!
1602*** 3 dup!
1603*** 2 dup!
1604*** 2 dup!
1605*** 3 dup!
1606*** 2 dup!
1607*** 2 dup!
1608*** 6 dup!
1609*** 2 dup!
1610*** 3 dup!
1611*** 2 dup!
1612*** 2 dup!
1613frame= 5479 fps=100 q=31.0 size=       0kB time=00:00:54.79 bitrate=   0.0kbits/s dup=4026 drop=0   
1614*** 3 dup!
1615*** 5 dup!
1616*** 3 dup!
1617*** 2 dup!
1618*** 2 dup!
1619*** 3 dup!
1620*** 2 dup!
1621*** 2 dup!
1622[segment @ 0xa29ddc0] Next segment starts at 0 5508
1623*** 3 dup!
1624*** 2 dup!
1625*** 2 dup!
1626*** 6 dup!
1627*** 2 dup!
1628*** 3 dup!
1629frame= 5533 fps=100 q=24.8 size=       0kB time=00:00:55.33 bitrate=   0.0kbits/s dup=4066 drop=0   
1630*** 2 dup!
1631*** 2 dup!
1632*** 3 dup!
1633*** 5 dup!
1634*** 3 dup!
1635*** 2 dup!
1636*** 2 dup!
1637*** 3 dup!
1638*** 2 dup!
1639*** 2 dup!
1640*** 3 dup!
1641*** 2 dup!
1642*** 6 dup!
1643*** 2 dup!
1644frame= 5586 fps=100 q=31.0 size=       0kB time=00:00:55.86 bitrate=   0.0kbits/s dup=4105 drop=0   
1645*** 2 dup!
1646*** 3 dup!
1647*** 2 dup!
1648*** 2 dup!
1649*** 3 dup!
1650*** 5 dup!
1651*** 3 dup!
1652*** 2 dup!
1653*** 2 dup!
1654*** 3 dup!
1655*** 2 dup!
1656*** 2 dup!
1657*** 3 dup!
1658*** 2 dup!
1659frame= 5636 fps=100 q=31.0 size=       0kB time=00:00:56.36 bitrate=   0.0kbits/s dup=4141 drop=0   
1660*** 2 dup!
1661*** 6 dup!
1662*** 2 dup!
1663*** 3 dup!
1664*** 2 dup!
1665*** 2 dup!
1666*** 3 dup!
1667*** 5 dup!
1668*** 3 dup!
1669*** 2 dup!
1670*** 2 dup!
1671*** 3 dup!
1672*** 2 dup!
1673*** 2 dup!
1674frame= 5689 fps=100 q=24.8 size=       0kB time=00:00:56.89 bitrate=   0.0kbits/s dup=4180 drop=0   
1675*** 3 dup!
1676*** 2 dup!
1677*** 2 dup!
1678*** 6 dup!
1679*** 2 dup!
1680*** 3 dup!
1681*** 2 dup!
1682*** 2 dup!
1683*** 3 dup!
1684*** 5 dup!
1685*** 3 dup!
1686*** 2 dup!
1687*** 2 dup!
1688*** 3 dup!
1689frame= 5743 fps=100 q=31.0 size=       0kB time=00:00:57.43 bitrate=   0.0kbits/s dup=4220 drop=0   
1690*** 2 dup!
1691*** 2 dup!
1692*** 3 dup!
1693*** 2 dup!
1694*** 6 dup!
1695*** 2 dup!
1696*** 2 dup!
1697*** 3 dup!
1698*** 2 dup!
1699*** 2 dup!
1700*** 3 dup!
1701*** 5 dup!
1702*** 3 dup!
1703*** 2 dup!
1704frame= 5796 fps=100 q=31.0 size=       0kB time=00:00:57.96 bitrate=   0.0kbits/s dup=4259 drop=0   
1705*** 2 dup!
1706*** 3 dup!
1707*** 2 dup!
1708*** 2 dup!
1709*** 3 dup!
1710*** 2 dup!
1711*** 6 dup!
1712*** 2 dup!
1713*** 2 dup!
1714*** 3 dup!
1715*** 2 dup!
1716*** 2 dup!
1717*** 3 dup!
1718*** 5 dup!
1719frame= 5849 fps=100 q=31.0 size=       0kB time=00:00:58.49 bitrate=   0.0kbits/s dup=4298 drop=0   
1720*** 3 dup!
1721*** 2 dup!
1722*** 2 dup!
1723*** 3 dup!
1724*** 2 dup!
1725*** 2 dup!
1726*** 3 dup!
1727*** 2 dup!
1728*** 6 dup!
1729*** 2 dup!
1730*** 2 dup!
1731*** 3 dup!
1732*** 2 dup!
1733*** 2 dup!
1734frame= 5899 fps=100 q=31.0 size=       0kB time=00:00:58.99 bitrate=   0.0kbits/s dup=4334 drop=0   
1735*** 3 dup!
1736*** 5 dup!
1737*** 3 dup!
1738*** 2 dup!
1739*** 2 dup!
1740*** 3 dup!
1741*** 2 dup!
1742*** 2 dup!
1743*** 3 dup!
1744*** 5 dup!
1745*** 3 dup!
1746*** 2 dup!
1747*** 2 dup!
1748*** 3 dup!
1749frame= 5953 fps=100 q=24.8 size=       0kB time=00:00:59.53 bitrate=   0.0kbits/s dup=4374 drop=0   
1750*** 2 dup!
1751*** 6 dup!
1752*** 2 dup!
1753*** 3 dup!
1754*** 2 dup!
1755*** 2 dup!
1756*** 3 dup!
1757*** 2 dup!
1758*** 2 dup!
1759*** 3 dup!
1760*** 5 dup!
1761*** 3 dup!
1762No more output streams to write to, finishing.
1763frame= 6000 fps=100 q=31.0 Lsize=       0kB time=00:01:00.00 bitrate=   0.0kbits/s dup=4409 drop=0   
1764video:8116kB audio:0kB global headers:0kB muxing overhead -100.000000%