Ticket #1412: ffmpeg-20120604-182430.log

File ffmpeg-20120604-182430.log, 4.2 KB (added by jamal, 4 years ago)

ffmpeg log

Line 
1ffmpeg started on 2012-06-04 at 18:24:30
2Report written to "ffmpeg-20120604-182430.log"
3Command line:
4"D:\\msys\\1.0\\home\\jamal\\ffmpeg\\ffmpeg.exe" -v 9 -loglevel 99 -report -i bbb-tr1000.ts
5ffmpeg version N-41291-g02ff89a Copyright (c) 2000-2012 the FFmpeg developers
6  built on Jun  4 2012 17:54:17 with gcc 4.7.0
7  configuration: --enable-gpl --disable-protocols --disable-network --enable-protocol=file --enable-cross-compile --cross-prefix=x86_64-w64-mingw32- --target-os=mingw32 --arch=x86_64 --cpu=amdfam10 --prefix=/mingw
8  libavutil      51. 56.100 / 51. 56.100
9  libavcodec     54. 23.100 / 54. 23.100
10  libavformat    54.  6.101 / 54.  6.101
11  libavdevice    54.  0.100 / 54.  0.100
12  libavfilter     2. 78.100 /  2. 78.100
13  libswscale      2.  1.100 /  2.  1.100
14  libswresample   0. 15.100 /  0. 15.100
15  libpostproc    52.  0.100 / 52.  0.100
16[mpegts @ 000000000037F980] Format mpegts probed with size=2048 and score=100
17[mpegts @ 000000000037F980] stream=0 stream_type=d1 pid=44 prog_reg_desc=
18[mpegts @ 000000000037F980] stream=1 stream_type=3 pid=45 prog_reg_desc=
19[mpegts @ 000000000037F980] File position before avformat_find_stream_info() is 0
20[dirac @ 000000000137AFE0] Dropping frame without sequence header
21[dirac @ 000000000137AFE0] Error in dirac_decode_data_unit
22[dirac @ 000000000137AFE0] Dropping frame without sequence header
23[dirac @ 000000000137AFE0] Error in dirac_decode_data_unit
24[dirac @ 000000000137AFE0] Dropping frame without sequence header
25[dirac @ 000000000137AFE0] Error in dirac_decode_data_unit
26[dirac @ 000000000137AFE0] Dropping frame without sequence header
27[dirac @ 000000000137AFE0] Error in dirac_decode_data_unit
28[dirac @ 000000000137AFE0] Dropping frame without sequence header
29[dirac @ 000000000137AFE0] Error in dirac_decode_data_unit
30[dirac @ 000000000137AFE0] Dropping frame without sequence header
31[dirac @ 000000000137AFE0] Error in dirac_decode_data_unit
32[dirac @ 000000000137AFE0] Dropping frame without sequence header
33[dirac @ 000000000137AFE0] Error in dirac_decode_data_unit
34[dirac @ 000000000137AFE0] Dropping frame without sequence header
35[dirac @ 000000000137AFE0] Error in dirac_decode_data_unit
36[dirac @ 000000000137AFE0] Dropping frame without sequence header
37[dirac @ 000000000137AFE0] Error in dirac_decode_data_unit
38[dirac @ 000000000137AFE0] Dropping frame without sequence header
39[dirac @ 000000000137AFE0] Error in dirac_decode_data_unit
40[dirac @ 000000000137AFE0] Dropping frame without sequence header
41[dirac @ 000000000137AFE0] Error in dirac_decode_data_unit
42[dirac @ 000000000137AFE0] Dropping frame without sequence header
43[dirac @ 000000000137AFE0] Error in dirac_decode_data_unit
44[dirac @ 000000000137AFE0] Dropping frame without sequence header
45[dirac @ 000000000137AFE0] Error in dirac_decode_data_unit
46[dirac @ 000000000137AFE0] Dropping frame without sequence header
47[dirac @ 000000000137AFE0] Error in dirac_decode_data_unit
48[dirac @ 000000000137AFE0] Dropping frame without sequence header
49[dirac @ 000000000137AFE0] Error in dirac_decode_data_unit
50[dirac @ 000000000137AFE0] Dropping frame without sequence header
51[dirac @ 000000000137AFE0] Error in dirac_decode_data_unit
52[dirac @ 000000000137AFE0] Dropping frame without sequence header
53[dirac @ 000000000137AFE0] Error in dirac_decode_data_unit
54[dirac @ 000000000137AFE0] Dropping frame without sequence header
55[dirac @ 000000000137AFE0] Error in dirac_decode_data_unit
56[dirac @ 000000000137AFE0] Dropping frame without sequence header
57[dirac @ 000000000137AFE0] Error in dirac_decode_data_unit
58[dirac @ 000000000137AFE0] PICTURE_NUM: 24
59[dirac @ 000000000137AFE0] Frame to retire not found
60[mpegts @ 000000000037F980] max_analyze_duration 5000000 reached at 5016000
61[mpegts @ 000000000037F980] PES packet size mismatch
62[mpegts @ 000000000037F980] File position after avformat_find_stream_info() is 0
63Input #0, mpegts, from 'bbb-tr1000.ts':
64  Duration: 00:09:56.12, start: 61835.685522, bitrate: 1373 kb/s
65  Program 1
66    Stream #0:0[0x44], 121, 1/90000: Video: dirac (drac / 0x63617264), yuv420p, 640x360 [SAR 1:1 DAR 16:9], 1/24, 28.28 fps, 24 tbr, 90k tbn, 24 tbc
67    Stream #0:1[0x45], 211, 1/90000: Audio: mp2 ([3][0][0][0] / 0x0003), 48000 Hz, stereo, s16, 256 kb/s
68At least one output file must be specified