Ticket #1348: ffmpeg_trace.txt

File ffmpeg_trace.txt, 9.6 KB (added by ebaynaud, 4 years ago)

ffmpeg trace

Line 
1eb@hostname:~$ ffmpeg -i input.mp4 -acodec libfaac -ar 48000 -vcodec libx264 output.mp4
2ffmpeg version 0.10.3 Copyright (c) 2000-2012 the FFmpeg developers
3  built on May 21 2012 14:12:22 with gcc 4.4.3
4  configuration: --enable-nonfree --enable-static --enable-shared --enable-gpl --enable-pthreads --disable-ffplay --disable-ffserver --enable-postproc --enable-libfaac --enable-libmp3lame --enable-libvorbis --enable-libtheora --enable-libx264 --enable-libspeex --prefix=/usr
5  libavutil      51. 35.100 / 51. 35.100
6  libavcodec     53. 61.100 / 53. 61.100
7  libavformat    53. 32.100 / 53. 32.100
8  libavdevice    53.  4.100 / 53.  4.100
9  libavfilter     2. 61.100 /  2. 61.100
10  libswscale      2.  1.100 /  2.  1.100
11  libswresample   0.  6.100 /  0.  6.100
12  libpostproc    52.  0.100 / 52.  0.100
13Input #0, mov,mp4,m4a,3gp,3g2,mj2, from 'input.mp4':
14  Metadata:
15    major_brand     : mp42
16    minor_version   : 0
17    compatible_brands: mp42isom
18    creation_time   : 2012-05-24 11:48:12
19  Duration: 00:00:09.72, start: 0.000000, bitrate: 334 kb/s
20    Stream #0:0(und): Video: h263 (s263 / 0x33363273), yuv420p, 352x288 [SAR 12:11 DAR 4:3], 167 kb/s, 15.11 fps, 15 tbr, 90k tbn, 29.97 tbc
21    Metadata:
22      creation_time   : 2012-05-24 11:48:12
23      handler_name    :
24    Stream #0:1(und): Data: none (rtp  / 0x20707472)
25    Metadata:
26      creation_time   : 2012-05-24 11:48:12
27      handler_name    :
28    Stream #0:2(und): Audio: pcm_mulaw (ulaw / 0x77616C75), 8000 Hz, 1 channels, s16, 64 kb/s
29    Metadata:
30      creation_time   : 2012-05-24 11:48:12
31      handler_name    :
32    Stream #0:3(und): Data: none (rtp  / 0x20707472)
33    Metadata:
34      creation_time   : 2012-05-24 11:48:12
35      handler_name    :
36[buffer @ 0x8642760] w:352 h:288 pixfmt:yuv420p tb:1/1000000 sar:12/11 sws_param:
37[libx264 @ 0x8662740] using SAR=12/11
38[libx264 @ 0x8662740] using cpu capabilities: MMX2 SSE2Fast SSSE3 FastShuffle SSE4.2
39[libx264 @ 0x8662740] profile High, level 1.2
40[libx264 @ 0x8662740] 264 - core 124 r2197 69a0443 - H.264/MPEG-4 AVC codec - Copyleft 2003-2012 - http://www.videolan.org/x264.html - options: cabac=1 ref=3 deblock=1:0:0 analyse=0x3:0x113 me=hex subme=7 psy=1 psy_rd=1.00:0.00 mixed_ref=1 me_range=16 chroma_me=1 trellis=1 8x8dct=1 cqm=0 deadzone=21,11 fast_pskip=1 chroma_qp_offset=-2 threads=1 sliced_threads=0 nr=0 decimate=1 interlaced=0 bluray_compat=0 constrained_intra=0 bframes=3 b_pyramid=2 b_adapt=1 b_bias=0 direct=1 weightb=1 open_gop=0 weightp=2 keyint=250 keyint_min=15 scenecut=40 intra_refresh=0 rc_lookahead=40 rc=crf mbtree=1 crf=23.0 qcomp=0.60 qpmin=0 qpmax=69 qpstep=4 ip_ratio=1.40 aq=1:1.00
41Output #0, mp4, to 'outputbl.mp4':
42  Metadata:
43    major_brand     : mp42
44    minor_version   : 0
45    compatible_brands: mp42isom
46    creation_time   : 2012-05-24 11:48:12
47    encoder         : Lavf53.32.100
48    Stream #0:0(und): Video: h264 (![0][0][0] / 0x0021), yuv420p, 352x288 [SAR 12:11 DAR 4:3], q=-1--1, 15 tbn, 15 tbc
49    Metadata:
50      creation_time   : 2012-05-24 11:48:12
51      handler_name    :
52    Stream #0:1(und): Audio: aac (@[0][0][0] / 0x0040), 48000 Hz, 1 channels, s16, 128 kb/s
53    Metadata:
54      creation_time   : 2012-05-24 11:48:12
55      handler_name    :
56Stream mapping:
57  Stream #0:0 -> #0:0 (h263 -> libx264)
58  Stream #0:2 -> #0:1 (pcm_mulaw -> libfaac)
59Press [q] to stop, [?] for help
60concealing 220 DC, 220 AC, 220 MV errorskB time=00:00:00.00 bitrate=   0.0kbits/s
61frame=  142 fps= 23 q=27.0 Lsize=     642kB time=00:00:00.08 bitrate=61611.5kbits/s
62video:639kB audio:0kB global headers:0kB muxing overhead 0.297755%
63[libx264 @ 0x8662740] frame I:1     Avg QP:22.87  size: 11123
64[libx264 @ 0x8662740] frame P:139   Avg QP:22.97  size:  4594
65[libx264 @ 0x8662740] frame B:2     Avg QP:29.17  size:  2140
66[libx264 @ 0x8662740] consecutive B-frames: 97.2%  2.8%  0.0%  0.0%
67[libx264 @ 0x8662740] mb I  I16..4: 13.1% 86.4%  0.5%
68[libx264 @ 0x8662740] mb P  I16..4:  1.0%  2.0%  0.3%  P16..4: 41.5% 16.4% 16.5%  0.0%  0.0%    skip:22.2%
69[libx264 @ 0x8662740] mb B  I16..4:  0.5%  0.8%  0.0%  B16..8: 55.4% 12.2%  5.0%  direct: 8.1%  skip:18.1%  L0:88.9% L1: 2.6% BI: 8.5%
70[libx264 @ 0x8662740] 8x8 transform intra:63.9% inter:80.7%
71[libx264 @ 0x8662740] coded y,uvDC,uvAC intra: 59.2% 72.2% 18.4% inter: 43.4% 23.6% 2.7%
72[libx264 @ 0x8662740] i16 v,h,dc,p: 50% 17% 33%  0%
73[libx264 @ 0x8662740] i8 v,h,dc,ddl,ddr,vr,hd,vl,hu: 20% 13% 48%  4%  2%  3%  3%  3%  4%
74[libx264 @ 0x8662740] i4 v,h,dc,ddl,ddr,vr,hd,vl,hu: 37% 19% 15%  5%  5%  5%  3%  5%  5%
75[libx264 @ 0x8662740] i8c dc,h,v,p: 48% 17% 31%  4%
76[libx264 @ 0x8662740] Weighted P-Frames: Y:1.4% UV:1.4%
77[libx264 @ 0x8662740] ref P L0: 85.6%  8.9%  3.5%  1.8%  0.2%
78[libx264 @ 0x8662740] ref B L0: 91.8%  8.2%
79[libx264 @ 0x8662740] kb/s:552.70
80ebaynaud@alcatel-lucent:~$ ffmpeg -i input.mp4 -acodec libfaac -ar 48000 -vcodec libx264 output^C.mp4
81ebaynaud@alcatel-lucent:~$ rm output.mp4
82ebaynaud@alcatel-lucent:~$ ffmpeg -i input.mp4 -acodec libfaac -ar 48000 -vcodec libx264 output.mp4 | tee -a ffmpeg_trace.txt
83ffmpeg version 0.10.3 Copyright (c) 2000-2012 the FFmpeg developers
84  built on May 21 2012 14:12:22 with gcc 4.4.3
85  configuration: --enable-nonfree --enable-static --enable-shared --enable-gpl --enable-pthreads --disable-ffplay --disable-ffserver --enable-postproc --enable-libfaac --enable-libmp3lame --enable-libvorbis --enable-libtheora --enable-libx264 --enable-libspeex --prefix=/usr
86  libavutil      51. 35.100 / 51. 35.100
87  libavcodec     53. 61.100 / 53. 61.100
88  libavformat    53. 32.100 / 53. 32.100
89  libavdevice    53.  4.100 / 53.  4.100
90  libavfilter     2. 61.100 /  2. 61.100
91  libswscale      2.  1.100 /  2.  1.100
92  libswresample   0.  6.100 /  0.  6.100
93  libpostproc    52.  0.100 / 52.  0.100
94Input #0, mov,mp4,m4a,3gp,3g2,mj2, from 'input.mp4':
95  Metadata:
96    major_brand     : mp42
97    minor_version   : 0
98    compatible_brands: mp42isom
99    creation_time   : 2012-05-24 11:48:12
100  Duration: 00:00:09.72, start: 0.000000, bitrate: 334 kb/s
101    Stream #0:0(und): Video: h263 (s263 / 0x33363273), yuv420p, 352x288 [SAR 12:11 DAR 4:3], 167 kb/s, 15.11 fps, 15 tbr, 90k tbn, 29.97 tbc
102    Metadata:
103      creation_time   : 2012-05-24 11:48:12
104      handler_name    :
105    Stream #0:1(und): Data: none (rtp  / 0x20707472)
106    Metadata:
107      creation_time   : 2012-05-24 11:48:12
108      handler_name    :
109    Stream #0:2(und): Audio: pcm_mulaw (ulaw / 0x77616C75), 8000 Hz, 1 channels, s16, 64 kb/s
110    Metadata:
111      creation_time   : 2012-05-24 11:48:12
112      handler_name    :
113    Stream #0:3(und): Data: none (rtp  / 0x20707472)
114    Metadata:
115      creation_time   : 2012-05-24 11:48:12
116      handler_name    :
117[buffer @ 0x8d3d760] w:352 h:288 pixfmt:yuv420p tb:1/1000000 sar:12/11 sws_param:
118[libx264 @ 0x8d5d740] using SAR=12/11
119[libx264 @ 0x8d5d740] using cpu capabilities: MMX2 SSE2Fast SSSE3 FastShuffle SSE4.2
120[libx264 @ 0x8d5d740] profile High, level 1.2
121[libx264 @ 0x8d5d740] 264 - core 124 r2197 69a0443 - H.264/MPEG-4 AVC codec - Copyleft 2003-2012 - http://www.videolan.org/x264.html - options: cabac=1 ref=3 deblock=1:0:0 analyse=0x3:0x113 me=hex subme=7 psy=1 psy_rd=1.00:0.00 mixed_ref=1 me_range=16 chroma_me=1 trellis=1 8x8dct=1 cqm=0 deadzone=21,11 fast_pskip=1 chroma_qp_offset=-2 threads=1 sliced_threads=0 nr=0 decimate=1 interlaced=0 bluray_compat=0 constrained_intra=0 bframes=3 b_pyramid=2 b_adapt=1 b_bias=0 direct=1 weightb=1 open_gop=0 weightp=2 keyint=250 keyint_min=15 scenecut=40 intra_refresh=0 rc_lookahead=40 rc=crf mbtree=1 crf=23.0 qcomp=0.60 qpmin=0 qpmax=69 qpstep=4 ip_ratio=1.40 aq=1:1.00
122Output #0, mp4, to 'output.mp4':
123  Metadata:
124    major_brand     : mp42
125    minor_version   : 0
126    compatible_brands: mp42isom
127    creation_time   : 2012-05-24 11:48:12
128    encoder         : Lavf53.32.100
129    Stream #0:0(und): Video: h264 (![0][0][0] / 0x0021), yuv420p, 352x288 [SAR 12:11 DAR 4:3], q=-1--1, 15 tbn, 15 tbc
130    Metadata:
131      creation_time   : 2012-05-24 11:48:12
132      handler_name    :
133    Stream #0:1(und): Audio: aac (@[0][0][0] / 0x0040), 48000 Hz, 1 channels, s16, 128 kb/s
134    Metadata:
135      creation_time   : 2012-05-24 11:48:12
136      handler_name    :
137Stream mapping:
138  Stream #0:0 -> #0:0 (h263 -> libx264)
139  Stream #0:2 -> #0:1 (pcm_mulaw -> libfaac)
140Press [q] to stop, [?] for help
141concealing 220 DC, 220 AC, 220 MV errorskB time=00:00:00.00 bitrate=   0.0kbits/s
142frame=  142 fps= 23 q=27.0 Lsize=     642kB time=00:00:00.08 bitrate=61611.5kbits/s
143video:639kB audio:0kB global headers:0kB muxing overhead 0.297755%
144[libx264 @ 0x8d5d740] frame I:1     Avg QP:22.87  size: 11123
145[libx264 @ 0x8d5d740] frame P:139   Avg QP:22.97  size:  4594
146[libx264 @ 0x8d5d740] frame B:2     Avg QP:29.17  size:  2140
147[libx264 @ 0x8d5d740] consecutive B-frames: 97.2%  2.8%  0.0%  0.0%
148[libx264 @ 0x8d5d740] mb I  I16..4: 13.1% 86.4%  0.5%
149[libx264 @ 0x8d5d740] mb P  I16..4:  1.0%  2.0%  0.3%  P16..4: 41.5% 16.4% 16.5%  0.0%  0.0%    skip:22.2%
150[libx264 @ 0x8d5d740] mb B  I16..4:  0.5%  0.8%  0.0%  B16..8: 55.4% 12.2%  5.0%  direct: 8.1%  skip:18.1%  L0:88.9% L1: 2.6% BI: 8.5%
151[libx264 @ 0x8d5d740] 8x8 transform intra:63.9% inter:80.7%
152[libx264 @ 0x8d5d740] coded y,uvDC,uvAC intra: 59.2% 72.2% 18.4% inter: 43.4% 23.6% 2.7%
153[libx264 @ 0x8d5d740] i16 v,h,dc,p: 50% 17% 33%  0%
154[libx264 @ 0x8d5d740] i8 v,h,dc,ddl,ddr,vr,hd,vl,hu: 20% 13% 48%  4%  2%  3%  3%  3%  4%
155[libx264 @ 0x8d5d740] i4 v,h,dc,ddl,ddr,vr,hd,vl,hu: 37% 19% 15%  5%  5%  5%  3%  5%  5%
156[libx264 @ 0x8d5d740] i8c dc,h,v,p: 48% 17% 31%  4%
157[libx264 @ 0x8d5d740] Weighted P-Frames: Y:1.4% UV:1.4%
158[libx264 @ 0x8d5d740] ref P L0: 85.6%  8.9%  3.5%  1.8%  0.2%
159[libx264 @ 0x8d5d740] ref B L0: 91.8%  8.2%
160[libx264 @ 0x8d5d740] kb/s:552.70