Ticket #1330: valgrind.log

File valgrind.log, 31.2 KB (added by cehoyos, 4 years ago)
Line 
1==10686== Memcheck, a memory error detector.
2==10686== Copyright (C) 2002-2007, and GNU GPL'd, by Julian Seward et al.
3==10686== Using LibVEX rev 1732, a library for dynamic binary translation.
4==10686== Copyright (C) 2004-2007, and GNU GPL'd, by OpenWorks LLP.
5==10686== Using valgrind-3.2.3, a dynamic binary instrumentation framework.
6==10686== Copyright (C) 2000-2007, and GNU GPL'd, by Julian Seward et al.
7==10686== For more details, rerun with: -v
8==10686==
9ffmpeg version N-40924-g349c624 Copyright (c) 2000-2012 the FFmpeg developers
10  built on May 21 2012 08:32:01 with gcc 4.3.2
11  configuration: --cc=/usr/local/gcc-4.3.2/bin/gcc --disable-asm --disable-yasm --disable-optimizations
12  libavutil      51. 53.100 / 51. 53.100
13  libavcodec     54. 21.101 / 54. 21.101
14  libavformat    54.  5.101 / 54.  5.101
15  libavdevice    53.  4.100 / 53.  4.100
16  libavfilter     2. 75.100 /  2. 75.100
17  libswscale      2.  1.100 /  2.  1.100
18  libswresample   0. 15.100 /  0. 15.100
19[mpeg2video @ 0x442de20] slice below image (41 >= 36)
20Input #0, mov,mp4,m4a,3gp,3g2,mj2, from 'test.mp4':
21  Metadata:
22    major_brand     : isom
23    minor_version   : 512
24    compatible_brands: isomiso2mp41
25    creation_time   : 1970-01-01 00:00:00
26    encoder         : Lavf52.61.0
27  Duration: 00:00:29.32, start: 0.000000, bitrate: 195 kb/s
28    Stream #0:0(und): Video: mpeg2video (Main) (mp4v / 0x7634706D), yuv420p, 720x576 [SAR 16:15 DAR 4:3], 8000 kb/s, 24.52 fps, 25 tbr, 50 tbn, 50 tbc
29    Metadata:
30      creation_time   : 1970-01-01 00:00:00
31      handler_name    : VideoHandler
32[buffer @ 0x450d990] w:720 h:576 pixfmt:yuv420p tb:1/50 sar:16/15 sws_param:flags=2
33[buffersink @ 0x450dd60] No opaque field provided
34Output #0, null, to 'pipe:':
35  Metadata:
36    major_brand     : isom
37    minor_version   : 512
38    compatible_brands: isomiso2mp41
39    creation_time   : 1970-01-01 00:00:00
40    encoder         : Lavf54.5.101
41    Stream #0:0(und): Video: rawvideo (I420 / 0x30323449), yuv420p, 720x576 [SAR 16:15 DAR 4:3], q=2-31, 200 kb/s, 90k tbn, 25 tbc
42    Metadata:
43      creation_time   : 1970-01-01 00:00:00
44      handler_name    : VideoHandler
45Stream mapping:
46  Stream #0:0 -> #0:0 (mpeg2video -> rawvideo)
47Press [q] to stop, [?] for help
48[mpeg2video @ 0x442de20] slice below image (41 >= 36)
49Error while decoding stream #0:0
50[mpeg2video @ 0x442de20] first mb_incr damaged
51[mpeg2video @ 0x442de20] slice below image (99 >= 36)
52Error while decoding stream #0:0
53[mpeg2video @ 0x442de20] slice below image (57 >= 36)
54Error while decoding stream #0:0
55[mpeg2video @ 0x442de20] ignoring pic cod ext after 0
56[mpeg2video @ 0x442de20] ac-tex damaged at 1 32
57[mpeg2video @ 0x442de20] invalid mb type in P Frame at 5 5
58[mpeg2video @ 0x442de20] invalid mb type in P Frame at 27 6
59[mpeg2video @ 0x442de20] ac-tex damaged at 0 8
60[mpeg2video @ 0x442de20] ac-tex damaged at 22 10
61[mpeg2video @ 0x442de20] mb incr damaged
62[mpeg2video @ 0x442de20] ac-tex damaged at 3 14
63[mpeg2video @ 0x442de20] invalid cbp at 15 15
64[mpeg2video @ 0x442de20] ac-tex damaged at 32 0
65[mpeg2video @ 0x442de20] ac-tex damaged at 4 18
66[mpeg2video @ 0x442de20] invalid cbp at 2 22
67[mpeg2video @ 0x442de20] mb incr damaged
68[mpeg2video @ 0x442de20] invalid cbp at 11 26
69[mpeg2video @ 0x442de20] ac-tex damaged at 39 27
70[mpeg2video @ 0x442de20] invalid mb type in P Frame at 33 33
71[mpeg2video @ 0x442de20] invalid mb type in P Frame at 38 33
72[mpeg2video @ 0x442de20] ac-tex damaged at 4 34
73[mpeg2video @ 0x442de20] Warning MVs not available
74[mpeg2video @ 0x442de20] concealing 1620 DC, 1620 AC, 1620 MV errors
75[null @ 0x4527a00] Encoder did not produce proper pts, making some up.
76[mpeg2video @ 0x442de20] ac-tex damaged at 0 0
77[mpeg2video @ 0x442de20] qscale == 0
78[mpeg2video @ 0x442de20] invalid cbp at 2 5
79[mpeg2video @ 0x442de20] mb incr damaged
80[mpeg2video @ 0x442de20] ac-tex damaged at 3 10
81[mpeg2video @ 0x442de20] slice mismatch
82[mpeg2video @ 0x442de20] ac-tex damaged at 30 14
83[mpeg2video @ 0x442de20] mb incr damaged
84[mpeg2video @ 0x442de20] invalid mb type in B Frame at 31 15
85[mpeg2video @ 0x442de20] slice mismatch
86[mpeg2video @ 0x442de20] ac-tex damaged at 4 30
87[mpeg2video @ 0x442de20] mb incr damaged
88[mpeg2video @ 0x442de20] slice mismatch
89[mpeg2video @ 0x442de20] slice below image (48 >= 36)
90Error while decoding stream #0:0
91[mpeg2video @ 0x442de20] ignoring pic cod ext after 0
92[mpeg2video @ 0x442de20] Warning MVs not available
93[mpeg2video @ 0x442de20] concealing 1620 DC, 1620 AC, 1620 MV errors
94frame=   28 fps=0.0 q=0.0 size=       0kB time=00:00:01.12 bitrate=   0.0kbits/s dup=26 drop=0   
95Missing picture start code
96[mpeg2video @ 0x442de20] Missing picture start code
97    Last message repeated 19 times
98[mpeg2video @ 0x442de20] slice below image (160 >= 36)
99Error while decoding stream #0:0
100[mpeg2video @ 0x442de20] skipped MB in I frame at 1 5
101[mpeg2video @ 0x442de20] invalid mb type in I Frame at 1 7
102[mpeg2video @ 0x442de20] slice below image (136 >= 36)
103Error while decoding stream #0:0
104[mpeg2video @ 0x442de20] ignoring pic cod ext after 0
105[mpeg2video @ 0x442de20] concealing 1620 DC, 1620 AC, 1620 MV errors
106[mpeg2video @ 0x442de20] invalid cbp at 21 3
107[mpeg2video @ 0x442de20] invalid mb type in P Frame at 38 13
108[mpeg2video @ 0x442de20] ac-tex damaged at 9 11
109[mpeg2video @ 0x442de20] slice below image (75 >= 36)
110Error while decoding stream #0:0
111[mpeg2video @ 0x442de20] ignoring pic cod ext after 0
112[mpeg2video @ 0x442de20] Warning MVs not available
113[mpeg2video @ 0x442de20] concealing 1620 DC, 1620 AC, 1620 MV errors
114frame=   34 fps= 19 q=0.0 size=       0kB time=00:00:01.36 bitrate=   0.0kbits/s dup=30 drop=0   
115concealing 1620 DC, 1620 AC, 1620 MV errors
116[mpeg2video @ 0x442de20] concealing 1620 DC, 1620 AC, 1620 MV errors
117    Last message repeated 1 times
118frame=   37 fps= 15 q=0.0 size=       0kB time=00:00:01.48 bitrate=   0.0kbits/s dup=30 drop=0   
119ignoring pic cod ext after 0
120[mpeg2video @ 0x442de20] concealing 1620 DC, 1620 AC, 1620 MV errors
121    Last message repeated 1 times
122[mpeg2video @ 0x442de20] ignoring pic cod ext after 0
123[mpeg2video @ 0x442de20] concealing 1620 DC, 1620 AC, 1620 MV errors
124frame=   40 fps= 13 q=0.0 size=       0kB time=00:00:01.60 bitrate=   0.0kbits/s dup=30 drop=0   
125slice below image (71 >= 36)
126Error while decoding stream #0:0
127[mpeg2video @ 0x442de20] ignoring pic cod ext after 0
128[mpeg2video @ 0x442de20] matrix damaged
129[mpeg2video @ 0x442de20] sequence header damaged
130[mpeg2video @ 0x442de20] ignoring pic cod ext after 0
131    Last message repeated 1 times
132[mpeg2video @ 0x442de20] warning: first frame is no keyframe
133[mpeg2video @ 0x442de20] 00 motion_type at 1 7
134[mpeg2video @ 0x442de20] 00 motion_type at 22 11
135[mpeg2video @ 0x442de20] slice mismatch
136[mpeg2video @ 0x442de20] invalid mb type in B Frame at 6 15
137[mpeg2video @ 0x442de20] slice mismatch
138[mpeg2video @ 0x442de20] invalid cbp at 7 25
139[mpeg2video @ 0x442de20] 00 motion_type at 10 29
140==10686== Invalid read of size 4
141==10686==    at 0x828523E: put_pixels8_8_c (dsputil_template.c:657)
142==10686==    by 0x8426298: mpeg_motion_internal (mpegvideo_common.h:351)
143==10686==    by 0x8426333: mpeg_motion (mpegvideo_common.h:369)
144==10686==    by 0x8427423: MPV_motion_internal (mpegvideo_common.h:834)
145==10686==    by 0x8431EF1: MPV_motion (mpegvideo_common.h:886)
146==10686==    by 0x8431209: MPV_decode_mb_internal (mpegvideo.c:2003)
147==10686==    by 0x8432046: ff_MPV_decode_mb (mpegvideo.c:2129)
148==10686==    by 0x83F8CBD: mpeg_decode_slice (mpeg12.c:1805)
149==10686==    by 0x83FAEAA: decode_chunks (mpeg12.c:2532)
150==10686==    by 0x83FA3BD: mpeg_decode_frame (mpeg12.c:2305)
151==10686==    by 0x85297B1: avcodec_decode_video2 (utils.c:1464)
152==10686==    by 0x80538DD: transcode_video (ffmpeg.c:2659)
153==10686==  Address 0x4DD6DA0 is not stack'd, malloc'd or (recently) free'd
154==10686==
155==10686== Invalid read of size 4
156==10686==    at 0x828524E: put_pixels8_8_c (dsputil_template.c:657)
157==10686==    by 0x8426298: mpeg_motion_internal (mpegvideo_common.h:351)
158==10686==    by 0x8426333: mpeg_motion (mpegvideo_common.h:369)
159==10686==    by 0x8427423: MPV_motion_internal (mpegvideo_common.h:834)
160==10686==    by 0x8431EF1: MPV_motion (mpegvideo_common.h:886)
161==10686==    by 0x8431209: MPV_decode_mb_internal (mpegvideo.c:2003)
162==10686==    by 0x8432046: ff_MPV_decode_mb (mpegvideo.c:2129)
163==10686==    by 0x83F8CBD: mpeg_decode_slice (mpeg12.c:1805)
164==10686==    by 0x83FAEAA: decode_chunks (mpeg12.c:2532)
165==10686==    by 0x83FA3BD: mpeg_decode_frame (mpeg12.c:2305)
166==10686==    by 0x85297B1: avcodec_decode_video2 (utils.c:1464)
167==10686==    by 0x80538DD: transcode_video (ffmpeg.c:2659)
168==10686==  Address 0x4DD6DA4 is not stack'd, malloc'd or (recently) free'd
169[mpeg2video @ 0x442de20] ac-tex damaged at 7 31
170[mpeg2video @ 0x442de20] ac-tex damaged at 2 35
171[mpeg2video @ 0x442de20] slice below image (39 >= 38)
172Error while decoding stream #0:0
173[mpeg2video @ 0x442de20] mb incr damaged
174[mpeg2video @ 0x442de20] slice mismatch
175[mpeg2video @ 0x442de20] 00 motion_type at 4 11
176[mpeg2video @ 0x442de20] 00 motion_type at 5 27
177[mpeg2video @ 0x442de20] slice mismatch
178[mpeg2video @ 0x442de20] 00 motion_type at 11 35
179[mpeg2video @ 0x442de20] slice mismatch
180[mpeg2video @ 0x442de20] slice below image (39 >= 38)
181Error while decoding stream #0:0
182[mpeg2video @ 0x442de20] invalid mb type in B Frame at 1 1
183[mpeg2video @ 0x442de20] 00 motion_type at 0 19
184[mpeg2video @ 0x442de20] 00 motion_type at 7 25
185[mpeg2video @ 0x442de20] ac-tex damaged at 0 13
186[mpeg2video @ 0x442de20] mb incr damaged
187==10686==
188==10686== Invalid read of size 4
189==10686==    at 0x8285368: put_pixels8_l2_8 (dsputil_template.c:657)
190==10686==    by 0x828548A: put_pixels8_y2_8_c (dsputil_template.c:657)
191==10686==    by 0x8426298: mpeg_motion_internal (mpegvideo_common.h:351)
192==10686==    by 0x8426333: mpeg_motion (mpegvideo_common.h:369)
193==10686==    by 0x8427318: MPV_motion_internal (mpegvideo_common.h:817)
194==10686==    by 0x8431EF1: MPV_motion (mpegvideo_common.h:886)
195==10686==    by 0x843119F: MPV_decode_mb_internal (mpegvideo.c:1998)
196==10686==    by 0x8432046: ff_MPV_decode_mb (mpegvideo.c:2129)
197==10686==    by 0x83F8CBD: mpeg_decode_slice (mpeg12.c:1805)
198==10686==    by 0x83FAEAA: decode_chunks (mpeg12.c:2532)
199==10686==    by 0x83FA3BD: mpeg_decode_frame (mpeg12.c:2305)
200==10686==    by 0x85297B1: avcodec_decode_video2 (utils.c:1464)
201==10686==  Address 0x4CD9E88 is not stack'd, malloc'd or (recently) free'd
202==10686==
203==10686== Invalid read of size 4
204==10686==    at 0x828537A: put_pixels8_l2_8 (dsputil_template.c:657)
205==10686==    by 0x828548A: put_pixels8_y2_8_c (dsputil_template.c:657)
206==10686==    by 0x8426298: mpeg_motion_internal (mpegvideo_common.h:351)
207==10686==    by 0x8426333: mpeg_motion (mpegvideo_common.h:369)
208==10686==    by 0x8427318: MPV_motion_internal (mpegvideo_common.h:817)
209==10686==    by 0x8431EF1: MPV_motion (mpegvideo_common.h:886)
210==10686==    by 0x843119F: MPV_decode_mb_internal (mpegvideo.c:1998)
211==10686==    by 0x8432046: ff_MPV_decode_mb (mpegvideo.c:2129)
212==10686==    by 0x83F8CBD: mpeg_decode_slice (mpeg12.c:1805)
213==10686==    by 0x83FAEAA: decode_chunks (mpeg12.c:2532)
214==10686==    by 0x83FA3BD: mpeg_decode_frame (mpeg12.c:2305)
215==10686==    by 0x85297B1: avcodec_decode_video2 (utils.c:1464)
216==10686==  Address 0x4CDA1C8 is not stack'd, malloc'd or (recently) free'd
217==10686==
218==10686== Invalid read of size 4
219==10686==    at 0x82853AD: put_pixels8_l2_8 (dsputil_template.c:657)
220==10686==    by 0x828548A: put_pixels8_y2_8_c (dsputil_template.c:657)
221==10686==    by 0x8426298: mpeg_motion_internal (mpegvideo_common.h:351)
222==10686==    by 0x8426333: mpeg_motion (mpegvideo_common.h:369)
223==10686==    by 0x8427318: MPV_motion_internal (mpegvideo_common.h:817)
224==10686==    by 0x8431EF1: MPV_motion (mpegvideo_common.h:886)
225==10686==    by 0x843119F: MPV_decode_mb_internal (mpegvideo.c:1998)
226==10686==    by 0x8432046: ff_MPV_decode_mb (mpegvideo.c:2129)
227==10686==    by 0x83F8CBD: mpeg_decode_slice (mpeg12.c:1805)
228==10686==    by 0x83FAEAA: decode_chunks (mpeg12.c:2532)
229==10686==    by 0x83FA3BD: mpeg_decode_frame (mpeg12.c:2305)
230==10686==    by 0x85297B1: avcodec_decode_video2 (utils.c:1464)
231==10686==  Address 0x4CD9E8C is not stack'd, malloc'd or (recently) free'd
232==10686==
233==10686== Invalid read of size 4
234==10686==    at 0x82853BF: put_pixels8_l2_8 (dsputil_template.c:657)
235==10686==    by 0x828548A: put_pixels8_y2_8_c (dsputil_template.c:657)
236==10686==    by 0x8426298: mpeg_motion_internal (mpegvideo_common.h:351)
237==10686==    by 0x8426333: mpeg_motion (mpegvideo_common.h:369)
238==10686==    by 0x8427318: MPV_motion_internal (mpegvideo_common.h:817)
239==10686==    by 0x8431EF1: MPV_motion (mpegvideo_common.h:886)
240==10686==    by 0x843119F: MPV_decode_mb_internal (mpegvideo.c:1998)
241==10686==    by 0x8432046: ff_MPV_decode_mb (mpegvideo.c:2129)
242==10686==    by 0x83F8CBD: mpeg_decode_slice (mpeg12.c:1805)
243==10686==    by 0x83FAEAA: decode_chunks (mpeg12.c:2532)
244==10686==    by 0x83FA3BD: mpeg_decode_frame (mpeg12.c:2305)
245==10686==    by 0x85297B1: avcodec_decode_video2 (utils.c:1464)
246==10686==  Address 0x4CDA1CC is not stack'd, malloc'd or (recently) free'd
247[mpeg2video @ 0x442de20] 00 motion_type at 9 19
248[mpeg2video @ 0x442de20] 00 motion_type at 6 23
249[mpeg2video @ 0x442de20] 00 motion_type at 2 25
250[mpeg2video @ 0x442de20] ac-tex damaged at 5 15
251[mpeg2video @ 0x442de20] invalid cbp at 1 29
252[mpeg2video @ 0x442de20] slice below image (45 >= 38)
253Error while decoding stream #0:0
254[mpeg2video @ 0x442de20] ignoring pic cod ext after 0
255[mpeg2video @ 0x442de20] Missing picture start code
256    Last message repeated 9 times
257[mpeg2video @ 0x442de20] slice below image (287 >= 38)
258Error while decoding stream #0:0
259[mpeg2video @ 0x442de20] 00 motion_type at 0 3
260[mpeg2video @ 0x442de20] 00 motion_type at 9 5
261[mpeg2video @ 0x442de20] mb incr damaged
262[mpeg2video @ 0x442de20] ac-tex damaged at 1 3
263[mpeg2video @ 0x442de20] invalid mb type in B Frame at 3 21
264[mpeg2video @ 0x442de20] 00 motion_type at 36 23
265==10686==
266==10686== Invalid read of size 4
267==10686==    at 0x828523E: put_pixels8_8_c (dsputil_template.c:657)
268==10686==    by 0x8285291: put_pixels16_8_c (dsputil_template.c:657)
269==10686==    by 0x842621A: mpeg_motion_internal (mpegvideo_common.h:346)
270==10686==    by 0x8426333: mpeg_motion (mpegvideo_common.h:369)
271==10686==    by 0x8427423: MPV_motion_internal (mpegvideo_common.h:834)
272==10686==    by 0x8431EF1: MPV_motion (mpegvideo_common.h:886)
273==10686==    by 0x843119F: MPV_decode_mb_internal (mpegvideo.c:1998)
274==10686==    by 0x8432046: ff_MPV_decode_mb (mpegvideo.c:2129)
275==10686==    by 0x83F8CBD: mpeg_decode_slice (mpeg12.c:1805)
276==10686==    by 0x83FAEAA: decode_chunks (mpeg12.c:2532)
277==10686==    by 0x83FA3BD: mpeg_decode_frame (mpeg12.c:2305)
278==10686==    by 0x85297B1: avcodec_decode_video2 (utils.c:1464)
279==10686==  Address 0x4CF8D70 is not stack'd, malloc'd or (recently) free'd
280==10686==
281==10686== Invalid read of size 4
282==10686==    at 0x828524E: put_pixels8_8_c (dsputil_template.c:657)
283==10686==    by 0x8285291: put_pixels16_8_c (dsputil_template.c:657)
284==10686==    by 0x842621A: mpeg_motion_internal (mpegvideo_common.h:346)
285==10686==    by 0x8426333: mpeg_motion (mpegvideo_common.h:369)
286==10686==    by 0x8427423: MPV_motion_internal (mpegvideo_common.h:834)
287==10686==    by 0x8431EF1: MPV_motion (mpegvideo_common.h:886)
288==10686==    by 0x843119F: MPV_decode_mb_internal (mpegvideo.c:1998)
289==10686==    by 0x8432046: ff_MPV_decode_mb (mpegvideo.c:2129)
290==10686==    by 0x83F8CBD: mpeg_decode_slice (mpeg12.c:1805)
291==10686==    by 0x83FAEAA: decode_chunks (mpeg12.c:2532)
292==10686==    by 0x83FA3BD: mpeg_decode_frame (mpeg12.c:2305)
293==10686==    by 0x85297B1: avcodec_decode_video2 (utils.c:1464)
294==10686==  Address 0x4CF8D74 is not stack'd, malloc'd or (recently) free'd
295==10686==
296==10686== Invalid read of size 4
297==10686==    at 0x828523E: put_pixels8_8_c (dsputil_template.c:657)
298==10686==    by 0x82852B7: put_pixels16_8_c (dsputil_template.c:657)
299==10686==    by 0x842621A: mpeg_motion_internal (mpegvideo_common.h:346)
300==10686==    by 0x8426333: mpeg_motion (mpegvideo_common.h:369)
301==10686==    by 0x8427423: MPV_motion_internal (mpegvideo_common.h:834)
302==10686==    by 0x8431EF1: MPV_motion (mpegvideo_common.h:886)
303==10686==    by 0x843119F: MPV_decode_mb_internal (mpegvideo.c:1998)
304==10686==    by 0x8432046: ff_MPV_decode_mb (mpegvideo.c:2129)
305==10686==    by 0x83F8CBD: mpeg_decode_slice (mpeg12.c:1805)
306==10686==    by 0x83FAEAA: decode_chunks (mpeg12.c:2532)
307==10686==    by 0x83FA3BD: mpeg_decode_frame (mpeg12.c:2305)
308==10686==    by 0x85297B1: avcodec_decode_video2 (utils.c:1464)
309==10686==  Address 0x4CF8D78 is not stack'd, malloc'd or (recently) free'd
310==10686==
311==10686== Invalid read of size 4
312==10686==    at 0x828524E: put_pixels8_8_c (dsputil_template.c:657)
313==10686==    by 0x82852B7: put_pixels16_8_c (dsputil_template.c:657)
314==10686==    by 0x842621A: mpeg_motion_internal (mpegvideo_common.h:346)
315==10686==    by 0x8426333: mpeg_motion (mpegvideo_common.h:369)
316==10686==    by 0x8427423: MPV_motion_internal (mpegvideo_common.h:834)
317==10686==    by 0x8431EF1: MPV_motion (mpegvideo_common.h:886)
318==10686==    by 0x843119F: MPV_decode_mb_internal (mpegvideo.c:1998)
319==10686==    by 0x8432046: ff_MPV_decode_mb (mpegvideo.c:2129)
320==10686==    by 0x83F8CBD: mpeg_decode_slice (mpeg12.c:1805)
321==10686==    by 0x83FAEAA: decode_chunks (mpeg12.c:2532)
322==10686==    by 0x83FA3BD: mpeg_decode_frame (mpeg12.c:2305)
323==10686==    by 0x85297B1: avcodec_decode_video2 (utils.c:1464)
324==10686==  Address 0x4CF8D7C is not stack'd, malloc'd or (recently) free'd
325[mpeg2video @ 0x442de20] invalid mb type in B Frame at 15 29
326[mpeg2video @ 0x442de20] 00 motion_type at 6 31
327[mpeg2video @ 0x442de20] 00 motion_type at 1 33
328[mpeg2video @ 0x442de20] ac-tex damaged at 2 37
329[mpeg2video @ 0x442de20] slice below image (49 >= 38)
330Error while decoding stream #0:0
331[mpeg2video @ 0x442de20] 00 motion_type at 1 7
332[mpeg2video @ 0x442de20] ac-tex damaged at 1 9
333[mpeg2video @ 0x442de20] mb incr damaged
334[mpeg2video @ 0x442de20] ac-tex damaged at 6 15
335[mpeg2video @ 0x442de20] 00 motion_type at 6 15
336[mpeg2video @ 0x442de20] mb incr damaged
337[mpeg2video @ 0x442de20] 00 motion_type at 26 23
338[mpeg2video @ 0x442de20] 00 motion_type at 32 29
339[mpeg2video @ 0x442de20] slice mismatch
340==10686==
341==10686== Invalid read of size 4
342==10686==    at 0x8285368: put_pixels8_l2_8 (dsputil_template.c:657)
343==10686==    by 0x8285345: put_pixels8_x2_8_c (dsputil_template.c:657)
344==10686==    by 0x8426298: mpeg_motion_internal (mpegvideo_common.h:351)
345==10686==    by 0x8426333: mpeg_motion (mpegvideo_common.h:369)
346==10686==    by 0x8427423: MPV_motion_internal (mpegvideo_common.h:834)
347==10686==    by 0x8431EF1: MPV_motion (mpegvideo_common.h:886)
348==10686==    by 0x843119F: MPV_decode_mb_internal (mpegvideo.c:1998)
349==10686==    by 0x8432046: ff_MPV_decode_mb (mpegvideo.c:2129)
350==10686==    by 0x83F8CBD: mpeg_decode_slice (mpeg12.c:1805)
351==10686==    by 0x83FAEAA: decode_chunks (mpeg12.c:2532)
352==10686==    by 0x83FA3BD: mpeg_decode_frame (mpeg12.c:2305)
353==10686==    by 0x85297B1: avcodec_decode_video2 (utils.c:1464)
354==10686==  Address 0x4CDF634 is not stack'd, malloc'd or (recently) free'd
355==10686==
356==10686== Invalid read of size 4
357==10686==    at 0x828537A: put_pixels8_l2_8 (dsputil_template.c:657)
358==10686==    by 0x8285345: put_pixels8_x2_8_c (dsputil_template.c:657)
359==10686==    by 0x8426298: mpeg_motion_internal (mpegvideo_common.h:351)
360==10686==    by 0x8426333: mpeg_motion (mpegvideo_common.h:369)
361==10686==    by 0x8427423: MPV_motion_internal (mpegvideo_common.h:834)
362==10686==    by 0x8431EF1: MPV_motion (mpegvideo_common.h:886)
363==10686==    by 0x843119F: MPV_decode_mb_internal (mpegvideo.c:1998)
364==10686==    by 0x8432046: ff_MPV_decode_mb (mpegvideo.c:2129)
365==10686==    by 0x83F8CBD: mpeg_decode_slice (mpeg12.c:1805)
366==10686==    by 0x83FAEAA: decode_chunks (mpeg12.c:2532)
367==10686==    by 0x83FA3BD: mpeg_decode_frame (mpeg12.c:2305)
368==10686==    by 0x85297B1: avcodec_decode_video2 (utils.c:1464)
369==10686==  Address 0x4CDF635 is not stack'd, malloc'd or (recently) free'd
370==10686==
371==10686== Invalid read of size 4
372==10686==    at 0x82853AD: put_pixels8_l2_8 (dsputil_template.c:657)
373==10686==    by 0x8285345: put_pixels8_x2_8_c (dsputil_template.c:657)
374==10686==    by 0x8426298: mpeg_motion_internal (mpegvideo_common.h:351)
375==10686==    by 0x8426333: mpeg_motion (mpegvideo_common.h:369)
376==10686==    by 0x8427423: MPV_motion_internal (mpegvideo_common.h:834)
377==10686==    by 0x8431EF1: MPV_motion (mpegvideo_common.h:886)
378==10686==    by 0x843119F: MPV_decode_mb_internal (mpegvideo.c:1998)
379==10686==    by 0x8432046: ff_MPV_decode_mb (mpegvideo.c:2129)
380==10686==    by 0x83F8CBD: mpeg_decode_slice (mpeg12.c:1805)
381==10686==    by 0x83FAEAA: decode_chunks (mpeg12.c:2532)
382==10686==    by 0x83FA3BD: mpeg_decode_frame (mpeg12.c:2305)
383==10686==    by 0x85297B1: avcodec_decode_video2 (utils.c:1464)
384==10686==  Address 0x4CDF638 is not stack'd, malloc'd or (recently) free'd
385==10686==
386==10686== Invalid read of size 4
387==10686==    at 0x82853BF: put_pixels8_l2_8 (dsputil_template.c:657)
388==10686==    by 0x8285345: put_pixels8_x2_8_c (dsputil_template.c:657)
389==10686==    by 0x8426298: mpeg_motion_internal (mpegvideo_common.h:351)
390==10686==    by 0x8426333: mpeg_motion (mpegvideo_common.h:369)
391==10686==    by 0x8427423: MPV_motion_internal (mpegvideo_common.h:834)
392==10686==    by 0x8431EF1: MPV_motion (mpegvideo_common.h:886)
393==10686==    by 0x843119F: MPV_decode_mb_internal (mpegvideo.c:1998)
394==10686==    by 0x8432046: ff_MPV_decode_mb (mpegvideo.c:2129)
395==10686==    by 0x83F8CBD: mpeg_decode_slice (mpeg12.c:1805)
396==10686==    by 0x83FAEAA: decode_chunks (mpeg12.c:2532)
397==10686==    by 0x83FA3BD: mpeg_decode_frame (mpeg12.c:2305)
398==10686==    by 0x85297B1: avcodec_decode_video2 (utils.c:1464)
399==10686==  Address 0x4CDF639 is not stack'd, malloc'd or (recently) free'd
400==10686==
401==10686== Invalid read of size 4
402==10686==    at 0x8285368: put_pixels8_l2_8 (dsputil_template.c:657)
403==10686==    by 0x828548A: put_pixels8_y2_8_c (dsputil_template.c:657)
404==10686==    by 0x8285422: put_pixels16_y2_8_c (dsputil_template.c:657)
405==10686==    by 0x842621A: mpeg_motion_internal (mpegvideo_common.h:346)
406==10686==    by 0x8426333: mpeg_motion (mpegvideo_common.h:369)
407==10686==    by 0x8427423: MPV_motion_internal (mpegvideo_common.h:834)
408==10686==    by 0x8431EF1: MPV_motion (mpegvideo_common.h:886)
409==10686==    by 0x843119F: MPV_decode_mb_internal (mpegvideo.c:1998)
410==10686==    by 0x8432046: ff_MPV_decode_mb (mpegvideo.c:2129)
411==10686==    by 0x83F8CBD: mpeg_decode_slice (mpeg12.c:1805)
412==10686==    by 0x83FAEAA: decode_chunks (mpeg12.c:2532)
413==10686==    by 0x83FA3BD: mpeg_decode_frame (mpeg12.c:2305)
414==10686==  Address 0x4CDAF2B is not stack'd, malloc'd or (recently) free'd
415==10686==
416==10686== Invalid read of size 4
417==10686==    at 0x828537A: put_pixels8_l2_8 (dsputil_template.c:657)
418==10686==    by 0x828548A: put_pixels8_y2_8_c (dsputil_template.c:657)
419==10686==    by 0x8285422: put_pixels16_y2_8_c (dsputil_template.c:657)
420==10686==    by 0x842621A: mpeg_motion_internal (mpegvideo_common.h:346)
421==10686==    by 0x8426333: mpeg_motion (mpegvideo_common.h:369)
422==10686==    by 0x8427423: MPV_motion_internal (mpegvideo_common.h:834)
423==10686==    by 0x8431EF1: MPV_motion (mpegvideo_common.h:886)
424==10686==    by 0x843119F: MPV_decode_mb_internal (mpegvideo.c:1998)
425==10686==    by 0x8432046: ff_MPV_decode_mb (mpegvideo.c:2129)
426==10686==    by 0x83F8CBD: mpeg_decode_slice (mpeg12.c:1805)
427==10686==    by 0x83FAEAA: decode_chunks (mpeg12.c:2532)
428==10686==    by 0x83FA3BD: mpeg_decode_frame (mpeg12.c:2305)
429==10686==  Address 0x4CDB56B is not stack'd, malloc'd or (recently) free'd
430==10686==
431==10686== Invalid read of size 4
432==10686==    at 0x82853AD: put_pixels8_l2_8 (dsputil_template.c:657)
433==10686==    by 0x828548A: put_pixels8_y2_8_c (dsputil_template.c:657)
434==10686==    by 0x8285422: put_pixels16_y2_8_c (dsputil_template.c:657)
435==10686==    by 0x842621A: mpeg_motion_internal (mpegvideo_common.h:346)
436==10686==    by 0x8426333: mpeg_motion (mpegvideo_common.h:369)
437==10686==    by 0x8427423: MPV_motion_internal (mpegvideo_common.h:834)
438==10686==    by 0x8431EF1: MPV_motion (mpegvideo_common.h:886)
439==10686==    by 0x843119F: MPV_decode_mb_internal (mpegvideo.c:1998)
440==10686==    by 0x8432046: ff_MPV_decode_mb (mpegvideo.c:2129)
441==10686==    by 0x83F8CBD: mpeg_decode_slice (mpeg12.c:1805)
442==10686==    by 0x83FAEAA: decode_chunks (mpeg12.c:2532)
443==10686==    by 0x83FA3BD: mpeg_decode_frame (mpeg12.c:2305)
444==10686==  Address 0x4CDAF2F is not stack'd, malloc'd or (recently) free'd
445==10686==
446==10686== Invalid read of size 4
447==10686==    at 0x82853BF: put_pixels8_l2_8 (dsputil_template.c:657)
448==10686==    by 0x828548A: put_pixels8_y2_8_c (dsputil_template.c:657)
449==10686==    by 0x8285422: put_pixels16_y2_8_c (dsputil_template.c:657)
450==10686==    by 0x842621A: mpeg_motion_internal (mpegvideo_common.h:346)
451==10686==    by 0x8426333: mpeg_motion (mpegvideo_common.h:369)
452==10686==    by 0x8427423: MPV_motion_internal (mpegvideo_common.h:834)
453==10686==    by 0x8431EF1: MPV_motion (mpegvideo_common.h:886)
454==10686==    by 0x843119F: MPV_decode_mb_internal (mpegvideo.c:1998)
455==10686==    by 0x8432046: ff_MPV_decode_mb (mpegvideo.c:2129)
456==10686==    by 0x83F8CBD: mpeg_decode_slice (mpeg12.c:1805)
457==10686==    by 0x83FAEAA: decode_chunks (mpeg12.c:2532)
458==10686==    by 0x83FA3BD: mpeg_decode_frame (mpeg12.c:2305)
459==10686==  Address 0x4CDB56F is not stack'd, malloc'd or (recently) free'd
460==10686==
461==10686== Invalid read of size 4
462==10686==    at 0x8285368: put_pixels8_l2_8 (dsputil_template.c:657)
463==10686==    by 0x828548A: put_pixels8_y2_8_c (dsputil_template.c:657)
464==10686==    by 0x8285448: put_pixels16_y2_8_c (dsputil_template.c:657)
465==10686==    by 0x842621A: mpeg_motion_internal (mpegvideo_common.h:346)
466==10686==    by 0x8426333: mpeg_motion (mpegvideo_common.h:369)
467==10686==    by 0x8427423: MPV_motion_internal (mpegvideo_common.h:834)
468==10686==    by 0x8431EF1: MPV_motion (mpegvideo_common.h:886)
469==10686==    by 0x843119F: MPV_decode_mb_internal (mpegvideo.c:1998)
470==10686==    by 0x8432046: ff_MPV_decode_mb (mpegvideo.c:2129)
471==10686==    by 0x83F8CBD: mpeg_decode_slice (mpeg12.c:1805)
472==10686==    by 0x83FAEAA: decode_chunks (mpeg12.c:2532)
473==10686==    by 0x83FA3BD: mpeg_decode_frame (mpeg12.c:2305)
474==10686==  Address 0x4CDAF33 is not stack'd, malloc'd or (recently) free'd
475==10686==
476==10686== Invalid read of size 4
477==10686==    at 0x828537A: put_pixels8_l2_8 (dsputil_template.c:657)
478==10686==    by 0x828548A: put_pixels8_y2_8_c (dsputil_template.c:657)
479==10686==    by 0x8285448: put_pixels16_y2_8_c (dsputil_template.c:657)
480==10686==    by 0x842621A: mpeg_motion_internal (mpegvideo_common.h:346)
481==10686==    by 0x8426333: mpeg_motion (mpegvideo_common.h:369)
482==10686==    by 0x8427423: MPV_motion_internal (mpegvideo_common.h:834)
483==10686==    by 0x8431EF1: MPV_motion (mpegvideo_common.h:886)
484==10686==    by 0x843119F: MPV_decode_mb_internal (mpegvideo.c:1998)
485==10686==    by 0x8432046: ff_MPV_decode_mb (mpegvideo.c:2129)
486==10686==    by 0x83F8CBD: mpeg_decode_slice (mpeg12.c:1805)
487==10686==    by 0x83FAEAA: decode_chunks (mpeg12.c:2532)
488==10686==    by 0x83FA3BD: mpeg_decode_frame (mpeg12.c:2305)
489==10686==  Address 0x4CDB573 is not stack'd, malloc'd or (recently) free'd
490==10686==
491==10686== Invalid read of size 4
492==10686==    at 0x82853AD: put_pixels8_l2_8 (dsputil_template.c:657)
493==10686==    by 0x828548A: put_pixels8_y2_8_c (dsputil_template.c:657)
494==10686==    by 0x8285448: put_pixels16_y2_8_c (dsputil_template.c:657)
495==10686==    by 0x842621A: mpeg_motion_internal (mpegvideo_common.h:346)
496==10686==    by 0x8426333: mpeg_motion (mpegvideo_common.h:369)
497==10686==    by 0x8427423: MPV_motion_internal (mpegvideo_common.h:834)
498==10686==    by 0x8431EF1: MPV_motion (mpegvideo_common.h:886)
499==10686==    by 0x843119F: MPV_decode_mb_internal (mpegvideo.c:1998)
500==10686==    by 0x8432046: ff_MPV_decode_mb (mpegvideo.c:2129)
501==10686==    by 0x83F8CBD: mpeg_decode_slice (mpeg12.c:1805)
502==10686==    by 0x83FAEAA: decode_chunks (mpeg12.c:2532)
503==10686==    by 0x83FA3BD: mpeg_decode_frame (mpeg12.c:2305)
504==10686==  Address 0x4CDAF37 is not stack'd, malloc'd or (recently) free'd
505==10686==
506==10686== Invalid read of size 4
507==10686==    at 0x82853BF: put_pixels8_l2_8 (dsputil_template.c:657)
508==10686==    by 0x828548A: put_pixels8_y2_8_c (dsputil_template.c:657)
509==10686==    by 0x8285448: put_pixels16_y2_8_c (dsputil_template.c:657)
510==10686==    by 0x842621A: mpeg_motion_internal (mpegvideo_common.h:346)
511==10686==    by 0x8426333: mpeg_motion (mpegvideo_common.h:369)
512==10686==    by 0x8427423: MPV_motion_internal (mpegvideo_common.h:834)
513==10686==    by 0x8431EF1: MPV_motion (mpegvideo_common.h:886)
514==10686==    by 0x843119F: MPV_decode_mb_internal (mpegvideo.c:1998)
515==10686==    by 0x8432046: ff_MPV_decode_mb (mpegvideo.c:2129)
516==10686==    by 0x83F8CBD: mpeg_decode_slice (mpeg12.c:1805)
517==10686==    by 0x83FAEAA: decode_chunks (mpeg12.c:2532)
518==10686==    by 0x83FA3BD: mpeg_decode_frame (mpeg12.c:2305)
519==10686==  Address 0x4CDB577 is not stack'd, malloc'd or (recently) free'd
520[mpeg2video @ 0x442de20] invalid mb type in B Frame at 15 33
521[mpeg2video @ 0x442de20] slice below image (41 >= 38)
522Error while decoding stream #0:0
523[mpeg2video @ 0x442de20] mb incr damaged
524[mpeg2video @ 0x442de20] slice below image (131 >= 38)
525Error while decoding stream #0:0
526[mpeg2video @ 0x442de20] Missing picture start code
527    Last message repeated 2 times
528[mpeg2video @ 0x442de20] slice below image (121 >= 38)
529Error while decoding stream #0:0
530[mpeg2video @ 0x442de20] 00 motion_type at 1 27
531[mpeg2video @ 0x442de20] 00 motion_type at 1 33
532[mpeg2video @ 0x442de20] 00 motion_type at 4 35
533[mpeg2video @ 0x442de20] 00 motion_type at 10 5
534[mpeg2video @ 0x442de20] slice below image (39 >= 38)
535Error while decoding stream #0:0
536[mpeg2video @ 0x442de20] picture_structure 2 invalid, ignoring
537[mpeg2video @ 0x442de20] slice mismatch
538[mpeg2video @ 0x442de20] 00 motion_type at 5 6
539[mpeg2video @ 0x442de20] ac-tex damaged at 20 7
540[mpeg2video @ 0x442de20] invalid mb type in B Frame at 3 10
541[mpeg2video @ 0x442de20] qscale == 0
542[mpeg2video @ 0x442de20] mb incr damaged
543[mpeg2video @ 0x442de20] qscale == 0
544[mpeg2video @ 0x442de20] invalid mb type in B Frame at 21 16
545[mpeg2video @ 0x442de20] 00 motion_type at 7 18
546[mpeg2video @ 0x442de20] 00 motion_type at 20 19
547[mpeg2video @ 0x442de20] invalid mb type in B Frame at 8 16
548[mpeg2video @ 0x442de20] 00 motion_type at 6 25
549[mpeg2video @ 0x442de20] 00 motion_type at 11 27
550[mpeg2video @ 0x442de20] invalid mb type in B Frame at 17 28
551[mpeg2video @ 0x442de20] slice below image (62 >= 38)
552Error while decoding stream #0:0
553Truncating packet of size 50032 to 31875
554[mpeg2video @ 0x442de20] ignoring pic cod ext after 0
555[mpeg2video @ 0x442de20] Warning MVs not available
556[mpeg2video @ 0x442de20] concealing 1710 DC, 1710 AC, 1710 MV errors
557Input stream #0:0 frame changed from size:720x576 fmt:yuv420p to size:720x608 fmt:yuv420p
558[buffer @ 0x452df40] w:720 h:608 pixfmt:yuv420p tb:1/50 sar:16/15 sws_param:flags=2
559[buffersink @ 0x450d5e0] No opaque field provided
560[scale @ 0x4416140] w:720 h:608 fmt:yuv420p sar:16/15 -> w:720 h:576 fmt:yuv420p sar:96/95 flags:0x4
561Truncating packet of size 16936 to 1
562frame=   61 fps=9.8 q=0.0 Lsize=       0kB time=00:00:02.44 bitrate=   0.0kbits/s dup=49 drop=0   
563video:0kB audio:0kB global headers:0kB muxing overhead nan%
564Output file is empty, nothing was encoded (check -ss / -t / -frames parameters if used)
565==10686==
566==10686== ERROR SUMMARY: 814 errors from 22 contexts (suppressed: 3 from 1)
567==10686== malloc/free: in use at exit: 0 bytes in 0 blocks.
568==10686== malloc/free: 1,547 allocs, 1,547 frees, 11,209,337 bytes allocated.
569==10686== For counts of detected errors, rerun with: -v
570==10686== All heap blocks were freed -- no leaks are possible.