Ticket #1330: ticket1330mmx.log

File ticket1330mmx.log, 54.5 KB (added by cehoyos, 4 years ago)
Line 
1$ valgrind ./ffmpeg_g -i test.mp4 -f null -
2==13675== Memcheck, a memory error detector.
3==13675== Copyright (C) 2002-2007, and GNU GPL'd, by Julian Seward et al.
4==13675== Using LibVEX rev 1732, a library for dynamic binary translation.
5==13675== Copyright (C) 2004-2007, and GNU GPL'd, by OpenWorks LLP.
6==13675== Using valgrind-3.2.3, a dynamic binary instrumentation framework.
7==13675== Copyright (C) 2000-2007, and GNU GPL'd, by Julian Seward et al.
8==13675== For more details, rerun with: -v
9==13675==
10ffmpeg version N-41927-g3b0ad04 Copyright (c) 2000-2012 the FFmpeg developers
11  built on Jun 26 2012 08:43:46 with gcc 4.3.2
12  configuration: --cc=/usr/local/gcc-4.3.2/bin/gcc --disable-optimizations
13  libavutil      51. 62.100 / 51. 62.100
14  libavcodec     54. 29.100 / 54. 29.100
15  libavformat    54. 11.100 / 54. 11.100
16  libavdevice    54.  0.100 / 54.  0.100
17  libavfilter     3.  0.100 /  3.  0.100
18  libswscale      2.  1.100 /  2.  1.100
19  libswresample   0. 15.100 /  0. 15.100
20[mpeg2video @ 0x442ee00] slice below image (41 >= 36)
21Input #0, mov,mp4,m4a,3gp,3g2,mj2, from 'test.mp4':
22  Metadata:
23    major_brand     : isom
24    minor_version   : 512
25    compatible_brands: isomiso2mp41
26    creation_time   : 1970-01-01 00:00:00
27    encoder         : Lavf52.61.0
28  Duration: 00:00:29.32, start: 0.000000, bitrate: 195 kb/s
29    Stream #0:0(und): Video: mpeg2video (Main) (mp4v / 0x7634706D), yuv420p, 720x576 [SAR 16:15 DAR 4:3], 8000 kb/s, 24.52 fps, 25 tbr, 50 tbn, 50 tbc
30    Metadata:
31      creation_time   : 1970-01-01 00:00:00
32      handler_name    : VideoHandler
33[graph 0 input from stream 0:0 @ 0x45387c0] w:720 h:576 pixfmt:yuv420p tb:1/50 fr:25/1 sar:16/15 sws_param:flags=2
34[output stream 0:0 @ 0x453a640] No opaque field provided
35Output #0, null, to 'pipe:':
36  Metadata:
37    major_brand     : isom
38    minor_version   : 512
39    compatible_brands: isomiso2mp41
40    creation_time   : 1970-01-01 00:00:00
41    encoder         : Lavf54.11.100
42    Stream #0:0(und): Video: rawvideo (I420 / 0x30323449), yuv420p, 720x576 [SAR 16:15 DAR 4:3], q=2-31, 200 kb/s, 90k tbn, 25 tbc
43    Metadata:
44      creation_time   : 1970-01-01 00:00:00
45      handler_name    : VideoHandler
46Stream mapping:
47  Stream #0:0 -> #0:0 (mpeg2video -> rawvideo)
48Press [q] to stop, [?] for help
49[mpeg2video @ 0x442ee00] slice below image (41 >= 36)
50Error while decoding stream #0:0: Operation not permitted
51[mpeg2video @ 0x442ee00] first mb_incr damaged
52[mpeg2video @ 0x442ee00] slice below image (99 >= 36)
53Error while decoding stream #0:0: Operation not permitted
54[mpeg2video @ 0x442ee00] slice below image (57 >= 36)
55Error while decoding stream #0:0: Operation not permitted
56[mpeg2video @ 0x442ee00] ignoring pic cod ext after 0
57[mpeg2video @ 0x442ee00] ac-tex damaged at 1 32
58[mpeg2video @ 0x442ee00] invalid mb type in P Frame at 5 5
59[mpeg2video @ 0x442ee00] invalid mb type in P Frame at 27 6
60[mpeg2video @ 0x442ee00] ac-tex damaged at 0 8
61[mpeg2video @ 0x442ee00] ac-tex damaged at 22 10
62[mpeg2video @ 0x442ee00] mb incr damaged
63[mpeg2video @ 0x442ee00] ac-tex damaged at 3 14
64[mpeg2video @ 0x442ee00] invalid cbp at 15 15
65[mpeg2video @ 0x442ee00] ac-tex damaged at 32 0
66[mpeg2video @ 0x442ee00] ac-tex damaged at 4 18
67[mpeg2video @ 0x442ee00] invalid cbp at 2 22
68[mpeg2video @ 0x442ee00] mb incr damaged
69[mpeg2video @ 0x442ee00] invalid cbp at 11 26
70[mpeg2video @ 0x442ee00] ac-tex damaged at 39 27
71[mpeg2video @ 0x442ee00] invalid mb type in P Frame at 33 33
72[mpeg2video @ 0x442ee00] invalid mb type in P Frame at 38 33
73[mpeg2video @ 0x442ee00] ac-tex damaged at 4 34
74[mpeg2video @ 0x442ee00] Warning MVs not available
75[mpeg2video @ 0x442ee00] concealing 1620 DC, 1620 AC, 1620 MV errors
76[null @ 0x4528b20] Encoder did not produce proper pts, making some up.
77[mpeg2video @ 0x442ee00] ac-tex damaged at 0 0
78[mpeg2video @ 0x442ee00] qscale == 0
79[mpeg2video @ 0x442ee00] invalid cbp at 2 5
80[mpeg2video @ 0x442ee00] mb incr damaged
81[mpeg2video @ 0x442ee00] ac-tex damaged at 3 10
82[mpeg2video @ 0x442ee00] slice mismatch
83[mpeg2video @ 0x442ee00] ac-tex damaged at 30 14
84[mpeg2video @ 0x442ee00] mb incr damaged
85[mpeg2video @ 0x442ee00] invalid mb type in B Frame at 31 15
86[mpeg2video @ 0x442ee00] slice mismatch
87[mpeg2video @ 0x442ee00] ac-tex damaged at 4 30
88[mpeg2video @ 0x442ee00] mb incr damaged
89[mpeg2video @ 0x442ee00] slice mismatch
90[mpeg2video @ 0x442ee00] slice below image (48 >= 36)
91Error while decoding stream #0:0: Operation not permitted
92[mpeg2video @ 0x442ee00] ignoring pic cod ext after 0
93[mpeg2video @ 0x442ee00] Warning MVs not available
94[mpeg2video @ 0x442ee00] concealing 1620 DC, 1620 AC, 1620 MV errors
95frame=   28 fps= 26 q=0.0 size=       0kB time=00:00:01.12 bitrate=   0.0kbits/s dup=26 drop=0   
96Missing picture start code
97[mpeg2video @ 0x442ee00] Missing picture start code
98    Last message repeated 19 times
99[mpeg2video @ 0x442ee00] slice below image (160 >= 36)
100Error while decoding stream #0:0: Operation not permitted
101[mpeg2video @ 0x442ee00] skipped MB in I frame at 1 5
102[mpeg2video @ 0x442ee00] invalid mb type in I Frame at 1 7
103[mpeg2video @ 0x442ee00] slice below image (136 >= 36)
104Error while decoding stream #0:0: Operation not permitted
105[mpeg2video @ 0x442ee00] ignoring pic cod ext after 0
106[mpeg2video @ 0x442ee00] concealing 1620 DC, 1620 AC, 1620 MV errors
107[mpeg2video @ 0x442ee00] invalid cbp at 21 3
108[mpeg2video @ 0x442ee00] invalid mb type in P Frame at 38 13
109[mpeg2video @ 0x442ee00] ac-tex damaged at 9 11
110[mpeg2video @ 0x442ee00] slice below image (75 >= 36)
111Error while decoding stream #0:0: Operation not permitted
112[mpeg2video @ 0x442ee00] ignoring pic cod ext after 0
113[mpeg2video @ 0x442ee00] Warning MVs not available
114[mpeg2video @ 0x442ee00] concealing 1620 DC, 1620 AC, 1620 MV errors
115frame=   34 fps= 21 q=0.0 size=       0kB time=00:00:01.36 bitrate=   0.0kbits/s dup=30 drop=0   
116concealing 1620 DC, 1620 AC, 1620 MV errors
117[mpeg2video @ 0x442ee00] concealing 1620 DC, 1620 AC, 1620 MV errors
118    Last message repeated 1 times
119frame=   37 fps= 17 q=0.0 size=       0kB time=00:00:01.48 bitrate=   0.0kbits/s dup=30 drop=0   
120ignoring pic cod ext after 0
121[mpeg2video @ 0x442ee00] concealing 1620 DC, 1620 AC, 1620 MV errors
122    Last message repeated 1 times
123[mpeg2video @ 0x442ee00] ignoring pic cod ext after 0
124[mpeg2video @ 0x442ee00] concealing 1620 DC, 1620 AC, 1620 MV errors
125frame=   40 fps= 15 q=0.0 size=       0kB time=00:00:01.60 bitrate=   0.0kbits/s dup=30 drop=0   
126slice below image (71 >= 36)
127Error while decoding stream #0:0: Operation not permitted
128[mpeg2video @ 0x442ee00] ignoring pic cod ext after 0
129[mpeg2video @ 0x442ee00] matrix damaged
130[mpeg2video @ 0x442ee00] sequence header damaged
131[mpeg2video @ 0x442ee00] ignoring pic cod ext after 0
132    Last message repeated 1 times
133[mpeg2video @ 0x442ee00] warning: first frame is no keyframe
134[mpeg2video @ 0x442ee00] 00 motion_type at 1 7
135[mpeg2video @ 0x442ee00] 00 motion_type at 22 11
136[mpeg2video @ 0x442ee00] slice mismatch
137[mpeg2video @ 0x442ee00] invalid mb type in B Frame at 6 15
138[mpeg2video @ 0x442ee00] slice mismatch
139[mpeg2video @ 0x442ee00] invalid cbp at 7 25
140[mpeg2video @ 0x442ee00] 00 motion_type at 10 29
141==13675== Invalid read of size 8
142==13675==    at 0x85C87C8: put_pixels8_mmx (dsputil_mmx.c:402)
143==13675==    by 0x8430699: mpeg_motion_internal (mpegvideo_common.h:352)
144==13675==    by 0x8430734: mpeg_motion (mpegvideo_common.h:370)
145==13675==    by 0x843183F: MPV_motion_internal (mpegvideo_common.h:835)
146==13675==    by 0x843D7FF: MPV_motion (mpegvideo_common.h:887)
147==13675==    by 0x843BD9A: MPV_decode_mb_internal (mpegvideo.c:2389)
148==13675==    by 0x843D990: ff_MPV_decode_mb (mpegvideo.c:2517)
149==13675==    by 0x8402F49: mpeg_decode_slice (mpeg12.c:1806)
150==13675==    by 0x8405150: decode_chunks (mpeg12.c:2533)
151==13675==    by 0x8404663: mpeg_decode_frame (mpeg12.c:2306)
152==13675==    by 0x853EBFB: avcodec_decode_video2 (utils.c:1485)
153==13675==    by 0x80530A2: decode_video (ffmpeg.c:2452)
154==13675==  Address 0x4ED7DA0 is not stack'd, malloc'd or (recently) free'd
155==13675==
156==13675== Invalid read of size 8
157==13675==    at 0x85C87CB: put_pixels8_mmx (dsputil_mmx.c:402)
158==13675==    by 0x8430699: mpeg_motion_internal (mpegvideo_common.h:352)
159==13675==    by 0x8430734: mpeg_motion (mpegvideo_common.h:370)
160==13675==    by 0x843183F: MPV_motion_internal (mpegvideo_common.h:835)
161==13675==    by 0x843D7FF: MPV_motion (mpegvideo_common.h:887)
162==13675==    by 0x843BD9A: MPV_decode_mb_internal (mpegvideo.c:2389)
163==13675==    by 0x843D990: ff_MPV_decode_mb (mpegvideo.c:2517)
164==13675==    by 0x8402F49: mpeg_decode_slice (mpeg12.c:1806)
165==13675==    by 0x8405150: decode_chunks (mpeg12.c:2533)
166==13675==    by 0x8404663: mpeg_decode_frame (mpeg12.c:2306)
167==13675==    by 0x853EBFB: avcodec_decode_video2 (utils.c:1485)
168==13675==    by 0x80530A2: decode_video (ffmpeg.c:2452)
169==13675==  Address 0x4ED80E0 is not stack'd, malloc'd or (recently) free'd
170==13675==
171==13675== Invalid read of size 8
172==13675==    at 0x85C87DA: put_pixels8_mmx (dsputil_mmx.c:402)
173==13675==    by 0x8430699: mpeg_motion_internal (mpegvideo_common.h:352)
174==13675==    by 0x8430734: mpeg_motion (mpegvideo_common.h:370)
175==13675==    by 0x843183F: MPV_motion_internal (mpegvideo_common.h:835)
176==13675==    by 0x843D7FF: MPV_motion (mpegvideo_common.h:887)
177==13675==    by 0x843BD9A: MPV_decode_mb_internal (mpegvideo.c:2389)
178==13675==    by 0x843D990: ff_MPV_decode_mb (mpegvideo.c:2517)
179==13675==    by 0x8402F49: mpeg_decode_slice (mpeg12.c:1806)
180==13675==    by 0x8405150: decode_chunks (mpeg12.c:2533)
181==13675==    by 0x8404663: mpeg_decode_frame (mpeg12.c:2306)
182==13675==    by 0x853EBFB: avcodec_decode_video2 (utils.c:1485)
183==13675==    by 0x80530A2: decode_video (ffmpeg.c:2452)
184==13675==  Address 0x4ED8420 is not stack'd, malloc'd or (recently) free'd
185==13675==
186==13675== Invalid read of size 8
187==13675==    at 0x85C87DD: put_pixels8_mmx (dsputil_mmx.c:402)
188==13675==    by 0x8430699: mpeg_motion_internal (mpegvideo_common.h:352)
189==13675==    by 0x8430734: mpeg_motion (mpegvideo_common.h:370)
190==13675==    by 0x843183F: MPV_motion_internal (mpegvideo_common.h:835)
191==13675==    by 0x843D7FF: MPV_motion (mpegvideo_common.h:887)
192==13675==    by 0x843BD9A: MPV_decode_mb_internal (mpegvideo.c:2389)
193==13675==    by 0x843D990: ff_MPV_decode_mb (mpegvideo.c:2517)
194==13675==    by 0x8402F49: mpeg_decode_slice (mpeg12.c:1806)
195==13675==    by 0x8405150: decode_chunks (mpeg12.c:2533)
196==13675==    by 0x8404663: mpeg_decode_frame (mpeg12.c:2306)
197==13675==    by 0x853EBFB: avcodec_decode_video2 (utils.c:1485)
198==13675==    by 0x80530A2: decode_video (ffmpeg.c:2452)
199==13675==  Address 0x4ED8760 is not stack'd, malloc'd or (recently) free'd
200[mpeg2video @ 0x442ee00] ac-tex damaged at 7 31
201[mpeg2video @ 0x442ee00] ac-tex damaged at 2 35
202[mpeg2video @ 0x442ee00] slice below image (39 >= 38)
203Error while decoding stream #0:0: Operation not permitted
204[mpeg2video @ 0x442ee00] mb incr damaged
205[mpeg2video @ 0x442ee00] slice mismatch
206[mpeg2video @ 0x442ee00] 00 motion_type at 4 11
207[mpeg2video @ 0x442ee00] 00 motion_type at 5 27
208[mpeg2video @ 0x442ee00] slice mismatch
209[mpeg2video @ 0x442ee00] 00 motion_type at 11 35
210[mpeg2video @ 0x442ee00] slice mismatch
211[mpeg2video @ 0x442ee00] slice below image (39 >= 38)
212Error while decoding stream #0:0: Operation not permitted
213[mpeg2video @ 0x442ee00] invalid mb type in B Frame at 1 1
214[mpeg2video @ 0x442ee00] 00 motion_type at 0 19
215[mpeg2video @ 0x442ee00] 00 motion_type at 7 25
216[mpeg2video @ 0x442ee00] ac-tex damaged at 0 13
217[mpeg2video @ 0x442ee00] mb incr damaged
218==13675==
219==13675== Invalid read of size 8
220==13675==    at 0x85C7EE8: put_pixels8_y2_mmx2 (dsputil_mmx_avg_template.c:634)
221==13675==    by 0x8430699: mpeg_motion_internal (mpegvideo_common.h:352)
222==13675==    by 0x8430734: mpeg_motion (mpegvideo_common.h:370)
223==13675==    by 0x8431731: MPV_motion_internal (mpegvideo_common.h:818)
224==13675==    by 0x843D7FF: MPV_motion (mpegvideo_common.h:887)
225==13675==    by 0x843BD30: MPV_decode_mb_internal (mpegvideo.c:2384)
226==13675==    by 0x843D990: ff_MPV_decode_mb (mpegvideo.c:2517)
227==13675==    by 0x8402F49: mpeg_decode_slice (mpeg12.c:1806)
228==13675==    by 0x8405150: decode_chunks (mpeg12.c:2533)
229==13675==    by 0x8404663: mpeg_decode_frame (mpeg12.c:2306)
230==13675==    by 0x853EBFB: avcodec_decode_video2 (utils.c:1485)
231==13675==    by 0x80530A2: decode_video (ffmpeg.c:2452)
232==13675==  Address 0x4DDAE88 is not stack'd, malloc'd or (recently) free'd
233==13675==
234==13675== Invalid read of size 8
235==13675==    at 0x85C7EED: put_pixels8_y2_mmx2 (dsputil_mmx_avg_template.c:634)
236==13675==    by 0x8430699: mpeg_motion_internal (mpegvideo_common.h:352)
237==13675==    by 0x8430734: mpeg_motion (mpegvideo_common.h:370)
238==13675==    by 0x8431731: MPV_motion_internal (mpegvideo_common.h:818)
239==13675==    by 0x843D7FF: MPV_motion (mpegvideo_common.h:887)
240==13675==    by 0x843BD30: MPV_decode_mb_internal (mpegvideo.c:2384)
241==13675==    by 0x843D990: ff_MPV_decode_mb (mpegvideo.c:2517)
242==13675==    by 0x8402F49: mpeg_decode_slice (mpeg12.c:1806)
243==13675==    by 0x8405150: decode_chunks (mpeg12.c:2533)
244==13675==    by 0x8404663: mpeg_decode_frame (mpeg12.c:2306)
245==13675==    by 0x853EBFB: avcodec_decode_video2 (utils.c:1485)
246==13675==    by 0x80530A2: decode_video (ffmpeg.c:2452)
247==13675==  Address 0x4DDB1C8 is not stack'd, malloc'd or (recently) free'd
248==13675==
249==13675== Invalid read of size 8
250==13675==    at 0x85C7EF1: put_pixels8_y2_mmx2 (dsputil_mmx_avg_template.c:634)
251==13675==    by 0x8430699: mpeg_motion_internal (mpegvideo_common.h:352)
252==13675==    by 0x8430734: mpeg_motion (mpegvideo_common.h:370)
253==13675==    by 0x8431731: MPV_motion_internal (mpegvideo_common.h:818)
254==13675==    by 0x843D7FF: MPV_motion (mpegvideo_common.h:887)
255==13675==    by 0x843BD30: MPV_decode_mb_internal (mpegvideo.c:2384)
256==13675==    by 0x843D990: ff_MPV_decode_mb (mpegvideo.c:2517)
257==13675==    by 0x8402F49: mpeg_decode_slice (mpeg12.c:1806)
258==13675==    by 0x8405150: decode_chunks (mpeg12.c:2533)
259==13675==    by 0x8404663: mpeg_decode_frame (mpeg12.c:2306)
260==13675==    by 0x853EBFB: avcodec_decode_video2 (utils.c:1485)
261==13675==    by 0x80530A2: decode_video (ffmpeg.c:2452)
262==13675==  Address 0x4DDB508 is not stack'd, malloc'd or (recently) free'd
263==13675==
264==13675== Invalid read of size 8
265==13675==    at 0x85C7F05: put_pixels8_y2_mmx2 (dsputil_mmx_avg_template.c:634)
266==13675==    by 0x8430699: mpeg_motion_internal (mpegvideo_common.h:352)
267==13675==    by 0x8430734: mpeg_motion (mpegvideo_common.h:370)
268==13675==    by 0x8431731: MPV_motion_internal (mpegvideo_common.h:818)
269==13675==    by 0x843D7FF: MPV_motion (mpegvideo_common.h:887)
270==13675==    by 0x843BD30: MPV_decode_mb_internal (mpegvideo.c:2384)
271==13675==    by 0x843D990: ff_MPV_decode_mb (mpegvideo.c:2517)
272==13675==    by 0x8402F49: mpeg_decode_slice (mpeg12.c:1806)
273==13675==    by 0x8405150: decode_chunks (mpeg12.c:2533)
274==13675==    by 0x8404663: mpeg_decode_frame (mpeg12.c:2306)
275==13675==    by 0x853EBFB: avcodec_decode_video2 (utils.c:1485)
276==13675==    by 0x80530A2: decode_video (ffmpeg.c:2452)
277==13675==  Address 0x4DDB848 is not stack'd, malloc'd or (recently) free'd
278==13675==
279==13675== Invalid read of size 8
280==13675==    at 0x85C7F09: put_pixels8_y2_mmx2 (dsputil_mmx_avg_template.c:634)
281==13675==    by 0x8430699: mpeg_motion_internal (mpegvideo_common.h:352)
282==13675==    by 0x8430734: mpeg_motion (mpegvideo_common.h:370)
283==13675==    by 0x8431731: MPV_motion_internal (mpegvideo_common.h:818)
284==13675==    by 0x843D7FF: MPV_motion (mpegvideo_common.h:887)
285==13675==    by 0x843BD30: MPV_decode_mb_internal (mpegvideo.c:2384)
286==13675==    by 0x843D990: ff_MPV_decode_mb (mpegvideo.c:2517)
287==13675==    by 0x8402F49: mpeg_decode_slice (mpeg12.c:1806)
288==13675==    by 0x8405150: decode_chunks (mpeg12.c:2533)
289==13675==    by 0x8404663: mpeg_decode_frame (mpeg12.c:2306)
290==13675==    by 0x853EBFB: avcodec_decode_video2 (utils.c:1485)
291==13675==    by 0x80530A2: decode_video (ffmpeg.c:2452)
292==13675==  Address 0x4DDBB88 is not stack'd, malloc'd or (recently) free'd
293[mpeg2video @ 0x442ee00] 00 motion_type at 9 19
294[mpeg2video @ 0x442ee00] 00 motion_type at 6 23
295[mpeg2video @ 0x442ee00] 00 motion_type at 2 25
296[mpeg2video @ 0x442ee00] ac-tex damaged at 5 15
297[mpeg2video @ 0x442ee00] invalid cbp at 1 29
298[mpeg2video @ 0x442ee00] slice below image (45 >= 38)
299Error while decoding stream #0:0: Operation not permitted
300[mpeg2video @ 0x442ee00] ignoring pic cod ext after 0
301[mpeg2video @ 0x442ee00] Missing picture start code
302    Last message repeated 9 times
303[mpeg2video @ 0x442ee00] slice below image (287 >= 38)
304Error while decoding stream #0:0: Operation not permitted
305[mpeg2video @ 0x442ee00] 00 motion_type at 0 3
306[mpeg2video @ 0x442ee00] 00 motion_type at 9 5
307[mpeg2video @ 0x442ee00] mb incr damaged
308[mpeg2video @ 0x442ee00] ac-tex damaged at 1 3
309[mpeg2video @ 0x442ee00] invalid mb type in B Frame at 3 21
310[mpeg2video @ 0x442ee00] 00 motion_type at 36 23
311==13675==
312==13675== Invalid read of size 8
313==13675==    at 0x85C887E: put_pixels16_sse2 (dsputil_mmx.c:464)
314==13675==    by 0x843061B: mpeg_motion_internal (mpegvideo_common.h:347)
315==13675==    by 0x8430734: mpeg_motion (mpegvideo_common.h:370)
316==13675==    by 0x843183F: MPV_motion_internal (mpegvideo_common.h:835)
317==13675==    by 0x843D7FF: MPV_motion (mpegvideo_common.h:887)
318==13675==    by 0x843BD30: MPV_decode_mb_internal (mpegvideo.c:2384)
319==13675==    by 0x843D990: ff_MPV_decode_mb (mpegvideo.c:2517)
320==13675==    by 0x8402F49: mpeg_decode_slice (mpeg12.c:1806)
321==13675==    by 0x8405150: decode_chunks (mpeg12.c:2533)
322==13675==    by 0x8404663: mpeg_decode_frame (mpeg12.c:2306)
323==13675==    by 0x853EBFB: avcodec_decode_video2 (utils.c:1485)
324==13675==    by 0x80530A2: decode_video (ffmpeg.c:2452)
325==13675==  Address 0x4DF9D70 is not stack'd, malloc'd or (recently) free'd
326==13675==
327==13675== Invalid read of size 8
328==13675==    at 0x85C8882: put_pixels16_sse2 (dsputil_mmx.c:464)
329==13675==    by 0x843061B: mpeg_motion_internal (mpegvideo_common.h:347)
330==13675==    by 0x8430734: mpeg_motion (mpegvideo_common.h:370)
331==13675==    by 0x843183F: MPV_motion_internal (mpegvideo_common.h:835)
332==13675==    by 0x843D7FF: MPV_motion (mpegvideo_common.h:887)
333==13675==    by 0x843BD30: MPV_decode_mb_internal (mpegvideo.c:2384)
334==13675==    by 0x843D990: ff_MPV_decode_mb (mpegvideo.c:2517)
335==13675==    by 0x8402F49: mpeg_decode_slice (mpeg12.c:1806)
336==13675==    by 0x8405150: decode_chunks (mpeg12.c:2533)
337==13675==    by 0x8404663: mpeg_decode_frame (mpeg12.c:2306)
338==13675==    by 0x853EBFB: avcodec_decode_video2 (utils.c:1485)
339==13675==    by 0x80530A2: decode_video (ffmpeg.c:2452)
340==13675==  Address 0x4DFA3B0 is not stack'd, malloc'd or (recently) free'd
341==13675==
342==13675== Invalid read of size 8
343==13675==    at 0x85C8887: put_pixels16_sse2 (dsputil_mmx.c:464)
344==13675==    by 0x843061B: mpeg_motion_internal (mpegvideo_common.h:347)
345==13675==    by 0x8430734: mpeg_motion (mpegvideo_common.h:370)
346==13675==    by 0x843183F: MPV_motion_internal (mpegvideo_common.h:835)
347==13675==    by 0x843D7FF: MPV_motion (mpegvideo_common.h:887)
348==13675==    by 0x843BD30: MPV_decode_mb_internal (mpegvideo.c:2384)
349==13675==    by 0x843D990: ff_MPV_decode_mb (mpegvideo.c:2517)
350==13675==    by 0x8402F49: mpeg_decode_slice (mpeg12.c:1806)
351==13675==    by 0x8405150: decode_chunks (mpeg12.c:2533)
352==13675==    by 0x8404663: mpeg_decode_frame (mpeg12.c:2306)
353==13675==    by 0x853EBFB: avcodec_decode_video2 (utils.c:1485)
354==13675==    by 0x80530A2: decode_video (ffmpeg.c:2452)
355==13675==  Address 0x4DFA9F0 is not stack'd, malloc'd or (recently) free'd
356==13675==
357==13675== Invalid read of size 8
358==13675==    at 0x85C888C: put_pixels16_sse2 (dsputil_mmx.c:464)
359==13675==    by 0x843061B: mpeg_motion_internal (mpegvideo_common.h:347)
360==13675==    by 0x8430734: mpeg_motion (mpegvideo_common.h:370)
361==13675==    by 0x843183F: MPV_motion_internal (mpegvideo_common.h:835)
362==13675==    by 0x843D7FF: MPV_motion (mpegvideo_common.h:887)
363==13675==    by 0x843BD30: MPV_decode_mb_internal (mpegvideo.c:2384)
364==13675==    by 0x843D990: ff_MPV_decode_mb (mpegvideo.c:2517)
365==13675==    by 0x8402F49: mpeg_decode_slice (mpeg12.c:1806)
366==13675==    by 0x8405150: decode_chunks (mpeg12.c:2533)
367==13675==    by 0x8404663: mpeg_decode_frame (mpeg12.c:2306)
368==13675==    by 0x853EBFB: avcodec_decode_video2 (utils.c:1485)
369==13675==    by 0x80530A2: decode_video (ffmpeg.c:2452)
370==13675==  Address 0x4DFB030 is not stack'd, malloc'd or (recently) free'd
371==13675==
372==13675== Invalid read of size 8
373==13675==    at 0x85C7EE8: put_pixels8_y2_mmx2 (dsputil_mmx_avg_template.c:634)
374==13675==    by 0x8430699: mpeg_motion_internal (mpegvideo_common.h:352)
375==13675==    by 0x8430734: mpeg_motion (mpegvideo_common.h:370)
376==13675==    by 0x843183F: MPV_motion_internal (mpegvideo_common.h:835)
377==13675==    by 0x843D7FF: MPV_motion (mpegvideo_common.h:887)
378==13675==    by 0x843BD30: MPV_decode_mb_internal (mpegvideo.c:2384)
379==13675==    by 0x843D990: ff_MPV_decode_mb (mpegvideo.c:2517)
380==13675==    by 0x8402F49: mpeg_decode_slice (mpeg12.c:1806)
381==13675==    by 0x8405150: decode_chunks (mpeg12.c:2533)
382==13675==    by 0x8404663: mpeg_decode_frame (mpeg12.c:2306)
383==13675==    by 0x853EBFB: avcodec_decode_video2 (utils.c:1485)
384==13675==    by 0x80530A2: decode_video (ffmpeg.c:2452)
385==13675==  Address 0x4DF15D8 is not stack'd, malloc'd or (recently) free'd
386==13675==
387==13675== Invalid read of size 8
388==13675==    at 0x85C7EED: put_pixels8_y2_mmx2 (dsputil_mmx_avg_template.c:634)
389==13675==    by 0x8430699: mpeg_motion_internal (mpegvideo_common.h:352)
390==13675==    by 0x8430734: mpeg_motion (mpegvideo_common.h:370)
391==13675==    by 0x843183F: MPV_motion_internal (mpegvideo_common.h:835)
392==13675==    by 0x843D7FF: MPV_motion (mpegvideo_common.h:887)
393==13675==    by 0x843BD30: MPV_decode_mb_internal (mpegvideo.c:2384)
394==13675==    by 0x843D990: ff_MPV_decode_mb (mpegvideo.c:2517)
395==13675==    by 0x8402F49: mpeg_decode_slice (mpeg12.c:1806)
396==13675==    by 0x8405150: decode_chunks (mpeg12.c:2533)
397==13675==    by 0x8404663: mpeg_decode_frame (mpeg12.c:2306)
398==13675==    by 0x853EBFB: avcodec_decode_video2 (utils.c:1485)
399==13675==    by 0x80530A2: decode_video (ffmpeg.c:2452)
400==13675==  Address 0x4DF1918 is not stack'd, malloc'd or (recently) free'd
401==13675==
402==13675== Invalid read of size 8
403==13675==    at 0x85C7EF1: put_pixels8_y2_mmx2 (dsputil_mmx_avg_template.c:634)
404==13675==    by 0x8430699: mpeg_motion_internal (mpegvideo_common.h:352)
405==13675==    by 0x8430734: mpeg_motion (mpegvideo_common.h:370)
406==13675==    by 0x843183F: MPV_motion_internal (mpegvideo_common.h:835)
407==13675==    by 0x843D7FF: MPV_motion (mpegvideo_common.h:887)
408==13675==    by 0x843BD30: MPV_decode_mb_internal (mpegvideo.c:2384)
409==13675==    by 0x843D990: ff_MPV_decode_mb (mpegvideo.c:2517)
410==13675==    by 0x8402F49: mpeg_decode_slice (mpeg12.c:1806)
411==13675==    by 0x8405150: decode_chunks (mpeg12.c:2533)
412==13675==    by 0x8404663: mpeg_decode_frame (mpeg12.c:2306)
413==13675==    by 0x853EBFB: avcodec_decode_video2 (utils.c:1485)
414==13675==    by 0x80530A2: decode_video (ffmpeg.c:2452)
415==13675==  Address 0x4DF1C58 is not stack'd, malloc'd or (recently) free'd
416==13675==
417==13675== Invalid read of size 8
418==13675==    at 0x85C7F05: put_pixels8_y2_mmx2 (dsputil_mmx_avg_template.c:634)
419==13675==    by 0x8430699: mpeg_motion_internal (mpegvideo_common.h:352)
420==13675==    by 0x8430734: mpeg_motion (mpegvideo_common.h:370)
421==13675==    by 0x843183F: MPV_motion_internal (mpegvideo_common.h:835)
422==13675==    by 0x843D7FF: MPV_motion (mpegvideo_common.h:887)
423==13675==    by 0x843BD30: MPV_decode_mb_internal (mpegvideo.c:2384)
424==13675==    by 0x843D990: ff_MPV_decode_mb (mpegvideo.c:2517)
425==13675==    by 0x8402F49: mpeg_decode_slice (mpeg12.c:1806)
426==13675==    by 0x8405150: decode_chunks (mpeg12.c:2533)
427==13675==    by 0x8404663: mpeg_decode_frame (mpeg12.c:2306)
428==13675==    by 0x853EBFB: avcodec_decode_video2 (utils.c:1485)
429==13675==    by 0x80530A2: decode_video (ffmpeg.c:2452)
430==13675==  Address 0x4DF1F98 is not stack'd, malloc'd or (recently) free'd
431==13675==
432==13675== Invalid read of size 8
433==13675==    at 0x85C7F09: put_pixels8_y2_mmx2 (dsputil_mmx_avg_template.c:634)
434==13675==    by 0x8430699: mpeg_motion_internal (mpegvideo_common.h:352)
435==13675==    by 0x8430734: mpeg_motion (mpegvideo_common.h:370)
436==13675==    by 0x843183F: MPV_motion_internal (mpegvideo_common.h:835)
437==13675==    by 0x843D7FF: MPV_motion (mpegvideo_common.h:887)
438==13675==    by 0x843BD30: MPV_decode_mb_internal (mpegvideo.c:2384)
439==13675==    by 0x843D990: ff_MPV_decode_mb (mpegvideo.c:2517)
440==13675==    by 0x8402F49: mpeg_decode_slice (mpeg12.c:1806)
441==13675==    by 0x8405150: decode_chunks (mpeg12.c:2533)
442==13675==    by 0x8404663: mpeg_decode_frame (mpeg12.c:2306)
443==13675==    by 0x853EBFB: avcodec_decode_video2 (utils.c:1485)
444==13675==    by 0x80530A2: decode_video (ffmpeg.c:2452)
445==13675==  Address 0x4DF22D8 is not stack'd, malloc'd or (recently) free'd
446==13675==
447==13675== Invalid read of size 8
448==13675==    at 0x85C887E: put_pixels16_sse2 (dsputil_mmx.c:464)
449==13675==    by 0x843061B: mpeg_motion_internal (mpegvideo_common.h:347)
450==13675==    by 0x8430734: mpeg_motion (mpegvideo_common.h:370)
451==13675==    by 0x8431731: MPV_motion_internal (mpegvideo_common.h:818)
452==13675==    by 0x843D7FF: MPV_motion (mpegvideo_common.h:887)
453==13675==    by 0x843BD30: MPV_decode_mb_internal (mpegvideo.c:2384)
454==13675==    by 0x843D990: ff_MPV_decode_mb (mpegvideo.c:2517)
455==13675==    by 0x8402F49: mpeg_decode_slice (mpeg12.c:1806)
456==13675==    by 0x8405150: decode_chunks (mpeg12.c:2533)
457==13675==    by 0x8404663: mpeg_decode_frame (mpeg12.c:2306)
458==13675==    by 0x853EBFB: avcodec_decode_video2 (utils.c:1485)
459==13675==    by 0x80530A2: decode_video (ffmpeg.c:2452)
460==13675==  Address 0x4DF9D80 is not stack'd, malloc'd or (recently) free'd
461==13675==
462==13675== Invalid read of size 8
463==13675==    at 0x85C8882: put_pixels16_sse2 (dsputil_mmx.c:464)
464==13675==    by 0x843061B: mpeg_motion_internal (mpegvideo_common.h:347)
465==13675==    by 0x8430734: mpeg_motion (mpegvideo_common.h:370)
466==13675==    by 0x8431731: MPV_motion_internal (mpegvideo_common.h:818)
467==13675==    by 0x843D7FF: MPV_motion (mpegvideo_common.h:887)
468==13675==    by 0x843BD30: MPV_decode_mb_internal (mpegvideo.c:2384)
469==13675==    by 0x843D990: ff_MPV_decode_mb (mpegvideo.c:2517)
470==13675==    by 0x8402F49: mpeg_decode_slice (mpeg12.c:1806)
471==13675==    by 0x8405150: decode_chunks (mpeg12.c:2533)
472==13675==    by 0x8404663: mpeg_decode_frame (mpeg12.c:2306)
473==13675==    by 0x853EBFB: avcodec_decode_video2 (utils.c:1485)
474==13675==    by 0x80530A2: decode_video (ffmpeg.c:2452)
475==13675==  Address 0x4DFA3C0 is not stack'd, malloc'd or (recently) free'd
476==13675==
477==13675== Invalid read of size 8
478==13675==    at 0x85C8887: put_pixels16_sse2 (dsputil_mmx.c:464)
479==13675==    by 0x843061B: mpeg_motion_internal (mpegvideo_common.h:347)
480==13675==    by 0x8430734: mpeg_motion (mpegvideo_common.h:370)
481==13675==    by 0x8431731: MPV_motion_internal (mpegvideo_common.h:818)
482==13675==    by 0x843D7FF: MPV_motion (mpegvideo_common.h:887)
483==13675==    by 0x843BD30: MPV_decode_mb_internal (mpegvideo.c:2384)
484==13675==    by 0x843D990: ff_MPV_decode_mb (mpegvideo.c:2517)
485==13675==    by 0x8402F49: mpeg_decode_slice (mpeg12.c:1806)
486==13675==    by 0x8405150: decode_chunks (mpeg12.c:2533)
487==13675==    by 0x8404663: mpeg_decode_frame (mpeg12.c:2306)
488==13675==    by 0x853EBFB: avcodec_decode_video2 (utils.c:1485)
489==13675==    by 0x80530A2: decode_video (ffmpeg.c:2452)
490==13675==  Address 0x4DFAA00 is not stack'd, malloc'd or (recently) free'd
491==13675==
492==13675== Invalid read of size 8
493==13675==    at 0x85C888C: put_pixels16_sse2 (dsputil_mmx.c:464)
494==13675==    by 0x843061B: mpeg_motion_internal (mpegvideo_common.h:347)
495==13675==    by 0x8430734: mpeg_motion (mpegvideo_common.h:370)
496==13675==    by 0x8431731: MPV_motion_internal (mpegvideo_common.h:818)
497==13675==    by 0x843D7FF: MPV_motion (mpegvideo_common.h:887)
498==13675==    by 0x843BD30: MPV_decode_mb_internal (mpegvideo.c:2384)
499==13675==    by 0x843D990: ff_MPV_decode_mb (mpegvideo.c:2517)
500==13675==    by 0x8402F49: mpeg_decode_slice (mpeg12.c:1806)
501==13675==    by 0x8405150: decode_chunks (mpeg12.c:2533)
502==13675==    by 0x8404663: mpeg_decode_frame (mpeg12.c:2306)
503==13675==    by 0x853EBFB: avcodec_decode_video2 (utils.c:1485)
504==13675==    by 0x80530A2: decode_video (ffmpeg.c:2452)
505==13675==  Address 0x4DFB040 is not stack'd, malloc'd or (recently) free'd
506[mpeg2video @ 0x442ee00] invalid mb type in B Frame at 15 29
507[mpeg2video @ 0x442ee00] 00 motion_type at 6 31
508[mpeg2video @ 0x442ee00] 00 motion_type at 1 33
509[mpeg2video @ 0x442ee00] ac-tex damaged at 2 37
510[mpeg2video @ 0x442ee00] slice below image (49 >= 38)
511Error while decoding stream #0:0: Operation not permitted
512[mpeg2video @ 0x442ee00] 00 motion_type at 1 7
513[mpeg2video @ 0x442ee00] ac-tex damaged at 1 9
514[mpeg2video @ 0x442ee00] mb incr damaged
515[mpeg2video @ 0x442ee00] ac-tex damaged at 6 15
516[mpeg2video @ 0x442ee00] 00 motion_type at 6 15
517[mpeg2video @ 0x442ee00] mb incr damaged
518[mpeg2video @ 0x442ee00] 00 motion_type at 26 23
519[mpeg2video @ 0x442ee00] 00 motion_type at 32 29
520[mpeg2video @ 0x442ee00] slice mismatch
521==13675==
522==13675== Invalid read of size 8
523==13675==    at 0x85C773D: put_pixels8_x2_mmx2 (dsputil_mmx_avg_template.c:32)
524==13675==    by 0x8430699: mpeg_motion_internal (mpegvideo_common.h:352)
525==13675==    by 0x8430734: mpeg_motion (mpegvideo_common.h:370)
526==13675==    by 0x843183F: MPV_motion_internal (mpegvideo_common.h:835)
527==13675==    by 0x843D7FF: MPV_motion (mpegvideo_common.h:887)
528==13675==    by 0x843BD30: MPV_decode_mb_internal (mpegvideo.c:2384)
529==13675==    by 0x843D990: ff_MPV_decode_mb (mpegvideo.c:2517)
530==13675==    by 0x8402F49: mpeg_decode_slice (mpeg12.c:1806)
531==13675==    by 0x8405150: decode_chunks (mpeg12.c:2533)
532==13675==    by 0x8404663: mpeg_decode_frame (mpeg12.c:2306)
533==13675==    by 0x853EBFB: avcodec_decode_video2 (utils.c:1485)
534==13675==    by 0x80530A2: decode_video (ffmpeg.c:2452)
535==13675==  Address 0x4DE0634 is not stack'd, malloc'd or (recently) free'd
536==13675==
537==13675== Invalid read of size 8
538==13675==    at 0x85C7740: put_pixels8_x2_mmx2 (dsputil_mmx_avg_template.c:32)
539==13675==    by 0x8430699: mpeg_motion_internal (mpegvideo_common.h:352)
540==13675==    by 0x8430734: mpeg_motion (mpegvideo_common.h:370)
541==13675==    by 0x843183F: MPV_motion_internal (mpegvideo_common.h:835)
542==13675==    by 0x843D7FF: MPV_motion (mpegvideo_common.h:887)
543==13675==    by 0x843BD30: MPV_decode_mb_internal (mpegvideo.c:2384)
544==13675==    by 0x843D990: ff_MPV_decode_mb (mpegvideo.c:2517)
545==13675==    by 0x8402F49: mpeg_decode_slice (mpeg12.c:1806)
546==13675==    by 0x8405150: decode_chunks (mpeg12.c:2533)
547==13675==    by 0x8404663: mpeg_decode_frame (mpeg12.c:2306)
548==13675==    by 0x853EBFB: avcodec_decode_video2 (utils.c:1485)
549==13675==    by 0x80530A2: decode_video (ffmpeg.c:2452)
550==13675==  Address 0x4DE0974 is not stack'd, malloc'd or (recently) free'd
551==13675==
552==13675== Invalid read of size 8
553==13675==    at 0x85C7744: put_pixels8_x2_mmx2 (dsputil_mmx_avg_template.c:32)
554==13675==    by 0x8430699: mpeg_motion_internal (mpegvideo_common.h:352)
555==13675==    by 0x8430734: mpeg_motion (mpegvideo_common.h:370)
556==13675==    by 0x843183F: MPV_motion_internal (mpegvideo_common.h:835)
557==13675==    by 0x843D7FF: MPV_motion (mpegvideo_common.h:887)
558==13675==    by 0x843BD30: MPV_decode_mb_internal (mpegvideo.c:2384)
559==13675==    by 0x843D990: ff_MPV_decode_mb (mpegvideo.c:2517)
560==13675==    by 0x8402F49: mpeg_decode_slice (mpeg12.c:1806)
561==13675==    by 0x8405150: decode_chunks (mpeg12.c:2533)
562==13675==    by 0x8404663: mpeg_decode_frame (mpeg12.c:2306)
563==13675==    by 0x853EBFB: avcodec_decode_video2 (utils.c:1485)
564==13675==    by 0x80530A2: decode_video (ffmpeg.c:2452)
565==13675==  Address 0x4DE0635 is not stack'd, malloc'd or (recently) free'd
566==13675==
567==13675== Invalid read of size 8
568==13675==    at 0x85C7748: put_pixels8_x2_mmx2 (dsputil_mmx_avg_template.c:32)
569==13675==    by 0x8430699: mpeg_motion_internal (mpegvideo_common.h:352)
570==13675==    by 0x8430734: mpeg_motion (mpegvideo_common.h:370)
571==13675==    by 0x843183F: MPV_motion_internal (mpegvideo_common.h:835)
572==13675==    by 0x843D7FF: MPV_motion (mpegvideo_common.h:887)
573==13675==    by 0x843BD30: MPV_decode_mb_internal (mpegvideo.c:2384)
574==13675==    by 0x843D990: ff_MPV_decode_mb (mpegvideo.c:2517)
575==13675==    by 0x8402F49: mpeg_decode_slice (mpeg12.c:1806)
576==13675==    by 0x8405150: decode_chunks (mpeg12.c:2533)
577==13675==    by 0x8404663: mpeg_decode_frame (mpeg12.c:2306)
578==13675==    by 0x853EBFB: avcodec_decode_video2 (utils.c:1485)
579==13675==    by 0x80530A2: decode_video (ffmpeg.c:2452)
580==13675==  Address 0x4DE0975 is not stack'd, malloc'd or (recently) free'd
581==13675==
582==13675== Invalid read of size 8
583==13675==    at 0x85C7758: put_pixels8_x2_mmx2 (dsputil_mmx_avg_template.c:32)
584==13675==    by 0x8430699: mpeg_motion_internal (mpegvideo_common.h:352)
585==13675==    by 0x8430734: mpeg_motion (mpegvideo_common.h:370)
586==13675==    by 0x843183F: MPV_motion_internal (mpegvideo_common.h:835)
587==13675==    by 0x843D7FF: MPV_motion (mpegvideo_common.h:887)
588==13675==    by 0x843BD30: MPV_decode_mb_internal (mpegvideo.c:2384)
589==13675==    by 0x843D990: ff_MPV_decode_mb (mpegvideo.c:2517)
590==13675==    by 0x8402F49: mpeg_decode_slice (mpeg12.c:1806)
591==13675==    by 0x8405150: decode_chunks (mpeg12.c:2533)
592==13675==    by 0x8404663: mpeg_decode_frame (mpeg12.c:2306)
593==13675==    by 0x853EBFB: avcodec_decode_video2 (utils.c:1485)
594==13675==    by 0x80530A2: decode_video (ffmpeg.c:2452)
595==13675==  Address 0x4DE0CB4 is not stack'd, malloc'd or (recently) free'd
596==13675==
597==13675== Invalid read of size 8
598==13675==    at 0x85C775B: put_pixels8_x2_mmx2 (dsputil_mmx_avg_template.c:32)
599==13675==    by 0x8430699: mpeg_motion_internal (mpegvideo_common.h:352)
600==13675==    by 0x8430734: mpeg_motion (mpegvideo_common.h:370)
601==13675==    by 0x843183F: MPV_motion_internal (mpegvideo_common.h:835)
602==13675==    by 0x843D7FF: MPV_motion (mpegvideo_common.h:887)
603==13675==    by 0x843BD30: MPV_decode_mb_internal (mpegvideo.c:2384)
604==13675==    by 0x843D990: ff_MPV_decode_mb (mpegvideo.c:2517)
605==13675==    by 0x8402F49: mpeg_decode_slice (mpeg12.c:1806)
606==13675==    by 0x8405150: decode_chunks (mpeg12.c:2533)
607==13675==    by 0x8404663: mpeg_decode_frame (mpeg12.c:2306)
608==13675==    by 0x853EBFB: avcodec_decode_video2 (utils.c:1485)
609==13675==    by 0x80530A2: decode_video (ffmpeg.c:2452)
610==13675==  Address 0x4DE0FF4 is not stack'd, malloc'd or (recently) free'd
611==13675==
612==13675== Invalid read of size 8
613==13675==    at 0x85C775F: put_pixels8_x2_mmx2 (dsputil_mmx_avg_template.c:32)
614==13675==    by 0x8430699: mpeg_motion_internal (mpegvideo_common.h:352)
615==13675==    by 0x8430734: mpeg_motion (mpegvideo_common.h:370)
616==13675==    by 0x843183F: MPV_motion_internal (mpegvideo_common.h:835)
617==13675==    by 0x843D7FF: MPV_motion (mpegvideo_common.h:887)
618==13675==    by 0x843BD30: MPV_decode_mb_internal (mpegvideo.c:2384)
619==13675==    by 0x843D990: ff_MPV_decode_mb (mpegvideo.c:2517)
620==13675==    by 0x8402F49: mpeg_decode_slice (mpeg12.c:1806)
621==13675==    by 0x8405150: decode_chunks (mpeg12.c:2533)
622==13675==    by 0x8404663: mpeg_decode_frame (mpeg12.c:2306)
623==13675==    by 0x853EBFB: avcodec_decode_video2 (utils.c:1485)
624==13675==    by 0x80530A2: decode_video (ffmpeg.c:2452)
625==13675==  Address 0x4DE0CB5 is not stack'd, malloc'd or (recently) free'd
626==13675==
627==13675== Invalid read of size 8
628==13675==    at 0x85C7763: put_pixels8_x2_mmx2 (dsputil_mmx_avg_template.c:32)
629==13675==    by 0x8430699: mpeg_motion_internal (mpegvideo_common.h:352)
630==13675==    by 0x8430734: mpeg_motion (mpegvideo_common.h:370)
631==13675==    by 0x843183F: MPV_motion_internal (mpegvideo_common.h:835)
632==13675==    by 0x843D7FF: MPV_motion (mpegvideo_common.h:887)
633==13675==    by 0x843BD30: MPV_decode_mb_internal (mpegvideo.c:2384)
634==13675==    by 0x843D990: ff_MPV_decode_mb (mpegvideo.c:2517)
635==13675==    by 0x8402F49: mpeg_decode_slice (mpeg12.c:1806)
636==13675==    by 0x8405150: decode_chunks (mpeg12.c:2533)
637==13675==    by 0x8404663: mpeg_decode_frame (mpeg12.c:2306)
638==13675==    by 0x853EBFB: avcodec_decode_video2 (utils.c:1485)
639==13675==    by 0x80530A2: decode_video (ffmpeg.c:2452)
640==13675==  Address 0x4DE0FF5 is not stack'd, malloc'd or (recently) free'd
641==13675==
642==13675== Invalid read of size 8
643==13675==    at 0x85C773D: put_pixels8_x2_mmx2 (dsputil_mmx_avg_template.c:32)
644==13675==    by 0x8430699: mpeg_motion_internal (mpegvideo_common.h:352)
645==13675==    by 0x8430734: mpeg_motion (mpegvideo_common.h:370)
646==13675==    by 0x8431731: MPV_motion_internal (mpegvideo_common.h:818)
647==13675==    by 0x843D7FF: MPV_motion (mpegvideo_common.h:887)
648==13675==    by 0x843BD30: MPV_decode_mb_internal (mpegvideo.c:2384)
649==13675==    by 0x843D990: ff_MPV_decode_mb (mpegvideo.c:2517)
650==13675==    by 0x8402F49: mpeg_decode_slice (mpeg12.c:1806)
651==13675==    by 0x8405150: decode_chunks (mpeg12.c:2533)
652==13675==    by 0x8404663: mpeg_decode_frame (mpeg12.c:2306)
653==13675==    by 0x853EBFB: avcodec_decode_video2 (utils.c:1485)
654==13675==    by 0x80530A2: decode_video (ffmpeg.c:2452)
655==13675==  Address 0x4DE063C is not stack'd, malloc'd or (recently) free'd
656==13675==
657==13675== Invalid read of size 8
658==13675==    at 0x85C7740: put_pixels8_x2_mmx2 (dsputil_mmx_avg_template.c:32)
659==13675==    by 0x8430699: mpeg_motion_internal (mpegvideo_common.h:352)
660==13675==    by 0x8430734: mpeg_motion (mpegvideo_common.h:370)
661==13675==    by 0x8431731: MPV_motion_internal (mpegvideo_common.h:818)
662==13675==    by 0x843D7FF: MPV_motion (mpegvideo_common.h:887)
663==13675==    by 0x843BD30: MPV_decode_mb_internal (mpegvideo.c:2384)
664==13675==    by 0x843D990: ff_MPV_decode_mb (mpegvideo.c:2517)
665==13675==    by 0x8402F49: mpeg_decode_slice (mpeg12.c:1806)
666==13675==    by 0x8405150: decode_chunks (mpeg12.c:2533)
667==13675==    by 0x8404663: mpeg_decode_frame (mpeg12.c:2306)
668==13675==    by 0x853EBFB: avcodec_decode_video2 (utils.c:1485)
669==13675==    by 0x80530A2: decode_video (ffmpeg.c:2452)
670==13675==  Address 0x4DE097C is not stack'd, malloc'd or (recently) free'd
671==13675==
672==13675== Invalid read of size 8
673==13675==    at 0x85C7744: put_pixels8_x2_mmx2 (dsputil_mmx_avg_template.c:32)
674==13675==    by 0x8430699: mpeg_motion_internal (mpegvideo_common.h:352)
675==13675==    by 0x8430734: mpeg_motion (mpegvideo_common.h:370)
676==13675==    by 0x8431731: MPV_motion_internal (mpegvideo_common.h:818)
677==13675==    by 0x843D7FF: MPV_motion (mpegvideo_common.h:887)
678==13675==    by 0x843BD30: MPV_decode_mb_internal (mpegvideo.c:2384)
679==13675==    by 0x843D990: ff_MPV_decode_mb (mpegvideo.c:2517)
680==13675==    by 0x8402F49: mpeg_decode_slice (mpeg12.c:1806)
681==13675==    by 0x8405150: decode_chunks (mpeg12.c:2533)
682==13675==    by 0x8404663: mpeg_decode_frame (mpeg12.c:2306)
683==13675==    by 0x853EBFB: avcodec_decode_video2 (utils.c:1485)
684==13675==    by 0x80530A2: decode_video (ffmpeg.c:2452)
685==13675==  Address 0x4DE063D is not stack'd, malloc'd or (recently) free'd
686==13675==
687==13675== Invalid read of size 8
688==13675==    at 0x85C7748: put_pixels8_x2_mmx2 (dsputil_mmx_avg_template.c:32)
689==13675==    by 0x8430699: mpeg_motion_internal (mpegvideo_common.h:352)
690==13675==    by 0x8430734: mpeg_motion (mpegvideo_common.h:370)
691==13675==    by 0x8431731: MPV_motion_internal (mpegvideo_common.h:818)
692==13675==    by 0x843D7FF: MPV_motion (mpegvideo_common.h:887)
693==13675==    by 0x843BD30: MPV_decode_mb_internal (mpegvideo.c:2384)
694==13675==    by 0x843D990: ff_MPV_decode_mb (mpegvideo.c:2517)
695==13675==    by 0x8402F49: mpeg_decode_slice (mpeg12.c:1806)
696==13675==    by 0x8405150: decode_chunks (mpeg12.c:2533)
697==13675==    by 0x8404663: mpeg_decode_frame (mpeg12.c:2306)
698==13675==    by 0x853EBFB: avcodec_decode_video2 (utils.c:1485)
699==13675==    by 0x80530A2: decode_video (ffmpeg.c:2452)
700==13675==  Address 0x4DE097D is not stack'd, malloc'd or (recently) free'd
701==13675==
702==13675== Invalid read of size 8
703==13675==    at 0x85C7758: put_pixels8_x2_mmx2 (dsputil_mmx_avg_template.c:32)
704==13675==    by 0x8430699: mpeg_motion_internal (mpegvideo_common.h:352)
705==13675==    by 0x8430734: mpeg_motion (mpegvideo_common.h:370)
706==13675==    by 0x8431731: MPV_motion_internal (mpegvideo_common.h:818)
707==13675==    by 0x843D7FF: MPV_motion (mpegvideo_common.h:887)
708==13675==    by 0x843BD30: MPV_decode_mb_internal (mpegvideo.c:2384)
709==13675==    by 0x843D990: ff_MPV_decode_mb (mpegvideo.c:2517)
710==13675==    by 0x8402F49: mpeg_decode_slice (mpeg12.c:1806)
711==13675==    by 0x8405150: decode_chunks (mpeg12.c:2533)
712==13675==    by 0x8404663: mpeg_decode_frame (mpeg12.c:2306)
713==13675==    by 0x853EBFB: avcodec_decode_video2 (utils.c:1485)
714==13675==    by 0x80530A2: decode_video (ffmpeg.c:2452)
715==13675==  Address 0x4DE0CBC is not stack'd, malloc'd or (recently) free'd
716==13675==
717==13675== Invalid read of size 8
718==13675==    at 0x85C775B: put_pixels8_x2_mmx2 (dsputil_mmx_avg_template.c:32)
719==13675==    by 0x8430699: mpeg_motion_internal (mpegvideo_common.h:352)
720==13675==    by 0x8430734: mpeg_motion (mpegvideo_common.h:370)
721==13675==    by 0x8431731: MPV_motion_internal (mpegvideo_common.h:818)
722==13675==    by 0x843D7FF: MPV_motion (mpegvideo_common.h:887)
723==13675==    by 0x843BD30: MPV_decode_mb_internal (mpegvideo.c:2384)
724==13675==    by 0x843D990: ff_MPV_decode_mb (mpegvideo.c:2517)
725==13675==    by 0x8402F49: mpeg_decode_slice (mpeg12.c:1806)
726==13675==    by 0x8405150: decode_chunks (mpeg12.c:2533)
727==13675==    by 0x8404663: mpeg_decode_frame (mpeg12.c:2306)
728==13675==    by 0x853EBFB: avcodec_decode_video2 (utils.c:1485)
729==13675==    by 0x80530A2: decode_video (ffmpeg.c:2452)
730==13675==  Address 0x4DE0FFC is not stack'd, malloc'd or (recently) free'd
731==13675==
732==13675== Invalid read of size 8
733==13675==    at 0x85C775F: put_pixels8_x2_mmx2 (dsputil_mmx_avg_template.c:32)
734==13675==    by 0x8430699: mpeg_motion_internal (mpegvideo_common.h:352)
735==13675==    by 0x8430734: mpeg_motion (mpegvideo_common.h:370)
736==13675==    by 0x8431731: MPV_motion_internal (mpegvideo_common.h:818)
737==13675==    by 0x843D7FF: MPV_motion (mpegvideo_common.h:887)
738==13675==    by 0x843BD30: MPV_decode_mb_internal (mpegvideo.c:2384)
739==13675==    by 0x843D990: ff_MPV_decode_mb (mpegvideo.c:2517)
740==13675==    by 0x8402F49: mpeg_decode_slice (mpeg12.c:1806)
741==13675==    by 0x8405150: decode_chunks (mpeg12.c:2533)
742==13675==    by 0x8404663: mpeg_decode_frame (mpeg12.c:2306)
743==13675==    by 0x853EBFB: avcodec_decode_video2 (utils.c:1485)
744==13675==    by 0x80530A2: decode_video (ffmpeg.c:2452)
745==13675==  Address 0x4DE0CBD is not stack'd, malloc'd or (recently) free'd
746==13675==
747==13675== Invalid read of size 8
748==13675==    at 0x85C7763: put_pixels8_x2_mmx2 (dsputil_mmx_avg_template.c:32)
749==13675==    by 0x8430699: mpeg_motion_internal (mpegvideo_common.h:352)
750==13675==    by 0x8430734: mpeg_motion (mpegvideo_common.h:370)
751==13675==    by 0x8431731: MPV_motion_internal (mpegvideo_common.h:818)
752==13675==    by 0x843D7FF: MPV_motion (mpegvideo_common.h:887)
753==13675==    by 0x843BD30: MPV_decode_mb_internal (mpegvideo.c:2384)
754==13675==    by 0x843D990: ff_MPV_decode_mb (mpegvideo.c:2517)
755==13675==    by 0x8402F49: mpeg_decode_slice (mpeg12.c:1806)
756==13675==    by 0x8405150: decode_chunks (mpeg12.c:2533)
757==13675==    by 0x8404663: mpeg_decode_frame (mpeg12.c:2306)
758==13675==    by 0x853EBFB: avcodec_decode_video2 (utils.c:1485)
759==13675==    by 0x80530A2: decode_video (ffmpeg.c:2452)
760==13675==  Address 0x4DE0FFD is not stack'd, malloc'd or (recently) free'd
761==13675==
762==13675== Invalid read of size 8
763==13675==    at 0x85C7EE8: put_pixels8_y2_mmx2 (dsputil_mmx_avg_template.c:634)
764==13675==    by 0x85C82B7: put_pixels16_y2_mmx2 (dsputil_mmx_avg_template.c:906)
765==13675==    by 0x843061B: mpeg_motion_internal (mpegvideo_common.h:347)
766==13675==    by 0x8430734: mpeg_motion (mpegvideo_common.h:370)
767==13675==    by 0x843183F: MPV_motion_internal (mpegvideo_common.h:835)
768==13675==    by 0x843D7FF: MPV_motion (mpegvideo_common.h:887)
769==13675==    by 0x843BD30: MPV_decode_mb_internal (mpegvideo.c:2384)
770==13675==    by 0x843D990: ff_MPV_decode_mb (mpegvideo.c:2517)
771==13675==    by 0x8402F49: mpeg_decode_slice (mpeg12.c:1806)
772==13675==    by 0x8405150: decode_chunks (mpeg12.c:2533)
773==13675==    by 0x8404663: mpeg_decode_frame (mpeg12.c:2306)
774==13675==    by 0x853EBFB: avcodec_decode_video2 (utils.c:1485)
775==13675==  Address 0x4DDBF2B is not stack'd, malloc'd or (recently) free'd
776==13675==
777==13675== Invalid read of size 8
778==13675==    at 0x85C7EED: put_pixels8_y2_mmx2 (dsputil_mmx_avg_template.c:634)
779==13675==    by 0x85C82B7: put_pixels16_y2_mmx2 (dsputil_mmx_avg_template.c:906)
780==13675==    by 0x843061B: mpeg_motion_internal (mpegvideo_common.h:347)
781==13675==    by 0x8430734: mpeg_motion (mpegvideo_common.h:370)
782==13675==    by 0x843183F: MPV_motion_internal (mpegvideo_common.h:835)
783==13675==    by 0x843D7FF: MPV_motion (mpegvideo_common.h:887)
784==13675==    by 0x843BD30: MPV_decode_mb_internal (mpegvideo.c:2384)
785==13675==    by 0x843D990: ff_MPV_decode_mb (mpegvideo.c:2517)
786==13675==    by 0x8402F49: mpeg_decode_slice (mpeg12.c:1806)
787==13675==    by 0x8405150: decode_chunks (mpeg12.c:2533)
788==13675==    by 0x8404663: mpeg_decode_frame (mpeg12.c:2306)
789==13675==    by 0x853EBFB: avcodec_decode_video2 (utils.c:1485)
790==13675==  Address 0x4DDC56B is not stack'd, malloc'd or (recently) free'd
791==13675==
792==13675== Invalid read of size 8
793==13675==    at 0x85C7EF1: put_pixels8_y2_mmx2 (dsputil_mmx_avg_template.c:634)
794==13675==    by 0x85C82B7: put_pixels16_y2_mmx2 (dsputil_mmx_avg_template.c:906)
795==13675==    by 0x843061B: mpeg_motion_internal (mpegvideo_common.h:347)
796==13675==    by 0x8430734: mpeg_motion (mpegvideo_common.h:370)
797==13675==    by 0x843183F: MPV_motion_internal (mpegvideo_common.h:835)
798==13675==    by 0x843D7FF: MPV_motion (mpegvideo_common.h:887)
799==13675==    by 0x843BD30: MPV_decode_mb_internal (mpegvideo.c:2384)
800==13675==    by 0x843D990: ff_MPV_decode_mb (mpegvideo.c:2517)
801==13675==    by 0x8402F49: mpeg_decode_slice (mpeg12.c:1806)
802==13675==    by 0x8405150: decode_chunks (mpeg12.c:2533)
803==13675==    by 0x8404663: mpeg_decode_frame (mpeg12.c:2306)
804==13675==    by 0x853EBFB: avcodec_decode_video2 (utils.c:1485)
805==13675==  Address 0x4DDCBAB is not stack'd, malloc'd or (recently) free'd
806==13675==
807==13675== Invalid read of size 8
808==13675==    at 0x85C7F05: put_pixels8_y2_mmx2 (dsputil_mmx_avg_template.c:634)
809==13675==    by 0x85C82B7: put_pixels16_y2_mmx2 (dsputil_mmx_avg_template.c:906)
810==13675==    by 0x843061B: mpeg_motion_internal (mpegvideo_common.h:347)
811==13675==    by 0x8430734: mpeg_motion (mpegvideo_common.h:370)
812==13675==    by 0x843183F: MPV_motion_internal (mpegvideo_common.h:835)
813==13675==    by 0x843D7FF: MPV_motion (mpegvideo_common.h:887)
814==13675==    by 0x843BD30: MPV_decode_mb_internal (mpegvideo.c:2384)
815==13675==    by 0x843D990: ff_MPV_decode_mb (mpegvideo.c:2517)
816==13675==    by 0x8402F49: mpeg_decode_slice (mpeg12.c:1806)
817==13675==    by 0x8405150: decode_chunks (mpeg12.c:2533)
818==13675==    by 0x8404663: mpeg_decode_frame (mpeg12.c:2306)
819==13675==    by 0x853EBFB: avcodec_decode_video2 (utils.c:1485)
820==13675==  Address 0x4DDD1EB is not stack'd, malloc'd or (recently) free'd
821==13675==
822==13675== Invalid read of size 8
823==13675==    at 0x85C7F09: put_pixels8_y2_mmx2 (dsputil_mmx_avg_template.c:634)
824==13675==    by 0x85C82B7: put_pixels16_y2_mmx2 (dsputil_mmx_avg_template.c:906)
825==13675==    by 0x843061B: mpeg_motion_internal (mpegvideo_common.h:347)
826==13675==    by 0x8430734: mpeg_motion (mpegvideo_common.h:370)
827==13675==    by 0x843183F: MPV_motion_internal (mpegvideo_common.h:835)
828==13675==    by 0x843D7FF: MPV_motion (mpegvideo_common.h:887)
829==13675==    by 0x843BD30: MPV_decode_mb_internal (mpegvideo.c:2384)
830==13675==    by 0x843D990: ff_MPV_decode_mb (mpegvideo.c:2517)
831==13675==    by 0x8402F49: mpeg_decode_slice (mpeg12.c:1806)
832==13675==    by 0x8405150: decode_chunks (mpeg12.c:2533)
833==13675==    by 0x8404663: mpeg_decode_frame (mpeg12.c:2306)
834==13675==    by 0x853EBFB: avcodec_decode_video2 (utils.c:1485)
835==13675==  Address 0x4DDD82B is not stack'd, malloc'd or (recently) free'd
836==13675==
837==13675== Invalid read of size 8
838==13675==    at 0x85C7EE8: put_pixels8_y2_mmx2 (dsputil_mmx_avg_template.c:634)
839==13675==    by 0x85C82DD: put_pixels16_y2_mmx2 (dsputil_mmx_avg_template.c:907)
840==13675==    by 0x843061B: mpeg_motion_internal (mpegvideo_common.h:347)
841==13675==    by 0x8430734: mpeg_motion (mpegvideo_common.h:370)
842==13675==    by 0x843183F: MPV_motion_internal (mpegvideo_common.h:835)
843==13675==    by 0x843D7FF: MPV_motion (mpegvideo_common.h:887)
844==13675==    by 0x843BD30: MPV_decode_mb_internal (mpegvideo.c:2384)
845==13675==    by 0x843D990: ff_MPV_decode_mb (mpegvideo.c:2517)
846==13675==    by 0x8402F49: mpeg_decode_slice (mpeg12.c:1806)
847==13675==    by 0x8405150: decode_chunks (mpeg12.c:2533)
848==13675==    by 0x8404663: mpeg_decode_frame (mpeg12.c:2306)
849==13675==    by 0x853EBFB: avcodec_decode_video2 (utils.c:1485)
850==13675==  Address 0x4DDBF33 is not stack'd, malloc'd or (recently) free'd
851==13675==
852==13675== Invalid read of size 8
853==13675==    at 0x85C7EED: put_pixels8_y2_mmx2 (dsputil_mmx_avg_template.c:634)
854==13675==    by 0x85C82DD: put_pixels16_y2_mmx2 (dsputil_mmx_avg_template.c:907)
855==13675==    by 0x843061B: mpeg_motion_internal (mpegvideo_common.h:347)
856==13675==    by 0x8430734: mpeg_motion (mpegvideo_common.h:370)
857==13675==    by 0x843183F: MPV_motion_internal (mpegvideo_common.h:835)
858==13675==    by 0x843D7FF: MPV_motion (mpegvideo_common.h:887)
859==13675==    by 0x843BD30: MPV_decode_mb_internal (mpegvideo.c:2384)
860==13675==    by 0x843D990: ff_MPV_decode_mb (mpegvideo.c:2517)
861==13675==    by 0x8402F49: mpeg_decode_slice (mpeg12.c:1806)
862==13675==    by 0x8405150: decode_chunks (mpeg12.c:2533)
863==13675==    by 0x8404663: mpeg_decode_frame (mpeg12.c:2306)
864==13675==    by 0x853EBFB: avcodec_decode_video2 (utils.c:1485)
865==13675==  Address 0x4DDC573 is not stack'd, malloc'd or (recently) free'd
866==13675==
867==13675== Invalid read of size 8
868==13675==    at 0x85C7EF1: put_pixels8_y2_mmx2 (dsputil_mmx_avg_template.c:634)
869==13675==    by 0x85C82DD: put_pixels16_y2_mmx2 (dsputil_mmx_avg_template.c:907)
870==13675==    by 0x843061B: mpeg_motion_internal (mpegvideo_common.h:347)
871==13675==    by 0x8430734: mpeg_motion (mpegvideo_common.h:370)
872==13675==    by 0x843183F: MPV_motion_internal (mpegvideo_common.h:835)
873==13675==    by 0x843D7FF: MPV_motion (mpegvideo_common.h:887)
874==13675==    by 0x843BD30: MPV_decode_mb_internal (mpegvideo.c:2384)
875==13675==    by 0x843D990: ff_MPV_decode_mb (mpegvideo.c:2517)
876==13675==    by 0x8402F49: mpeg_decode_slice (mpeg12.c:1806)
877==13675==    by 0x8405150: decode_chunks (mpeg12.c:2533)
878==13675==    by 0x8404663: mpeg_decode_frame (mpeg12.c:2306)
879==13675==    by 0x853EBFB: avcodec_decode_video2 (utils.c:1485)
880==13675==  Address 0x4DDCBB3 is not stack'd, malloc'd or (recently) free'd
881==13675==
882==13675== Invalid read of size 8
883==13675==    at 0x85C7F05: put_pixels8_y2_mmx2 (dsputil_mmx_avg_template.c:634)
884==13675==    by 0x85C82DD: put_pixels16_y2_mmx2 (dsputil_mmx_avg_template.c:907)
885==13675==    by 0x843061B: mpeg_motion_internal (mpegvideo_common.h:347)
886==13675==    by 0x8430734: mpeg_motion (mpegvideo_common.h:370)
887==13675==    by 0x843183F: MPV_motion_internal (mpegvideo_common.h:835)
888==13675==    by 0x843D7FF: MPV_motion (mpegvideo_common.h:887)
889==13675==    by 0x843BD30: MPV_decode_mb_internal (mpegvideo.c:2384)
890==13675==    by 0x843D990: ff_MPV_decode_mb (mpegvideo.c:2517)
891==13675==    by 0x8402F49: mpeg_decode_slice (mpeg12.c:1806)
892==13675==    by 0x8405150: decode_chunks (mpeg12.c:2533)
893==13675==    by 0x8404663: mpeg_decode_frame (mpeg12.c:2306)
894==13675==    by 0x853EBFB: avcodec_decode_video2 (utils.c:1485)
895==13675==  Address 0x4DDD1F3 is not stack'd, malloc'd or (recently) free'd
896==13675==
897==13675== Invalid read of size 8
898==13675==    at 0x85C7F09: put_pixels8_y2_mmx2 (dsputil_mmx_avg_template.c:634)
899==13675==    by 0x85C82DD: put_pixels16_y2_mmx2 (dsputil_mmx_avg_template.c:907)
900==13675==    by 0x843061B: mpeg_motion_internal (mpegvideo_common.h:347)
901==13675==    by 0x8430734: mpeg_motion (mpegvideo_common.h:370)
902==13675==    by 0x843183F: MPV_motion_internal (mpegvideo_common.h:835)
903==13675==    by 0x843D7FF: MPV_motion (mpegvideo_common.h:887)
904==13675==    by 0x843BD30: MPV_decode_mb_internal (mpegvideo.c:2384)
905==13675==    by 0x843D990: ff_MPV_decode_mb (mpegvideo.c:2517)
906==13675==    by 0x8402F49: mpeg_decode_slice (mpeg12.c:1806)
907==13675==    by 0x8405150: decode_chunks (mpeg12.c:2533)
908==13675==    by 0x8404663: mpeg_decode_frame (mpeg12.c:2306)
909==13675==    by 0x853EBFB: avcodec_decode_video2 (utils.c:1485)
910==13675==  Address 0x4DDD833 is not stack'd, malloc'd or (recently) free'd
911[mpeg2video @ 0x442ee00] invalid mb type in B Frame at 15 33
912[mpeg2video @ 0x442ee00] slice below image (41 >= 38)
913Error while decoding stream #0:0: Operation not permitted
914[mpeg2video @ 0x442ee00] mb incr damaged
915[mpeg2video @ 0x442ee00] slice below image (131 >= 38)
916Error while decoding stream #0:0: Operation not permitted
917[mpeg2video @ 0x442ee00] Missing picture start code
918    Last message repeated 2 times
919[mpeg2video @ 0x442ee00] slice below image (121 >= 38)
920Error while decoding stream #0:0: Operation not permitted
921[mpeg2video @ 0x442ee00] 00 motion_type at 1 27
922[mpeg2video @ 0x442ee00] 00 motion_type at 1 33
923[mpeg2video @ 0x442ee00] 00 motion_type at 4 35
924[mpeg2video @ 0x442ee00] 00 motion_type at 10 5
925[mpeg2video @ 0x442ee00] slice below image (39 >= 38)
926Error while decoding stream #0:0: Operation not permitted
927[mpeg2video @ 0x442ee00] picture_structure 2 invalid, ignoring
928[mpeg2video @ 0x442ee00] slice mismatch
929[mpeg2video @ 0x442ee00] 00 motion_type at 5 6
930[mpeg2video @ 0x442ee00] ac-tex damaged at 20 7
931[mpeg2video @ 0x442ee00] invalid mb type in B Frame at 3 10
932[mpeg2video @ 0x442ee00] qscale == 0
933[mpeg2video @ 0x442ee00] mb incr damaged
934[mpeg2video @ 0x442ee00] qscale == 0
935[mpeg2video @ 0x442ee00] invalid mb type in B Frame at 21 16
936[mpeg2video @ 0x442ee00] 00 motion_type at 7 18
937[mpeg2video @ 0x442ee00] 00 motion_type at 20 19
938[mpeg2video @ 0x442ee00] invalid mb type in B Frame at 8 16
939[mpeg2video @ 0x442ee00] 00 motion_type at 6 25
940[mpeg2video @ 0x442ee00] 00 motion_type at 11 27
941[mpeg2video @ 0x442ee00] invalid mb type in B Frame at 17 28
942[mpeg2video @ 0x442ee00] slice below image (62 >= 38)
943Error while decoding stream #0:0: Operation not permitted
944Truncating packet of size 50032 to 31875
945[mpeg2video @ 0x442ee00] ignoring pic cod ext after 0
946[mpeg2video @ 0x442ee00] Warning MVs not available
947[mpeg2video @ 0x442ee00] concealing 1710 DC, 1710 AC, 1710 MV errors
948Input stream #0:0 frame changed from size:720x576 fmt:yuv420p to size:720x608 fmt:yuv420p
949[graph 0 input from stream 0:0 @ 0x450e2e0] w:720 h:608 pixfmt:yuv420p tb:1/50 fr:25/1 sar:16/15 sws_param:flags=2
950[output stream 0:0 @ 0x4432ae0] No opaque field provided
951[scaler for output stream 0:0 @ 0x443a540] w:720 h:608 fmt:yuv420p sar:16/15 -> w:720 h:576 fmt:yuv420p sar:96/95 flags:0x4
952Truncating packet of size 16936 to 1
953frame=   61 fps= 14 q=0.0 Lsize=       0kB time=00:00:02.44 bitrate=   0.0kbits/s dup=49 drop=0   
954video:4kB audio:0kB subtitle:0 global headers:0kB muxing overhead -100.000000%
955==13675==
956==13675== ERROR SUMMARY: 317 errors from 48 contexts (suppressed: 3 from 1)
957==13675== malloc/free: in use at exit: 0 bytes in 0 blocks.
958==13675== malloc/free: 3,972 allocs, 3,972 frees, 12,683,140 bytes allocated.
959==13675== For counts of detected errors, rerun with: -v
960==13675== All heap blocks were freed -- no leaks are possible.