Ticket #1281: f.txt

File f.txt, 6.3 KB (added by vovanrussia, 5 years ago)
Line 
1root@hosteltv:/# ffmpeg -loglevel debug  -i /media/F/1.flv -vcodec copy -acodec copy -f flv 'rtmp://live.aliez.com/aliezlive-live/streama692?p=1ayfgb55'
2ffmpeg version 0.7.3-4:0.7.3-0ubuntu0.11.10.1, Copyright (c) 2000-2011 the Libav developers
3  built on Jan  4 2012 16:21:50 with gcc 4.6.1
4  configuration: --extra-version='4:0.7.3-0ubuntu0.11.10.1' --arch=i386 --prefix=/usr --enable-vdpau --enable-bzlib --enable-libgsm --enable-libschroedinger --enable-libspeex --enable-libtheora --enable-libvorbis --enable-pthreads --enable-zlib --enable-libvpx --enable-runtime-cpudetect --enable-vaapi --enable-gpl --enable-postproc --enable-swscale --enable-x11grab --enable-libdc1394 --enable-shared --disable-static
5  WARNING: library configuration mismatch
6  avutil      configuration: --extra-version='4:0.7.3ubuntu0.11.10.1' --arch=i386 --prefix=/usr --enable-vdpau --enable-bzlib --enable-libgsm --enable-libschroedinger --enable-libspeex --enable-libtheora --enable-libvorbis --enable-pthreads --enable-zlib --enable-libvpx --enable-runtime-cpudetect --enable-vaapi --enable-libopenjpeg --enable-gpl --enable-postproc --enable-swscale --enable-x11grab --enable-libdirac --enable-libmp3lame --enable-librtmp --enable-libx264 --enable-libxvid --enable-libvo-aacenc --enable-version3 --enable-libvo-amrwbenc --enable-version3 --enable-libdc1394 --shlibdir=/usr/lib/i686/cmov --cpu=i686 --enable-shared --disable-static --disable-ffmpeg --disable-ffplay
7  avcodec     configuration: --extra-version='4:0.7.3ubuntu0.11.10.1' --arch=i386 --prefix=/usr --enable-vdpau --enable-bzlib --enable-libgsm --enable-libschroedinger --enable-libspeex --enable-libtheora --enable-libvorbis --enable-pthreads --enable-zlib --enable-libvpx --enable-runtime-cpudetect --enable-vaapi --enable-libopenjpeg --enable-gpl --enable-postproc --enable-swscale --enable-x11grab --enable-libdirac --enable-libmp3lame --enable-librtmp --enable-libx264 --enable-libxvid --enable-libvo-aacenc --enable-version3 --enable-libvo-amrwbenc --enable-version3 --enable-libdc1394 --shlibdir=/usr/lib/i686/cmov --cpu=i686 --enable-shared --disable-static --disable-ffmpeg --disable-ffplay
8  avformat    configuration: --extra-version='4:0.7.3-0ubuntu0.11.10.1' --arch=i386 --prefix=/usr --enable-vdpau --enable-bzlib --enable-libgsm --enable-libschroedinger --enable-libspeex --enable-libtheora --enable-libvorbis --enable-pthreads --enable-zlib --enable-libvpx --enable-runtime-cpudetect --enable-vaapi --enable-gpl --enable-postproc --enable-swscale --enable-x11grab --enable-libdc1394 --shlibdir=/usr/lib/i686/cmov --cpu=i686 --enable-shared --disable-static --disable-ffmpeg --disable-ffplay
9  avdevice    configuration: --extra-version='4:0.7.3-0ubuntu0.11.10.1' --arch=i386 --prefix=/usr --enable-vdpau --enable-bzlib --enable-libgsm --enable-libschroedinger --enable-libspeex --enable-libtheora --enable-libvorbis --enable-pthreads --enable-zlib --enable-libvpx --enable-runtime-cpudetect --enable-vaapi --enable-gpl --enable-postproc --enable-swscale --enable-x11grab --enable-libdc1394 --shlibdir=/usr/lib/i686/cmov --cpu=i686 --enable-shared --disable-static --disable-ffmpeg --disable-ffplay
10  avfilter    configuration: --extra-version='4:0.7.3-0ubuntu0.11.10.1' --arch=i386 --prefix=/usr --enable-vdpau --enable-bzlib --enable-libgsm --enable-libschroedinger --enable-libspeex --enable-libtheora --enable-libvorbis --enable-pthreads --enable-zlib --enable-libvpx --enable-runtime-cpudetect --enable-vaapi --enable-gpl --enable-postproc --enable-swscale --enable-x11grab --enable-libdc1394 --shlibdir=/usr/lib/i686/cmov --cpu=i686 --enable-shared --disable-static --disable-ffmpeg --disable-ffplay
11  swscale     configuration: --extra-version='4:0.7.3-0ubuntu0.11.10.1' --arch=i386 --prefix=/usr --enable-vdpau --enable-bzlib --enable-libgsm --enable-libschroedinger --enable-libspeex --enable-libtheora --enable-libvorbis --enable-pthreads --enable-zlib --enable-libvpx --enable-runtime-cpudetect --enable-vaapi --enable-gpl --enable-postproc --enable-swscale --enable-x11grab --enable-libdc1394 --shlibdir=/usr/lib/i686/cmov --cpu=i686 --enable-shared --disable-static --disable-ffmpeg --disable-ffplay
12  postproc    configuration: --extra-version='4:0.7.3-0ubuntu0.11.10.1' --arch=i386 --prefix=/usr --enable-vdpau --enable-bzlib --enable-libgsm --enable-libschroedinger --enable-libspeex --enable-libtheora --enable-libvorbis --enable-pthreads --enable-zlib --enable-libvpx --enable-runtime-cpudetect --enable-vaapi --enable-gpl --enable-postproc --enable-swscale --enable-x11grab --enable-libdc1394 --shlibdir=/usr/lib/i686/cmov --cpu=i686 --enable-shared --disable-static --disable-ffmpeg --disable-ffplay
13  libavutil    51.  7. 0 / 51.  7. 0
14  libavcodec   53.  6. 0 / 53.  6. 0
15  libavformat  53.  3. 0 / 53.  3. 0
16  libavdevice  53.  0. 0 / 53.  0. 0
17  libavfilter   2.  4. 0 /  2.  4. 0
18  libswscale    2.  0. 0 /  2.  0. 0
19  libpostproc  52.  0. 0 / 52.  0. 0
20[flv @ 0x8eeaa40] Probed with size=2048 and score=100
21[h264 @ 0x8eec860] Unsupported bit depth: 0
22[flv @ 0x8eeaa40] All info found
23[flv @ 0x8eeaa40] Estimating duration from bitrate, this may be inaccurate
24Input #0, flv, from '/media/F/1.flv':
25  Metadata:
26    duration        : 103
27    starttime       : 0
28    totalduration   : 103
29    width           : 640
30    height          : 480
31    videodatarate   : 912
32    audiodatarate   : 128
33    totaldatarate   : 1047
34    framerate       : 30
35    bytelength      : 13494990
36    canseekontime   : true
37    sourcedata      : BD075FB45HH1335290692915990
38    purl            :
39    pmsg            :
40  Duration: 00:01:42.96, start: 0.000000, bitrate: 1064 kb/s
41    Stream #0.0, 41, 1/1000: Video: h264 (Main), yuv420p, 640x480, 1/60, 933 kb/s, 30 tbr, 1k tbn, 60 tbc
42    Stream #0.1, 58, 1/1000: Audio: aac, 44100 Hz, stereo, s16, 130 kb/s
43[rtmp @ 0x8eec380] Handshaking...
44[rtmp @ 0x8eec380] Server version 3.5.6.1
45[rtmp @ 0x8eec380] Proto = rtmp, path = /aliezlive-live/streama692?p=1ayfgb55, app = aliezlive-live, fname = streama692?p=1ayfgb55
46[rtmp @ 0x8eec380] Client bandwidth = 2500000
47[rtmp @ 0x8eec380] Releasing stream...
48[rtmp @ 0x8eec380] FCPublish stream...
49[rtmp @ 0x8eec380] Creating stream...
50[rtmp @ 0x8eec380] Sending publish command for 'streama692?p=1ayfgb55'
51[rtmp @ 0x8eec380] Server error: Publish 1 failed, invalid arguments.
52[rtmp @ 0x8eec380] UnPublishing stream...
53[rtmp @ 0x8eec380] Deleting stream...
54rtmp://live.aliez.com/aliezlive-live/streama692?p=1ayfgb55: Input/output error