Ticket #1240: ffmpeg-20120421-120013.log

File ffmpeg-20120421-120013.log, 5.0 KB (added by ste, 7 years ago)
Line 
1ffmpeg started on 2012-04-21 at 12:00:13
2Report written to "ffmpeg-20120421-120013.log"
3Command line:
4ffmpeg -report -i test.mpeg -vcodec libx264 -acodec copy test.mp4
5ffmpeg version N-40021-gc97201d Copyright (c) 2000-2012 the FFmpeg developers
6  built on Apr 21 2012 11:39:09 with gcc 4.2.1 20070831 patched [FreeBSD]
7  configuration: --enable-libfaac --enable-libx264 --enable-gpl --enable-nonfree
8  libavutil      51. 47.100 / 51. 47.100
9  libavcodec     54. 15.100 / 54. 15.100
10  libavformat    54.  3.100 / 54.  3.100
11  libavdevice    53.  4.100 / 53.  4.100
12  libavfilter     2. 71.102 /  2. 71.102
13  libswscale      2.  1.100 /  2.  1.100
14  libswresample   0. 11.100 /  0. 11.100
15  libpostproc    52.  0.100 / 52.  0.100
16[mpeg @ 0x290f6100] Format mpeg probed with size=8192 and score=52
17[mpeg @ 0x290f6100] File position before avformat_find_stream_info() is 0
18[mpeg @ 0x290f6100] probing stream 0 pp:2500
19[mpeg @ 0x290f6100] Probe with size=2012, packets=1 detected mpegvideo with score=25
20[mpeg @ 0x290f6100] probing stream 0 pp:2499
21[mpeg @ 0x290f6100] Probe with size=4037, packets=2 detected mpegvideo with score=25
22[mpeg @ 0x290f6100] probing stream 0 pp:2498
23[mpeg @ 0x290f6100] Probe with size=6062, packets=3 detected mpegvideo with score=25
24[mpeg @ 0x290f6100] probing stream 0 pp:2497
25[mpeg @ 0x290f6100] probing stream 0 pp:2496
26[mpeg @ 0x290f6100] Probe with size=10112, packets=5 detected mpegvideo with score=25
27[mpeg @ 0x290f6100] probing stream 0 pp:2495
28[mpeg @ 0x290f6100] probing stream 0 pp:2494
29[mpeg @ 0x290f6100] probing stream 0 pp:2493
30[mpeg @ 0x290f6100] probing stream 0 pp:2492
31[mpeg @ 0x290f6100] Probe with size=18212, packets=9 detected mpegvideo with score=25
32[mpeg @ 0x290f6100] probing stream 0 pp:2491
33[mpeg @ 0x290f6100] probing stream 0 pp:2490
34[mpeg @ 0x290f6100] probing stream 0 pp:2489
35[mpeg @ 0x290f6100] probing stream 0 pp:2488
36[mpeg @ 0x290f6100] probing stream 0 pp:2487
37[mpeg @ 0x290f6100] probing stream 0 pp:2486
38[mpeg @ 0x290f6100] probing stream 0 pp:2485
39[mpeg @ 0x290f6100] probing stream 0 pp:2484
40[mpeg @ 0x290f6100] Probe with size=34412, packets=17 detected mpegvideo with score=25
41[mpeg @ 0x290f6100] probing stream 0 pp:2483
42[mpeg @ 0x290f6100] probing stream 0 pp:2482
43[mpeg @ 0x290f6100] probing stream 0 pp:2481
44[mpeg @ 0x290f6100] probing stream 0 pp:2480
45[mpeg @ 0x290f6100] probing stream 0 pp:2479
46[mpeg @ 0x290f6100] probing stream 0 pp:2478
47[mpeg @ 0x290f6100] probing stream 0 pp:2477
48[mpeg @ 0x290f6100] probing stream 0 pp:2476
49[mpeg @ 0x290f6100] probing stream 0 pp:2475
50[mpeg @ 0x290f6100] probing stream 0 pp:2474
51[mpeg @ 0x290f6100] probing stream 0 pp:2473
52[mpeg @ 0x290f6100] probing stream 0 pp:2472
53[mpeg @ 0x290f6100] probing stream 0 pp:2471
54[mpeg @ 0x290f6100] probing stream 0 pp:2470
55[mpeg @ 0x290f6100] probing stream 0 pp:2469
56[mpeg @ 0x290f6100] probing stream 0 pp:2468
57[mpeg @ 0x290f6100] Probe with size=66812, packets=33 detected mpegvideo with score=51
58[mpeg @ 0x290f6100] probed stream 0
59[mpeg @ 0x290f6100] max_analyze_duration 5000000 reached at 5000000
60[mpeg @ 0x290f6100] File position after avformat_find_stream_info() is 0
61Input #0, mpeg, from 'test.mpeg':
62  Duration: 00:00:59.99, start: 0.245800, bitrate: 6943 kb/s
63    Stream #0:0[0x1e0], 127, 1/90000: Video: mpeg2video (Main), yuv420p, 720x576 [SAR 64:45 DAR 16:9], 9500 kb/s, 25 fps, 25 tbr, 90k tbn, 50 tbc
64    Stream #0:1[0x81], 150, 1/90000: Audio: ac3, 48000 Hz, stereo, s16, 448 kb/s
65    Stream #0:2[0x1c0], 205, 1/90000: Audio: mp2, 48000 Hz, stereo, s16, 160 kb/s
66[buffer @ 0x29106100] w:720 h:576 pixfmt:yuv420p tb:1/1000000 sar:64/45 sws_param:flags=2
67[libx264 @ 0x29176c00] using mv_range_thread = 88
68[libx264 @ 0x29176c00] using SAR=64/45
69[libx264 @ 0x29176c00] using cpu capabilities: MMX2 SSE2Fast SSSE3 FastShuffle SSE4.1 Cache64
70[libx264 @ 0x29176c00] profile High, level 3.0
71[libx264 @ 0x29176c00] 264 - core 119 - H.264/MPEG-4 AVC codec - Copyleft 2003-2011 - http://www.videolan.org/x264.html - options: cabac=1 ref=3 deblock=1:0:0 analyse=0x3:0x113 me=hex subme=7 psy=1 psy_rd=1.00:0.00 mixed_ref=1 me_range=16 chroma_me=1 trellis=1 8x8dct=1 cqm=0 deadzone=21,11 fast_pskip=1 chroma_qp_offset=-2 threads=3 sliced_threads=0 nr=0 decimate=1 interlaced=0 bluray_compat=0 constrained_intra=0 bframes=3 b_pyramid=2 b_adapt=1 b_bias=0 direct=1 weightb=1 open_gop=0 weightp=2 keyint=250 keyint_min=25 scenecut=40 intra_refresh=0 rc_lookahead=40 rc=crf mbtree=1 crf=23.0 qcomp=0.60 qpmin=0 qpmax=69 qpstep=4 ip_ratio=1.40 aq=1:1.00
72[mpeg2video @ 0x29176400] detected 2 logical cores
73[mp4 @ 0x290f6600] track 1: codec frame size is not set
74Output #0, mp4, to 'test.mp4':
75  Metadata:
76    encoder         : Lavf54.3.100
77    Stream #0:0, 0, 1/25: Video: h264 (![0][0][0] / 0x0021), yuv420p, 720x576 [SAR 64:45 DAR 16:9], q=-1--1, 25 tbn, 25 tbc
78    Stream #0:1, 0, 1/90000: Audio: ac3 ([165][0][0][0] / 0x00A5), 48000 Hz, stereo, 448 kb/s
79Stream mapping:
80  Stream #0:0 -> #0:0 (mpeg2video -> libx264)
81  Stream #0:1 -> #0:1 (copy)
82Could not write header for output file #0 (incorrect codec parameters ?)