Ticket #1224: test.log

File test.log, 26.4 KB (added by eregi, 5 years ago)
Line 
1./ffmpeg_g -loglevel 99 -i /dev/dvb/adapter0/dvr0 -an -f null -
2ffmpeg version N-39877-g4fa706a Copyright (c) 2000-2012 the FFmpeg developers
3  built on Apr 16 2012 21:18:03 with gcc 4.5.3
4  configuration: --enable-libx264 --enable-gpl
5  libavutil      51. 46.100 / 51. 46.100
6  libavcodec     54. 14.101 / 54. 14.101
7  libavformat    54.  3.100 / 54.  3.100
8  libavdevice    53.  4.100 / 53.  4.100
9  libavfilter     2. 70.100 /  2. 70.100
10  libswscale      2.  1.100 /  2.  1.100
11  libswresample   0. 11.100 /  0. 11.100
12  libpostproc    52.  0.100 / 52.  0.100
13[mpegts @ 0xa5f6380] Format mpegts probed with size=2048 and score=100
14[mpegts @ 0xa5f6380] File position before avformat_find_stream_info() is 0
15[mpegts @ 0xa5f6380] stream=0 stream_type=0 pid=1420 prog_reg_desc=
16[mpegts @ 0xa5f6380] probing stream 0 pp:2500
17[mpegts @ 0xa5f6380] Probe with size=13196, packets=1 detected loas with score=1
18[mpegts @ 0xa5f6380] probing stream 0 pp:2499
19[mpegts @ 0xa5f6380] stream=1 stream_type=0 pid=1421 prog_reg_desc=
20[mpegts @ 0xa5f6380] probing stream 0 pp:2498
21[mpegts @ 0xa5f6380] probing stream 0 pp:2497
22[mpegts @ 0xa5f6380] Probe with size=86096, packets=4 detected h264 with score=51
23[mpegts @ 0xa5f6380] probed stream 0
24[NULL @ 0xa5f8fe0] non-existing SPS 0 referenced in buffering period
25[NULL @ 0xa5f8fe0] non-existing PPS referenced
26[h264 @ 0xa5f8fe0] non-existing SPS 0 referenced in buffering period
27[h264 @ 0xa5f8fe0] non-existing PPS 0 referenced
28[h264 @ 0xa5f8fe0] decode_slice_header error
29[h264 @ 0xa5f8fe0] no frame!
30[h264 @ 0xa5f8fe0] non-existing SPS 0 referenced in buffering period
31[h264 @ 0xa5f8fe0] non-existing PPS referenced
32[h264 @ 0xa5f8fe0] non-existing SPS 0 referenced in buffering period
33[h264 @ 0xa5f8fe0] non-existing PPS 0 referenced
34[h264 @ 0xa5f8fe0] decode_slice_header error
35[h264 @ 0xa5f8fe0] no frame!
36[h264 @ 0xa5f8fe0] non-existing SPS 0 referenced in buffering period
37[h264 @ 0xa5f8fe0] non-existing PPS referenced
38[h264 @ 0xa5f8fe0] Current profile doesn't provide more RBSP data in PPS, skipping
39[h264 @ 0xa5f8fe0] non-existing SPS 0 referenced in buffering period
40[h264 @ 0xa5f8fe0] non-existing PPS 0 referenced
41[h264 @ 0xa5f8fe0] decode_slice_header error
42[h264 @ 0xa5f8fe0] no frame!
43[h264 @ 0xa5f8fe0] mmco: unref short failure
44    Last message repeated 1 times
45    Last message repeated 2 times
46    Last message repeated 3 times
47    Last message repeated 3 times
48[mpegts @ 0xa5f6380] probing stream 1 pp:2500
49[mpegts @ 0xa5f6380] Probe with size=3456, packets=1 detected mp3 with score=51
50[mpegts @ 0xa5f6380] probed stream 1
51[h264 @ 0xa5f8fe0] Missing reference picture
52[h264 @ 0xa5f8fe0] Increasing reorder buffer to 1
53[h264 @ 0xa5f8fe0] no picture ooo
54[h264 @ 0xa5f8fe0] Increasing reorder buffer to 2
55[h264 @ 0xa5f8fe0] no picture ooo
56    Last message repeated 1 times
57    Last message repeated 1 times
58[h264 @ 0xa5f8fe0] no picture
59[h264 @ 0xa5f8fe0] mmco: unref short failure
60[h264 @ 0xa5f8fe0] no picture
61[h264 @ 0xa5f8fe0] Current profile doesn't provide more RBSP data in PPS, skipping
62    Last message repeated 1 times
63    Last message repeated 2 times
64    Last message repeated 3 times
65    Last message repeated 4 times
66    Last message repeated 4 times
67[mpegts @ 0xa5f6380] max_analyze_duration 5000000 reached at 5020000
68[mpegts @ 0xa5f6380] File position after avformat_find_stream_info() is 2332972
69Input #0, mpegts, from '/dev/dvb/adapter0/dvr0':
70  Duration: N/A, start: 61730.470311, bitrate: N/A
71    Stream #0:0[0x1420], 135, 1/90000: Video: h264 (Main), yuv420p, 720x576 [SAR 16:11 DAR 20:11], 1/50, 26.49 fps, 25 tbr, 90k tbn, 50 tbc
72    Stream #0:1[0x1421], 204, 1/90000: Audio: mp2, 48000 Hz, stereo, s16, 192 kb/s
73[buffer @ 0xa886040] w:720 h:576 pixfmt:yuv420p tb:1/1000000 sar:16/11 sws_param:flags=2
74[h264 @ 0xa5f8fe0] detected 1 logical cores
75Output #0, null, to 'pipe:':
76  Metadata:
77    encoder         : Lavf54.3.100
78    Stream #0:0, 0, 1/90000: Video: rawvideo (I420 / 0x30323449), yuv420p, 720x576 [SAR 16:11 DAR 20:11], 1/25, q=2-31, 200 kb/s, 90k tbn, 25 tbc
79Stream mapping:
80  Stream #0:0 -> #0:0 (h264 -> rawvideo)
81Press [q] to stop, [?] for help
82[h264 @ 0xa5f8fe0] Missing reference picture
83[h264 @ 0xa5f8fe0] decode_slice_header error
84[h264 @ 0xa5f8fe0] concealing 1620 DC, 1620 AC, 1620 MV errors
85[h264 @ 0xa5f8fe0] no picture
86    Last message repeated 1 times
87    Last message repeated 1 times
88[h264 @ 0xa5f8fe0] mmco: unref short failure
89    Last message repeated 1 times
90    Last message repeated 1 times
91[h264 @ 0xa5f8fe0] Missing reference picture
92[h264 @ 0xa5f8fe0] mmco: unref short failure
93*** 24 dup!
94[null @ 0xa6185e0] Encoder did not produce proper pts, making some up.
95frame=   37 fps=0.0 q=0.0 size=       0kB time=00:00:01.48 bitrate=   0.0kbits/s dup=24 drop=0   
96frame=   56 fps= 54 q=0.0 size=       0kB time=00:00:02.24 bitrate=   0.0kbits/s dup=24 drop=0   
97frame=   78 fps= 50 q=0.0 size=       0kB time=00:00:03.12 bitrate=   0.0kbits/s dup=24 drop=0   
98frame=  100 fps= 48 q=0.0 size=       0kB time=00:00:04.00 bitrate=   0.0kbits/s dup=24 drop=0   
99frame=  121 fps= 47 q=0.0 size=       0kB time=00:00:04.84 bitrate=   0.0kbits/s dup=24 drop=0   
100frame=  142 fps= 46 q=0.0 size=       0kB time=00:00:05.68 bitrate=   0.0kbits/s dup=24 drop=0   
101Current profile doesn't provide more RBSP data in PPS, skipping
102frame=  163 fps= 45 q=0.0 size=       0kB time=00:00:06.52 bitrate=   0.0kbits/s dup=24 drop=0   
103frame=  185 fps= 45 q=0.0 size=       0kB time=00:00:07.40 bitrate=   0.0kbits/s dup=24 drop=0   
104Current profile doesn't provide more RBSP data in PPS, skipping
105frame=  207 fps= 44 q=0.0 size=       0kB time=00:00:08.28 bitrate=   0.0kbits/s dup=24 drop=0   
106Current profile doesn't provide more RBSP data in PPS, skipping
107frame=  231 fps= 45 q=0.0 size=       0kB time=00:00:09.24 bitrate=   0.0kbits/s dup=24 drop=0   
108Current profile doesn't provide more RBSP data in PPS, skipping
109frame=  255 fps= 45 q=0.0 size=       0kB time=00:00:10.20 bitrate=   0.0kbits/s dup=24 drop=0   
110Current profile doesn't provide more RBSP data in PPS, skipping
111frame=  278 fps= 45 q=0.0 size=       0kB time=00:00:11.12 bitrate=   0.0kbits/s dup=24 drop=0   
112Current profile doesn't provide more RBSP data in PPS, skipping
113frame=  299 fps= 44 q=0.0 size=       0kB time=00:00:11.96 bitrate=   0.0kbits/s dup=24 drop=0   
114Current profile doesn't provide more RBSP data in PPS, skipping
115frame=  321 fps= 44 q=0.0 size=       0kB time=00:00:12.84 bitrate=   0.0kbits/s dup=24 drop=0   
116Current profile doesn't provide more RBSP data in PPS, skipping
117frame=  344 fps= 44 q=0.0 size=       0kB time=00:00:13.76 bitrate=   0.0kbits/s dup=24 drop=0   
118frame=  350 fps= 42 q=0.0 size=       0kB time=00:00:14.00 bitrate=   0.0kbits/s dup=24 drop=0   
119Current profile doesn't provide more RBSP data in PPS, skipping
120frame=  363 fps= 41 q=0.0 size=       0kB time=00:00:14.52 bitrate=   0.0kbits/s dup=24 drop=0   
121Current profile doesn't provide more RBSP data in PPS, skipping
122frame=  381 fps= 41 q=0.0 size=       0kB time=00:00:15.24 bitrate=   0.0kbits/s dup=24 drop=0   
123frame=  397 fps= 40 q=0.0 size=       0kB time=00:00:15.88 bitrate=   0.0kbits/s dup=24 drop=0   
124Current profile doesn't provide more RBSP data in PPS, skipping
125frame=  410 fps= 40 q=0.0 size=       0kB time=00:00:16.40 bitrate=   0.0kbits/s dup=24 drop=0   
126frame=  419 fps= 39 q=0.0 size=       0kB time=00:00:16.76 bitrate=   0.0kbits/s dup=24 drop=0   
127Current profile doesn't provide more RBSP data in PPS, skipping
128frame=  427 fps= 37 q=0.0 size=       0kB time=00:00:17.08 bitrate=   0.0kbits/s dup=24 drop=0   
129frame=  442 fps= 37 q=0.0 size=       0kB time=00:00:17.68 bitrate=   0.0kbits/s dup=24 drop=0   
130Current profile doesn't provide more RBSP data in PPS, skipping
131frame=  455 fps= 37 q=0.0 size=       0kB time=00:00:18.20 bitrate=   0.0kbits/s dup=24 drop=0   
132frame=  468 fps= 36 q=0.0 size=       0kB time=00:00:18.72 bitrate=   0.0kbits/s dup=24 drop=0   
133Current profile doesn't provide more RBSP data in PPS, skipping
134frame=  482 fps= 36 q=0.0 size=       0kB time=00:00:19.28 bitrate=   0.0kbits/s dup=24 drop=0   
135Current profile doesn't provide more RBSP data in PPS, skipping
136frame=  494 fps= 35 q=0.0 size=       0kB time=00:00:19.76 bitrate=   0.0kbits/s dup=24 drop=0   
137frame=  507 fps= 35 q=0.0 size=       0kB time=00:00:20.28 bitrate=   0.0kbits/s dup=24 drop=0   
138Current profile doesn't provide more RBSP data in PPS, skipping
139frame=  520 fps= 35 q=0.0 size=       0kB time=00:00:20.80 bitrate=   0.0kbits/s dup=24 drop=0   
140frame=  532 fps= 34 q=0.0 size=       0kB time=00:00:21.28 bitrate=   0.0kbits/s dup=24 drop=0   
141Current profile doesn't provide more RBSP data in PPS, skipping
142frame=  545 fps= 34 q=0.0 size=       0kB time=00:00:21.80 bitrate=   0.0kbits/s dup=24 drop=0   
143frame=  557 fps= 34 q=0.0 size=       0kB time=00:00:22.28 bitrate=   0.0kbits/s dup=24 drop=0   
144Current profile doesn't provide more RBSP data in PPS, skipping
145frame=  567 fps= 33 q=0.0 size=       0kB time=00:00:22.68 bitrate=   0.0kbits/s dup=24 drop=0   
146frame=  578 fps= 33 q=0.0 size=       0kB time=00:00:23.12 bitrate=   0.0kbits/s dup=24 drop=0   
147Current profile doesn't provide more RBSP data in PPS, skipping
148frame=  596 fps= 33 q=0.0 size=       0kB time=00:00:23.84 bitrate=   0.0kbits/s dup=24 drop=0   
149Current profile doesn't provide more RBSP data in PPS, skipping
150frame=  610 fps= 33 q=0.0 size=       0kB time=00:00:24.40 bitrate=   0.0kbits/s dup=24 drop=0   
151frame=  628 fps= 33 q=0.0 size=       0kB time=00:00:25.12 bitrate=   0.0kbits/s dup=24 drop=0   
152Current profile doesn't provide more RBSP data in PPS, skipping
153frame=  635 fps= 32 q=0.0 size=       0kB time=00:00:25.40 bitrate=   0.0kbits/s dup=24 drop=0   
154frame=  647 fps= 32 q=0.0 size=       0kB time=00:00:25.88 bitrate=   0.0kbits/s dup=24 drop=0   
155Current profile doesn't provide more RBSP data in PPS, skipping
156frame=  658 fps= 32 q=0.0 size=       0kB time=00:00:26.32 bitrate=   0.0kbits/s dup=24 drop=0   
157frame=  673 fps= 31 q=0.0 size=       0kB time=00:00:26.92 bitrate=   0.0kbits/s dup=24 drop=0   
158Current profile doesn't provide more RBSP data in PPS, skipping
159frame=  686 fps= 31 q=0.0 size=       0kB time=00:00:27.44 bitrate=   0.0kbits/s dup=24 drop=0   
160frame=  699 fps= 31 q=0.0 size=       0kB time=00:00:27.96 bitrate=   0.0kbits/s dup=24 drop=0   
161Current profile doesn't provide more RBSP data in PPS, skipping
162frame=  711 fps= 31 q=0.0 size=       0kB time=00:00:28.44 bitrate=   0.0kbits/s dup=24 drop=0   
163Current profile doesn't provide more RBSP data in PPS, skipping
164frame=  727 fps= 31 q=0.0 size=       0kB time=00:00:29.08 bitrate=   0.0kbits/s dup=24 drop=0   
165Current profile doesn't provide more RBSP data in PPS, skipping
166frame=  739 fps= 31 q=0.0 size=       0kB time=00:00:29.56 bitrate=   0.0kbits/s dup=24 drop=0   
167frame=  750 fps= 31 q=0.0 size=       0kB time=00:00:30.00 bitrate=   0.0kbits/s dup=24 drop=0   
168Current profile doesn't provide more RBSP data in PPS, skipping
169frame=  766 fps= 31 q=0.0 size=       0kB time=00:00:30.64 bitrate=   0.0kbits/s dup=24 drop=0   
170frame=  778 fps= 30 q=0.0 size=       0kB time=00:00:31.12 bitrate=   0.0kbits/s dup=24 drop=0   
171Current profile doesn't provide more RBSP data in PPS, skipping
172frame=  791 fps= 30 q=0.0 size=       0kB time=00:00:31.64 bitrate=   0.0kbits/s dup=24 drop=0   
173frame=  801 fps= 30 q=0.0 size=       0kB time=00:00:32.04 bitrate=   0.0kbits/s dup=24 drop=0   
174Current profile doesn't provide more RBSP data in PPS, skipping
175frame=  815 fps= 30 q=0.0 size=       0kB time=00:00:32.60 bitrate=   0.0kbits/s dup=24 drop=0   
176frame=  826 fps= 30 q=0.0 size=       0kB time=00:00:33.04 bitrate=   0.0kbits/s dup=24 drop=0   
177Current profile doesn't provide more RBSP data in PPS, skipping
178frame=  839 fps= 30 q=0.0 size=       0kB time=00:00:33.56 bitrate=   0.0kbits/s dup=24 drop=0   
179frame=  851 fps= 30 q=0.0 size=       0kB time=00:00:34.04 bitrate=   0.0kbits/s dup=24 drop=0   
180Current profile doesn't provide more RBSP data in PPS, skipping
181frame=  866 fps= 30 q=0.0 size=       0kB time=00:00:34.64 bitrate=   0.0kbits/s dup=24 drop=0   
182frame=  879 fps= 30 q=0.0 size=       0kB time=00:00:35.16 bitrate=   0.0kbits/s dup=24 drop=0   
183Current profile doesn't provide more RBSP data in PPS, skipping
184frame=  892 fps= 30 q=0.0 size=       0kB time=00:00:35.68 bitrate=   0.0kbits/s dup=24 drop=0   
185frame=  902 fps= 29 q=0.0 size=       0kB time=00:00:36.08 bitrate=   0.0kbits/s dup=24 drop=0   
186Current profile doesn't provide more RBSP data in PPS, skipping
187frame=  915 fps= 29 q=0.0 size=       0kB time=00:00:36.60 bitrate=   0.0kbits/s dup=24 drop=0   
188frame=  928 fps= 29 q=0.0 size=       0kB time=00:00:37.12 bitrate=   0.0kbits/s dup=24 drop=0   
189Current profile doesn't provide more RBSP data in PPS, skipping
190frame=  940 fps= 29 q=0.0 size=       0kB time=00:00:37.60 bitrate=   0.0kbits/s dup=24 drop=0   
191Current profile doesn't provide more RBSP data in PPS, skipping
192frame=  953 fps= 29 q=0.0 size=       0kB time=00:00:38.12 bitrate=   0.0kbits/s dup=24 drop=0   
193frame=  976 fps= 29 q=0.0 size=       0kB time=00:00:39.04 bitrate=   0.0kbits/s dup=24 drop=0   
194Current profile doesn't provide more RBSP data in PPS, skipping
195frame=  989 fps= 29 q=0.0 size=       0kB time=00:00:39.56 bitrate=   0.0kbits/s dup=24 drop=0   
196Current profile doesn't provide more RBSP data in PPS, skipping
197frame= 1002 fps= 29 q=0.0 size=       0kB time=00:00:40.08 bitrate=   0.0kbits/s dup=24 drop=0   
198frame= 1015 fps= 29 q=0.0 size=       0kB time=00:00:40.60 bitrate=   0.0kbits/s dup=24 drop=0   
199Current profile doesn't provide more RBSP data in PPS, skipping
200frame= 1023 fps= 29 q=0.0 size=       0kB time=00:00:40.92 bitrate=   0.0kbits/s dup=24 drop=0   
201frame= 1037 fps= 29 q=0.0 size=       0kB time=00:00:41.48 bitrate=   0.0kbits/s dup=24 drop=0   
202Current profile doesn't provide more RBSP data in PPS, skipping
203frame= 1049 fps= 29 q=0.0 size=       0kB time=00:00:41.96 bitrate=   0.0kbits/s dup=24 drop=0   
204frame= 1062 fps= 29 q=0.0 size=       0kB time=00:00:42.48 bitrate=   0.0kbits/s dup=24 drop=0   
205Current profile doesn't provide more RBSP data in PPS, skipping
206frame= 1076 fps= 29 q=0.0 size=       0kB time=00:00:43.04 bitrate=   0.0kbits/s dup=24 drop=0   
207frame= 1091 fps= 29 q=0.0 size=       0kB time=00:00:43.64 bitrate=   0.0kbits/s dup=24 drop=0   
208Current profile doesn't provide more RBSP data in PPS, skipping
209frame= 1104 fps= 29 q=0.0 size=       0kB time=00:00:44.16 bitrate=   0.0kbits/s dup=24 drop=0   
210Current profile doesn't provide more RBSP data in PPS, skipping
211frame= 1116 fps= 29 q=0.0 size=       0kB time=00:00:44.64 bitrate=   0.0kbits/s dup=24 drop=0   
212frame= 1130 fps= 29 q=0.0 size=       0kB time=00:00:45.20 bitrate=   0.0kbits/s dup=24 drop=0   
213Current profile doesn't provide more RBSP data in PPS, skipping
214frame= 1143 fps= 29 q=0.0 size=       0kB time=00:00:45.72 bitrate=   0.0kbits/s dup=24 drop=0   
215frame= 1155 fps= 29 q=0.0 size=       0kB time=00:00:46.20 bitrate=   0.0kbits/s dup=24 drop=0   
216Current profile doesn't provide more RBSP data in PPS, skipping
217frame= 1170 fps= 28 q=0.0 size=       0kB time=00:00:46.80 bitrate=   0.0kbits/s dup=24 drop=0   
218frame= 1185 fps= 28 q=0.0 size=       0kB time=00:00:47.40 bitrate=   0.0kbits/s dup=24 drop=0   
219Current profile doesn't provide more RBSP data in PPS, skipping
220frame= 1195 fps= 28 q=0.0 size=       0kB time=00:00:47.80 bitrate=   0.0kbits/s dup=24 drop=0   
221frame= 1208 fps= 28 q=0.0 size=       0kB time=00:00:48.32 bitrate=   0.0kbits/s dup=24 drop=0   
222Current profile doesn't provide more RBSP data in PPS, skipping
223frame= 1221 fps= 28 q=0.0 size=       0kB time=00:00:48.84 bitrate=   0.0kbits/s dup=24 drop=0   
224frame= 1235 fps= 28 q=0.0 size=       0kB time=00:00:49.40 bitrate=   0.0kbits/s dup=24 drop=0   
225Current profile doesn't provide more RBSP data in PPS, skipping
226frame= 1249 fps= 28 q=0.0 size=       0kB time=00:00:49.96 bitrate=   0.0kbits/s dup=24 drop=0   
227Current profile doesn't provide more RBSP data in PPS, skipping
228frame= 1261 fps= 28 q=0.0 size=       0kB time=00:00:50.44 bitrate=   0.0kbits/s dup=24 drop=0   
229frame= 1275 fps= 28 q=0.0 size=       0kB time=00:00:51.00 bitrate=   0.0kbits/s dup=24 drop=0   
230Current profile doesn't provide more RBSP data in PPS, skipping
231frame= 1288 fps= 28 q=0.0 size=       0kB time=00:00:51.52 bitrate=   0.0kbits/s dup=24 drop=0   
232frame= 1302 fps= 28 q=0.0 size=       0kB time=00:00:52.08 bitrate=   0.0kbits/s dup=24 drop=0   
233Current profile doesn't provide more RBSP data in PPS, skipping
234frame= 1315 fps= 28 q=0.0 size=       0kB time=00:00:52.60 bitrate=   0.0kbits/s dup=24 drop=0   
235frame= 1329 fps= 28 q=0.0 size=       0kB time=00:00:53.16 bitrate=   0.0kbits/s dup=24 drop=0   
236Current profile doesn't provide more RBSP data in PPS, skipping
237frame= 1340 fps= 28 q=0.0 size=       0kB time=00:00:53.60 bitrate=   0.0kbits/s dup=24 drop=0   
238frame= 1353 fps= 28 q=0.0 size=       0kB time=00:00:54.12 bitrate=   0.0kbits/s dup=24 drop=0   
239Current profile doesn't provide more RBSP data in PPS, skipping
240frame= 1364 fps= 28 q=0.0 size=       0kB time=00:00:54.56 bitrate=   0.0kbits/s dup=24 drop=0   
241frame= 1376 fps= 28 q=0.0 size=       0kB time=00:00:55.04 bitrate=   0.0kbits/s dup=24 drop=0   
242Current profile doesn't provide more RBSP data in PPS, skipping
243frame= 1390 fps= 28 q=0.0 size=       0kB time=00:00:55.60 bitrate=   0.0kbits/s dup=24 drop=0   
244frame= 1403 fps= 28 q=0.0 size=       0kB time=00:00:56.12 bitrate=   0.0kbits/s dup=24 drop=0   
245Current profile doesn't provide more RBSP data in PPS, skipping
246frame= 1417 fps= 28 q=0.0 size=       0kB time=00:00:56.68 bitrate=   0.0kbits/s dup=24 drop=0   
247frame= 1428 fps= 28 q=0.0 size=       0kB time=00:00:57.12 bitrate=   0.0kbits/s dup=24 drop=0   
248Current profile doesn't provide more RBSP data in PPS, skipping
249frame= 1440 fps= 28 q=0.0 size=       0kB time=00:00:57.60 bitrate=   0.0kbits/s dup=24 drop=0   
250Current profile doesn't provide more RBSP data in PPS, skipping
251frame= 1453 fps= 28 q=0.0 size=       0kB time=00:00:58.12 bitrate=   0.0kbits/s dup=24 drop=0   
252frame= 1466 fps= 28 q=0.0 size=       0kB time=00:00:58.64 bitrate=   0.0kbits/s dup=24 drop=0   
253Current profile doesn't provide more RBSP data in PPS, skipping
254frame= 1480 fps= 28 q=0.0 size=       0kB time=00:00:59.20 bitrate=   0.0kbits/s dup=24 drop=0   
255frame= 1495 fps= 28 q=0.0 size=       0kB time=00:00:59.80 bitrate=   0.0kbits/s dup=24 drop=0   
256Current profile doesn't provide more RBSP data in PPS, skipping
257frame= 1509 fps= 28 q=0.0 size=       0kB time=00:01:00.36 bitrate=   0.0kbits/s dup=24 drop=0   
258frame= 1522 fps= 28 q=0.0 size=       0kB time=00:01:00.88 bitrate=   0.0kbits/s dup=24 drop=0   
259Current profile doesn't provide more RBSP data in PPS, skipping
260frame= 1534 fps= 28 q=0.0 size=       0kB time=00:01:01.36 bitrate=   0.0kbits/s dup=24 drop=0   
261frame= 1547 fps= 27 q=0.0 size=       0kB time=00:01:01.88 bitrate=   0.0kbits/s dup=24 drop=0   
262Current profile doesn't provide more RBSP data in PPS, skipping
263frame= 1559 fps= 27 q=0.0 size=       0kB time=00:01:02.36 bitrate=   0.0kbits/s dup=24 drop=0   
264Current profile doesn't provide more RBSP data in PPS, skipping
265frame= 1573 fps= 27 q=0.0 size=       0kB time=00:01:02.92 bitrate=   0.0kbits/s dup=24 drop=0   
266frame= 1586 fps= 27 q=0.0 size=       0kB time=00:01:03.44 bitrate=   0.0kbits/s dup=24 drop=0   
267Current profile doesn't provide more RBSP data in PPS, skipping
268frame= 1600 fps= 27 q=0.0 size=       0kB time=00:01:04.00 bitrate=   0.0kbits/s dup=24 drop=0   
269frame= 1614 fps= 27 q=0.0 size=       0kB time=00:01:04.56 bitrate=   0.0kbits/s dup=24 drop=0   
270Current profile doesn't provide more RBSP data in PPS, skipping
271frame= 1628 fps= 27 q=0.0 size=       0kB time=00:01:05.12 bitrate=   0.0kbits/s dup=24 drop=0   
272frame= 1642 fps= 27 q=0.0 size=       0kB time=00:01:05.68 bitrate=   0.0kbits/s dup=24 drop=0   
273Current profile doesn't provide more RBSP data in PPS, skipping
274frame= 1656 fps= 27 q=0.0 size=       0kB time=00:01:06.24 bitrate=   0.0kbits/s dup=24 drop=0   
275Current profile doesn't provide more RBSP data in PPS, skipping
276frame= 1669 fps= 27 q=0.0 size=       0kB time=00:01:06.76 bitrate=   0.0kbits/s dup=24 drop=0   
277Current profile doesn't provide more RBSP data in PPS, skipping
278frame= 1683 fps= 27 q=0.0 size=       0kB time=00:01:07.32 bitrate=   0.0kbits/s dup=24 drop=0   
279frame= 1701 fps= 27 q=0.0 size=       0kB time=00:01:08.04 bitrate=   0.0kbits/s dup=24 drop=0   
280Current profile doesn't provide more RBSP data in PPS, skipping
281frame= 1715 fps= 27 q=0.0 size=       0kB time=00:01:08.60 bitrate=   0.0kbits/s dup=24 drop=0   
282Current profile doesn't provide more RBSP data in PPS, skipping
283frame= 1726 fps= 27 q=0.0 size=       0kB time=00:01:09.04 bitrate=   0.0kbits/s dup=24 drop=0   
284frame= 1737 fps= 27 q=0.0 size=       0kB time=00:01:09.48 bitrate=   0.0kbits/s dup=24 drop=0   
285frame= 1749 fps= 27 q=0.0 size=       0kB time=00:01:09.96 bitrate=   0.0kbits/s dup=24 drop=0   
286Current profile doesn't provide more RBSP data in PPS, skipping
287frame= 1762 fps= 27 q=0.0 size=       0kB time=00:01:10.48 bitrate=   0.0kbits/s dup=24 drop=0   
288Current profile doesn't provide more RBSP data in PPS, skipping
289frame= 1778 fps= 27 q=0.0 size=       0kB time=00:01:11.12 bitrate=   0.0kbits/s dup=24 drop=0   
290Current profile doesn't provide more RBSP data in PPS, skipping
291frame= 1796 fps= 27 q=0.0 size=       0kB time=00:01:11.84 bitrate=   0.0kbits/s dup=24 drop=0   
292frame= 1808 fps= 27 q=0.0 size=       0kB time=00:01:12.32 bitrate=   0.0kbits/s dup=24 drop=0   
293Current profile doesn't provide more RBSP data in PPS, skipping
294frame= 1815 fps= 27 q=0.0 size=       0kB time=00:01:12.60 bitrate=   0.0kbits/s dup=24 drop=0   
295frame= 1826 fps= 27 q=0.0 size=       0kB time=00:01:13.04 bitrate=   0.0kbits/s dup=24 drop=0   
296Current profile doesn't provide more RBSP data in PPS, skipping
297frame= 1845 fps= 27 q=0.0 size=       0kB time=00:01:13.80 bitrate=   0.0kbits/s dup=24 drop=0   
298frame= 1859 fps= 27 q=0.0 size=       0kB time=00:01:14.36 bitrate=   0.0kbits/s dup=24 drop=0   
299Current profile doesn't provide more RBSP data in PPS, skipping
300frame= 1870 fps= 27 q=0.0 size=       0kB time=00:01:14.80 bitrate=   0.0kbits/s dup=24 drop=0   
301frame= 1885 fps= 27 q=0.0 size=       0kB time=00:01:15.40 bitrate=   0.0kbits/s dup=24 drop=0   
302Current profile doesn't provide more RBSP data in PPS, skipping
303frame= 1895 fps= 27 q=0.0 size=       0kB time=00:01:15.80 bitrate=   0.0kbits/s dup=24 drop=0   
304frame= 1911 fps= 27 q=0.0 size=       0kB time=00:01:16.44 bitrate=   0.0kbits/s dup=24 drop=0   
305Current profile doesn't provide more RBSP data in PPS, skipping
306frame= 1933 fps= 27 q=0.0 size=       0kB time=00:01:17.32 bitrate=   0.0kbits/s dup=24 drop=0   
307Current profile doesn't provide more RBSP data in PPS, skipping
308frame= 1944 fps= 27 q=0.0 size=       0kB time=00:01:17.76 bitrate=   0.0kbits/s dup=24 drop=0   
309frame= 1957 fps= 27 q=0.0 size=       0kB time=00:01:18.28 bitrate=   0.0kbits/s dup=24 drop=0   
310Current profile doesn't provide more RBSP data in PPS, skipping
311frame= 1964 fps= 27 q=0.0 size=       0kB time=00:01:18.56 bitrate=   0.0kbits/s dup=24 drop=0   
312Current profile doesn't provide more RBSP data in PPS, skipping
313frame= 1980 fps= 27 q=0.0 size=       0kB time=00:01:19.20 bitrate=   0.0kbits/s dup=24 drop=0   
314frame= 1993 fps= 27 q=0.0 size=       0kB time=00:01:19.72 bitrate=   0.0kbits/s dup=24 drop=0   
315Current profile doesn't provide more RBSP data in PPS, skipping
316frame= 2006 fps= 27 q=0.0 size=       0kB time=00:01:20.24 bitrate=   0.0kbits/s dup=24 drop=0   
317frame= 2020 fps= 27 q=0.0 size=       0kB time=00:01:20.80 bitrate=   0.0kbits/s dup=24 drop=0   
318Current profile doesn't provide more RBSP data in PPS, skipping
319frame= 2033 fps= 27 q=0.0 size=       0kB time=00:01:21.32 bitrate=   0.0kbits/s dup=24 drop=0   
320Current profile doesn't provide more RBSP data in PPS, skipping
321frame= 2045 fps= 27 q=0.0 size=       0kB time=00:01:21.80 bitrate=   0.0kbits/s dup=24 drop=0   
322frame= 2065 fps= 27 q=0.0 size=       0kB time=00:01:22.60 bitrate=   0.0kbits/s dup=24 drop=0   
323Current profile doesn't provide more RBSP data in PPS, skipping
324frame= 2073 fps= 27 q=0.0 size=       0kB time=00:01:22.92 bitrate=   0.0kbits/s dup=24 drop=0   
325frame= 2090 fps= 27 q=0.0 size=       0kB time=00:01:23.60 bitrate=   0.0kbits/s dup=24 drop=0   
326Current profile doesn't provide more RBSP data in PPS, skipping
327frame= 2101 fps= 27 q=0.0 size=       0kB time=00:01:24.04 bitrate=   0.0kbits/s dup=24 drop=0   
328Current profile doesn't provide more RBSP data in PPS, skipping
329frame= 2109 fps= 27 q=0.0 size=       0kB time=00:01:24.36 bitrate=   0.0kbits/s dup=24 drop=0   
330frame= 2124 fps= 27 q=0.0 size=       0kB time=00:01:24.96 bitrate=   0.0kbits/s dup=24 drop=0   
331Current profile doesn't provide more RBSP data in PPS, skipping
332frame= 2137 fps= 27 q=0.0 size=       0kB time=00:01:25.48 bitrate=   0.0kbits/s dup=24 drop=0   
333frame= 2150 fps= 27 q=0.0 size=       0kB time=00:01:26.00 bitrate=   0.0kbits/s dup=24 drop=0   
334Current profile doesn't provide more RBSP data in PPS, skipping
335frame= 2163 fps= 27 q=0.0 size=       0kB time=00:01:26.52 bitrate=   0.0kbits/s dup=24 drop=0   
336frame= 2177 fps= 27 q=0.0 size=       0kB time=00:01:27.08 bitrate=   0.0kbits/s dup=24 drop=0   
337Current profile doesn't provide more RBSP data in PPS, skipping
338frame= 2191 fps= 27 q=0.0 size=       0kB time=00:01:27.64 bitrate=   0.0kbits/s dup=24 drop=0   
339Current profile doesn't provide more RBSP data in PPS, skipping
340frame= 2203 fps= 27 q=0.0 size=       0kB time=00:01:28.12 bitrate=   0.0kbits/s dup=24 drop=0   
341frame= 2219 fps= 27 q=0.0 size=       0kB time=00:01:28.76 bitrate=   0.0kbits/s dup=24 drop=0   
342Current profile doesn't provide more RBSP data in PPS, skipping
343frame= 2229 fps= 27 q=0.0 size=       0kB time=00:01:29.16 bitrate=   0.0kbits/s dup=24 drop=0   
344frame= 2244 fps= 27 q=0.0 size=       0kB time=00:01:29.76 bitrate=   0.0kbits/s dup=24 drop=0   
345Current profile doesn't provide more RBSP data in PPS, skipping
346frame= 2255 fps= 27 q=0.0 size=       0kB time=00:01:30.20 bitrate=   0.0kbits/s dup=24 drop=0   
347frame= 2269 fps= 27 q=0.0 size=       0kB time=00:01:30.76 bitrate=   0.0kbits/s dup=24 drop=0   
348frame= 2281 fps= 27 q=0.0 size=       0kB time=00:01:31.24 bitrate=   0.0kbits/s dup=24 drop=0   
349Current profile doesn't provide more RBSP data in PPS, skipping
350frame= 2295 fps= 27 q=0.0 size=       0kB time=00:01:31.80 bitrate=   0.0kbits/s dup=24 drop=0   
351
352[1]+  Stopped                 ./ffmpeg_g -loglevel 99 -i /dev/dvb/adapter0/dvr0 -an -f null -
353ep ffmpeg #