Ticket #1224: second.log

File second.log, 12.2 KB (added by eregi, 4 years ago)
Line 
1./ffmpeg_g -i /dev/dvb/adapter0/dvr0 -an -vcodec libx264 -s 128x72 -preset ultrafast -f null -
2ffmpeg version N-39877-g4fa706a Copyright (c) 2000-2012 the FFmpeg developers
3  built on Apr 16 2012 21:18:03 with gcc 4.5.3
4  configuration: --enable-libx264 --enable-gpl
5  libavutil      51. 46.100 / 51. 46.100
6  libavcodec     54. 14.101 / 54. 14.101
7  libavformat    54.  3.100 / 54.  3.100
8  libavdevice    53.  4.100 / 53.  4.100
9  libavfilter     2. 70.100 /  2. 70.100
10  libswscale      2.  1.100 /  2.  1.100
11  libswresample   0. 11.100 /  0. 11.100
12  libpostproc    52.  0.100 / 52.  0.100
13[NULL @ 0x9a279c0] non-existing SPS 0 referenced in buffering period
14[NULL @ 0x9a279c0] non-existing PPS referenced
15[h264 @ 0x9a279c0] non-existing SPS 0 referenced in buffering period
16[h264 @ 0x9a279c0] non-existing PPS 0 referenced
17[h264 @ 0x9a279c0] decode_slice_header error
18[h264 @ 0x9a279c0] no frame!
19[h264 @ 0x9a279c0] non-existing SPS 0 referenced in buffering period
20[h264 @ 0x9a279c0] non-existing PPS referenced
21[h264 @ 0x9a279c0] non-existing SPS 0 referenced in buffering period
22[h264 @ 0x9a279c0] non-existing PPS 0 referenced
23[h264 @ 0x9a279c0] decode_slice_header error
24[h264 @ 0x9a279c0] no frame!
25[h264 @ 0x9a279c0] non-existing SPS 0 referenced in buffering period
26[h264 @ 0x9a279c0] non-existing PPS referenced
27[h264 @ 0x9a279c0] non-existing SPS 0 referenced in buffering period
28[h264 @ 0x9a279c0] non-existing PPS 0 referenced
29[h264 @ 0x9a279c0] decode_slice_header error
30[h264 @ 0x9a279c0] no frame!
31[h264 @ 0x9a279c0] non-existing SPS 0 referenced in buffering period
32[h264 @ 0x9a279c0] non-existing PPS referenced
33[h264 @ 0x9a279c0] non-existing SPS 0 referenced in buffering period
34[h264 @ 0x9a279c0] non-existing PPS 0 referenced
35[h264 @ 0x9a279c0] decode_slice_header error
36[h264 @ 0x9a279c0] no frame!
37[h264 @ 0x9a279c0] mmco: unref short failure
38    Last message repeated 3 times
39[h264 @ 0x9a279c0] Missing reference picture
40[h264 @ 0x9a279c0] Increasing reorder buffer to 1
41[h264 @ 0x9a279c0] Increasing reorder buffer to 2
42[h264 @ 0x9a279c0] mmco: unref short failure
43[mpegts @ 0x9a08380] max_analyze_duration 5000000 reached at 5016000
44Input #0, mpegts, from '/dev/dvb/adapter0/dvr0':
45  Duration: N/A, start: 63140.230311, bitrate: N/A
46    Stream #0:0[0x1421]: Audio: mp2, 48000 Hz, stereo, s16, 192 kb/s
47    Stream #0:1[0x1420]: Video: h264 (Main), yuv420p, 720x576 [SAR 12:11 DAR 15:11], 26.87 fps, 25 tbr, 90k tbn, 50 tbc
48[buffer @ 0x9a28e80] w:720 h:576 pixfmt:yuv420p tb:1/1000000 sar:12/11 sws_param:flags=2
49[scale @ 0x9a28c80] w:720 h:576 fmt:yuv420p sar:12/11 -> w:128 h:72 fmt:yuv420p sar:135/176 flags:0x4
50[libx264 @ 0x9a28080] using SAR=135/176
51[libx264 @ 0x9a28080] using cpu capabilities: MMX2 SSE2 Cache64
52[libx264 @ 0x9a28080] profile Constrained Baseline, level 1.0
53Output #0, null, to 'pipe:':
54  Metadata:
55    encoder         : Lavf54.3.100
56    Stream #0:0: Video: h264, yuv420p, 128x72 [SAR 135:176 DAR 15:11], q=-1--1, 90k tbn, 25 tbc
57Stream mapping:
58  Stream #0:1 -> #0:0 (h264 -> libx264)
59Press [q] to stop, [?] for help
60[h264 @ 0x9a279c0] reference picture missing during reorder
61    Last message repeated 1 times
62[h264 @ 0x9a279c0] Missing reference picture
63[h264 @ 0x9a279c0] decode_slice_header error
64[h264 @ 0x9a279c0] concealing 1620 DC, 1620 AC, 1620 MV errors
65[h264 @ 0x9a279c0] mmco: unref short failure
66    Last message repeated 2 times
67frame=   53 fps=0.0 q=16.0 size=       0kB time=00:00:02.08 bitrate=   0.0kbits/frame=   74 fps= 73 q=19.0 size=       0kB time=00:00:02.92 bitrate=   0.0kbits/frame=   96 fps= 63 q=18.0 size=       0kB time=00:00:03.80 bitrate=   0.0kbits/frame=  117 fps= 57 q=19.0 size=       0kB time=00:00:04.64 bitrate=   0.0kbits/frame=  139 fps= 54 q=21.0 size=       0kB time=00:00:05.52 bitrate=   0.0kbits/frame=  160 fps= 52 q=21.0 size=       0kB time=00:00:06.36 bitrate=   0.0kbits/frame=  181 fps= 50 q=21.0 size=       0kB time=00:00:07.20 bitrate=   0.0kbits/frame=  201 fps= 49 q=21.0 size=       0kB time=00:00:08.00 bitrate=   0.0kbits/frame=  223 fps= 48 q=20.0 size=       0kB time=00:00:08.88 bitrate=   0.0kbits/frame=  246 fps= 48 q=20.0 size=       0kB time=00:00:09.80 bitrate=   0.0kbits/frame=  270 fps= 48 q=21.0 size=       0kB time=00:00:10.76 bitrate=   0.0kbits/frame=  295 fps= 48 q=21.0 size=       0kB time=00:00:11.76 bitrate=   0.0kbits/frame=  320 fps= 48 q=20.0 size=       0kB time=00:00:12.76 bitrate=   0.0kbits/frame=  331 fps= 46 q=19.0 size=       0kB time=00:00:13.20 bitrate=   0.0kbits/frame=  345 fps= 44 q=19.0 size=       0kB time=00:00:13.76 bitrate=   0.0kbits/frame=  360 fps= 43 q=15.0 size=       0kB time=00:00:14.36 bitrate=   0.0kbits/frame=  372 fps= 42 q=15.0 size=       0kB time=00:00:14.84 bitrate=   0.0kbits/frame=  387 fps= 41 q=15.0 size=       0kB time=00:00:15.44 bitrate=   0.0kbits/frame=  395 fps= 40 q=16.0 size=       0kB time=00:00:15.76 bitrate=   0.0kbits/frame=  408 fps= 39 q=15.0 size=       0kB time=00:00:16.28 bitrate=   0.0kbits/frame=  430 fps= 39 q=15.0 size=       0kB time=00:00:17.16 bitrate=   0.0kbits/frame=  448 fps= 39 q=15.0 size=       0kB time=00:00:17.88 bitrate=   0.0kbits/frame=  454 fps= 38 q=15.0 size=       0kB time=00:00:18.12 bitrate=   0.0kbits/frame=  466 fps= 37 q=12.0 size=       0kB time=00:00:18.60 bitrate=   0.0kbits/frame=  480 fps= 37 q=26.0 size=       0kB time=00:00:19.16 bitrate=   0.0kbits/frame=  493 fps= 36 q=24.0 size=       0kB time=00:00:19.68 bitrate=   0.0kbits/frame=  505 fps= 35 q=27.0 size=       0kB time=00:00:20.16 bitrate=   0.0kbits/frame=  518 fps= 35 q=27.0 size=       0kB time=00:00:20.68 bitrate=   0.0kbits/frame=  530 fps= 35 q=27.0 size=       0kB time=00:00:21.16 bitrate=   0.0kbits/frame=  544 fps= 34 q=27.0 size=       0kB time=00:00:21.72 bitrate=   0.0kbits/frame=  556 fps= 34 q=26.0 size=       0kB time=00:00:22.20 bitrate=   0.0kbits/frame=  569 fps= 34 q=26.0 size=       0kB time=00:00:22.72 bitrate=   0.0kbits/frame=  580 fps= 33 q=26.0 size=       0kB time=00:00:23.16 bitrate=   0.0kbits/frame=  595 fps= 33 q=27.0 size=       0kB time=00:00:23.76 bitrate=   0.0kbits/frame=  611 fps= 33 q=25.0 size=       0kB time=00:00:24.40 bitrate=   0.0kbits/frame=  624 fps= 33 q=26.0 size=       0kB time=00:00:24.92 bitrate=   0.0kbits/frame=  638 fps= 33 q=24.0 size=       0kB time=00:00:25.48 bitrate=   0.0kbits/frame=  650 fps= 32 q=22.0 size=       0kB time=00:00:25.96 bitrate=   0.0kbits/frame=  666 fps= 32 q=22.0 size=       0kB time=00:00:26.60 bitrate=   0.0kbits/frame=  681 fps= 32 q=23.0 size=       0kB time=00:00:27.20 bitrate=   0.0kbits/frame=  694 fps= 32 q=20.0 size=       0kB time=00:00:27.72 bitrate=   0.0kbits/frame=  707 fps= 32 q=25.0 size=       0kB time=00:00:28.24 bitrate=   0.0kbits/frame=  719 fps= 32 q=26.0 size=       0kB time=00:00:28.72 bitrate=   0.0kbits/frame=  730 fps= 31 q=24.0 size=       0kB time=00:00:29.16 bitrate=   0.0kbits/frame=  744 fps= 31 q=22.0 size=       0kB time=00:00:29.72 bitrate=   0.0kbits/frame=  758 fps= 31 q=27.0 size=       0kB time=00:00:30.28 bitrate=   0.0kbits/frame=  770 fps= 31 q=27.0 size=       0kB time=00:00:30.76 bitrate=   0.0kbits/frame=  783 fps= 31 q=28.0 size=       0kB time=00:00:31.28 bitrate=   0.0kbits/frame=  795 fps= 31 q=27.0 size=       0kB time=00:00:31.76 bitrate=   0.0kbits/frame=  807 fps= 31 q=29.0 size=       0kB time=00:00:32.24 bitrate=   0.0kbits/frame=  820 fps= 30 q=27.0 size=       0kB time=00:00:32.76 bitrate=   0.0kbits/frame=  836 fps= 30 q=27.0 size=       0kB time=00:00:33.40 bitrate=   0.0kbits/frame=  848 fps= 30 q=27.0 size=       0kB time=00:00:33.88 bitrate=   0.0kbits/frame=  861 fps= 30 q=28.0 size=       0kB time=00:00:34.40 bitrate=   0.0kbits/frame=  873 fps= 30 q=27.0 size=       0kB time=00:00:34.88 bitrate=   0.0kbits/frame=  888 fps= 30 q=26.0 size=       0kB time=00:00:35.48 bitrate=   0.0kbits/frame=  899 fps= 30 q=28.0 size=       0kB time=00:00:35.92 bitrate=   0.0kbits/frame=  914 fps= 30 q=24.0 size=       0kB time=00:00:36.52 bitrate=   0.0kbits/frame=  926 fps= 30 q=26.0 size=       0kB time=00:00:37.00 bitrate=   0.0kbits/frame=  935 fps= 30 q=26.0 size=       0kB time=00:00:37.36 bitrate=   0.0kbits/frame=  946 fps= 30 q=27.0 size=       0kB time=00:00:37.80 bitrate=   0.0kbits/frame=  962 fps= 30 q=24.0 size=       0kB time=00:00:38.44 bitrate=   0.0kbits/frame=  980 fps= 30 q=24.0 size=       0kB time=00:00:39.16 bitrate=   0.0kbits/frame=  995 fps= 30 q=23.0 size=       0kB time=00:00:39.76 bitrate=   0.0kbits/frame= 1007 fps= 30 q=23.0 size=       0kB time=00:00:40.24 bitrate=   0.0kbits/frame= 1017 fps= 29 q=26.0 size=       0kB time=00:00:40.64 bitrate=   0.0kbits/frame= 1029 fps= 29 q=26.0 size=       0kB time=00:00:41.12 bitrate=   0.0kbits/frame= 1041 fps= 29 q=25.0 size=       0kB time=00:00:41.60 bitrate=   0.0kbits/frame= 1052 fps= 29 q=28.0 size=       0kB time=00:00:42.04 bitrate=   0.0kbits/frame= 1066 fps= 29 q=29.0 size=       0kB time=00:00:42.60 bitrate=   0.0kbits/frame= 1079 fps= 29 q=27.0 size=       0kB time=00:00:43.12 bitrate=   0.0kbits/frame= 1090 fps= 29 q=28.0 size=       0kB time=00:00:43.56 bitrate=   0.0kbits/frame= 1102 fps= 29 q=28.0 size=       0kB time=00:00:44.04 bitrate=   0.0kbits/frame= 1120 fps= 29 q=22.0 size=       0kB time=00:00:44.76 bitrate=   0.0kbits/frame= 1134 fps= 29 q=27.0 size=       0kB time=00:00:45.32 bitrate=   0.0kbits/frame= 1144 fps= 29 q=25.0 size=       0kB time=00:00:45.72 bitrate=   0.0kbits/frame= 1156 fps= 29 q=27.0 size=       0kB time=00:00:46.20 bitrate=   0.0kbits/frame= 1169 fps= 29 q=26.0 size=       0kB time=00:00:46.72 bitrate=   0.0kbits/frame= 1176 fps= 28 q=28.0 size=       0kB time=00:00:47.00 bitrate=   0.0kbits/frame= 1193 fps= 29 q=29.0 size=       0kB time=00:00:47.68 bitrate=   0.0kbits/frame= 1205 fps= 28 q=28.0 size=       0kB time=00:00:48.16 bitrate=   0.0kbits/frame= 1222 fps= 28 q=24.0 size=       0kB time=00:00:48.84 bitrate=   0.0kbits/frame= 1238 fps= 29 q=28.0 size=       0kB time=00:00:49.48 bitrate=   0.0kbits/frame= 1248 fps= 28 q=28.0 size=       0kB time=00:00:49.88 bitrate=   0.0kbits/frame= 1260 fps= 28 q=28.0 size=       0kB time=00:00:50.36 bitrate=   0.0kbits/frame= 1274 fps= 28 q=27.0 size=       0kB time=00:00:50.92 bitrate=   0.0kbits/frame= 1286 fps= 28 q=27.0 size=       0kB time=00:00:51.40 bitrate=   0.0kbits/frame= 1300 fps= 28 q=24.0 size=       0kB time=00:00:51.96 bitrate=   0.0kbits/frame= 1316 fps= 28 q=26.0 size=       0kB time=00:00:52.60 bitrate=   0.0kbits/frame= 1338 fps= 28 q=20.0 size=       0kB time=00:00:53.48 bitrate=   0.0kbits/frame= 1347 fps= 28 q=19.0 size=       0kB time=00:00:53.84 bitrate=   0.0kbits/frame= 1356 fps= 28 q=24.0 size=       0kB time=00:00:54.20 bitrate=   0.0kbits/frame= 1370 fps= 28 q=23.0 size=       0kB time=00:00:54.76 bitrate=   0.0kbits/frame= 1386 fps= 28 q=23.0 size=       0kB time=00:00:55.40 bitrate=   0.0kbits/frame= 1404 fps= 28 q=22.0 size=       0kB time=00:00:56.12 bitrate=   0.0kbits/frame= 1422 fps= 28 q=22.0 size=       0kB time=00:00:56.84 bitrate=   0.0kbits/frame= 1434 fps= 28 q=21.0 size=       0kB time=00:00:57.32 bitrate=   0.0kbits/frame= 1446 fps= 28 q=21.0 size=       0kB time=00:00:57.80 bitrate=   0.0kbits/frame= 1461 fps= 28 q=15.0 size=       0kB time=00:00:58.40 bitrate=   0.0kbits/frame= 1471 fps= 28 q=16.0 size=       0kB time=00:00:58.80 bitrate=   0.0kbits/frame= 1484 fps= 28 q=15.0 size=       0kB time=00:00:59.32 bitrate=   0.0kbits/frame= 1495 fps= 28 q=15.0 size=       0kB time=00:00:59.76 bitrate=   0.0kbits/frame= 1509 fps= 28 q=16.0 size=       0kB time=00:01:00.32 bitrate=   0.0kbits/frame= 1525 fps= 28 q=15.0 size=       0kB time=00:01:00.96 bitrate=   0.0kbits/frame= 1542 fps= 28 q=15.0 size=       0kB time=00:01:01.64 bitrate=   0.0kbits/frame= 1554 fps= 28 q=15.0 size=       0kB time=00:01:02.12 bitrate=   0.0kbits/frame= 1567 fps= 28 q=16.0 size=       0kB time=00:01:02.64 bitrate=   0.0kbits/frame= 1582 fps= 28 q=15.0 size=       0kB time=00:01:03.24 bitrate=   0.0kbits/frame= 1591 fps= 28 q=15.0 size=       0kB time=00:01:03.60 bitrate=   0.0kbits/frame= 1604 fps= 28 q=17.0 size=       0kB time=00:01:04.12 bitrate=   0.0kbits/frame= 1616 fps= 28 q=16.0 size=       0kB time=00:01:04.60 bitrate=   0.0kbits/s dup=37 drop=0
68[1]+  Stopped                 ./ffmpeg_g -i /dev/dvb/adapter0/dvr0 -an -vcodec libx264 -s 128x72 -preset ultrafast -f null -