Ticket #1224: putty.log

File putty.log, 14.4 KB (added by eregi, 4 years ago)

console output

Line 
1./ffmpeg_g -analyzeduration 2000000000 -loglevel 99 -i /dev/dvb/ad
2dapter0/dvr0 -s 540x432 -filter:v yadif -b:v 1200k -bufsize 400000k -r 18 -ar 220
3050 -ab 32000 -f flv rtmp://localhost/oflaDemo/live
4ffmpeg version N-39877-g4fa706a Copyright (c) 2000-2012 the FFmpeg developers
5  built on Apr 16 2012 21:18:03 with gcc 4.5.3
6  configuration: --enable-libx264 --enable-gpl
7  libavutil      51. 46.100 / 51. 46.100
8  libavcodec     54. 14.101 / 54. 14.101
9  libavformat    54.  3.100 / 54.  3.100
10  libavdevice    53.  4.100 / 53.  4.100
11  libavfilter     2. 70.100 /  2. 70.100
12  libswscale      2.  1.100 /  2.  1.100
13  libswresample   0. 11.100 /  0. 11.100
14  libpostproc    52.  0.100 / 52.  0.100
15[mpegts @ 0x9bfc460] Format mpegts probed with size=2048 and score=100
16[mpegts @ 0x9bfc460] File position before avformat_find_stream_info() is 0
17[mpegts @ 0x9bfc460] stream=0 stream_type=0 pid=1420 prog_reg_desc=
18[mpegts @ 0x9bfc460] probing stream 0 pp:2500
19[mpegts @ 0x9bfc460] stream=1 stream_type=0 pid=1421 prog_reg_desc=
20[mpegts @ 0x9bfc460] probing stream 0 pp:2499
21[mpegts @ 0x9bfc460] probing stream 0 pp:2498
22[mpegts @ 0x9bfc460] probing stream 0 pp:2497
23[mpegts @ 0x9bfc460] probing stream 0 pp:2496
24[mpegts @ 0x9bfc460] probing stream 1 pp:2500
25[mpegts @ 0x9bfc460] Probe with size=3456, packets=1 detected mp3 with score=51
26[mpegts @ 0x9bfc460] probed stream 1
27[mpegts @ 0x9bfc460] probing stream 0 pp:2495
28[mpegts @ 0x9bfc460] probing stream 0 pp:2494
29[mpegts @ 0x9bfc460] probing stream 0 pp:2493
30[mpegts @ 0x9bfc460] probing stream 0 pp:2492
31[mpegts @ 0x9bfc460] Probe with size=155031, packets=9 detected h264 with score=51
32[mpegts @ 0x9bfc460] probed stream 0
33[NULL @ 0x9c14b00] non-existing SPS 0 referenced in buffering period
34[NULL @ 0x9c14b00] non-existing PPS referenced
35[h264 @ 0x9c14b00] non-existing SPS 0 referenced in buffering period
36[h264 @ 0x9c14b00] non-existing PPS 0 referenced
37[h264 @ 0x9c14b00] decode_slice_header error
38[h264 @ 0x9c14b00] no frame!
39[h264 @ 0x9c14b00] non-existing SPS 0 referenced in buffering period
40[h264 @ 0x9c14b00] non-existing PPS referenced
41[h264 @ 0x9c14b00] non-existing SPS 0 referenced in buffering period
42[h264 @ 0x9c14b00] non-existing PPS 0 referenced
43[h264 @ 0x9c14b00] decode_slice_header error
44[h264 @ 0x9c14b00] no frame!
45[h264 @ 0x9c14b00] non-existing SPS 0 referenced in buffering period
46[h264 @ 0x9c14b00] non-existing PPS referenced
47[h264 @ 0x9c14b00] non-existing SPS 0 referenced in buffering period
48[h264 @ 0x9c14b00] non-existing PPS 0 referenced
49[h264 @ 0x9c14b00] decode_slice_header error
50[h264 @ 0x9c14b00] no frame!
51[h264 @ 0x9c14b00] non-existing SPS 0 referenced in buffering period
52[h264 @ 0x9c14b00] non-existing PPS referenced
53[h264 @ 0x9c14b00] non-existing SPS 0 referenced in buffering period
54[h264 @ 0x9c14b00] non-existing PPS 0 referenced
55[h264 @ 0x9c14b00] decode_slice_header error
56[h264 @ 0x9c14b00] no frame!
57[h264 @ 0x9c14b00] non-existing SPS 0 referenced in buffering period
58[h264 @ 0x9c14b00] non-existing PPS referenced
59[h264 @ 0x9c14b00] non-existing SPS 0 referenced in buffering period
60[h264 @ 0x9c14b00] non-existing PPS 0 referenced
61[h264 @ 0x9c14b00] decode_slice_header error
62[h264 @ 0x9c14b00] no frame!
63[h264 @ 0x9c14b00] non-existing SPS 0 referenced in buffering period
64[h264 @ 0x9c14b00] non-existing PPS referenced
65[h264 @ 0x9c14b00] non-existing SPS 0 referenced in buffering period
66[h264 @ 0x9c14b00] non-existing PPS 0 referenced
67[h264 @ 0x9c14b00] decode_slice_header error
68[h264 @ 0x9c14b00] no frame!
69[h264 @ 0x9c14b00] non-existing SPS 0 referenced in buffering period
70[h264 @ 0x9c14b00] non-existing PPS referenced
71[h264 @ 0x9c14b00] non-existing SPS 0 referenced in buffering period
72[h264 @ 0x9c14b00] non-existing PPS 0 referenced
73[h264 @ 0x9c14b00] decode_slice_header error
74[h264 @ 0x9c14b00] no frame!
75[h264 @ 0x9c14b00] non-existing SPS 0 referenced in buffering period
76[h264 @ 0x9c14b00] non-existing PPS referenced
77[h264 @ 0x9c14b00] Current profile doesn't provide more RBSP data in PPS, skipping
78[h264 @ 0x9c14b00] non-existing SPS 0 referenced in buffering period
79[h264 @ 0x9c14b00] non-existing PPS 0 referenced
80[h264 @ 0x9c14b00] decode_slice_header error
81[h264 @ 0x9c14b00] no frame!
82[h264 @ 0x9c14b00] Increasing reorder buffer to 1
83[h264 @ 0x9c14b00] no picture
84[h264 @ 0x9c14b00] Increasing reorder buffer to 2
85[h264 @ 0x9c14b00] no picture ooo
86[h264 @ 0x9c14b00] no picture
87[h264 @ 0x9c14b00] Current profile doesn't provide more RBSP data in PPS, skipping
88    Last message repeated 1 times
89    Last message repeated 2 times
90    Last message repeated 3 times
91    Last message repeated 4 times
92    Last message repeated 5 times
93    Last message repeated 6 times
94    Last message repeated 7 times
95    Last message repeated 8 times
96    Last message repeated 9 times
97    Last message repeated 10 times
98    Last message repeated 11 times
99    Last message repeated 12 times
100    Last message repeated 13 times
101    Last message repeated 14 times
102    Last message repeated 15 times
103    Last message repeated 16 times
104    Last message repeated 17 times
105    Last message repeated 18 times
106    Last message repeated 18 times
107[mpegts @ 0x9bfc460] Probe buffer size limit 5000000 reached
108[mpegts @ 0x9bfc460] File position after avformat_find_stream_info() is 5151656
109Input #0, mpegts, from '/dev/dvb/adapter0/dvr0':
110  Duration: N/A, start: 68108.316000, bitrate: N/A
111    Stream #0:0[0x1420], 377, 1/90000: Video: h264 (Main), yuv420p, 720x576 [SAR 12:11 DAR 15:11], 1/50, 28.20 fps, 25 tbr, 90k tbn, 50 tbc
112    Stream #0:1[0x1421], 570, 1/90000: Audio: mp2, 48000 Hz, stereo, s16, 192 kb/s
113[rtmp @ 0x9d46820] Handshaking...
114[rtmp @ 0x9d46820] Server version 1.2.3.4
115[rtmp @ 0x9d46820] Proto = rtmp, path = /oflaDemo/live, app = oflaDemo, fname = live
116[rtmp @ 0x9d46820] Releasing stream...
117[rtmp @ 0x9d46820] FCPublish stream...
118[rtmp @ 0x9d46820] Creating stream...
119[rtmp @ 0x9d46820] Sending publish command for 'live'
120[buffer @ 0x9f863a0] w:720 h:576 pixfmt:yuv420p tb:1/1000000 sar:12/11 sws_param:flags=2
121[yadif @ 0x9bfaa20] mode:0 parity:-1 auto_enable:0
122[scale @ 0x9bfa5a0] w:720 h:576 fmt:yuv420p sar:12/11 -> w:540 h:432 fmt:yuv420p sar:12/11 flags:0x4
123[flv @ 0xa3f6200] Either both buffer size and max rate or neither must be specified
124[flv @ 0xa3f6200] intra_quant_bias = 0 inter_quant_bias = -64
125[h264 @ 0x9c14b00] detected 1 logical cores
126Output #0, flv, to 'rtmp://localhost/oflaDemo/live':
127  Metadata:
128    encoder         : Lavf54.3.100
129    Stream #0:0, 0, 1/1000: Video: flv1 ([2][0][0][0] / 0x0002), yuv420p, 540x432 [SAR 12:11 DAR 15:11], 1/18, q=2-31, 1200 kb/s, 1k tbn, 18 tbc
130    Stream #0:1, 0, 1/1000: Audio: adpcm_swf ([1][0][0][0] / 0x0001), 22050 Hz, stereo, s16, 176 kb/s
131Stream mapping:
132  Stream #0:0 -> #0:0 (h264 -> flv)
133  Stream #0:1 -> #0:1 (mp2 -> adpcm_swf)
134Press [q] to stop, [?] for help
135[h264 @ 0x9c14b00] Missing reference picture
136[h264 @ 0x9c14b00] decode_slice_header error
137[h264 @ 0x9c14b00] concealing 1620 DC, 1620 AC, 1620 MV errors
138[h264 @ 0x9c14b00] reference picture missing during reorder
139    Last message repeated 1 times
140    Last message repeated 1 times
141[h264 @ 0x9c14b00] Missing reference picture
142[h264 @ 0x9c14b00] decode_slice_header error
143[h264 @ 0x9c14b00] concealing 1620 DC, 1620 AC, 1620 MV errors
144[h264 @ 0x9c14b00] no picture
145[h264 @ 0x9c14b00] mmco: unref short failure
146[h264 @ 0x9c14b00] no picture
147[h264 @ 0x9c14b00] reference picture missing during reorder
148[h264 @ 0x9c14b00] Missing reference picture
149    Last message repeated 1 times
150    Last message repeated 1 times
151frame=    4 fps=0.0 q=2.0 size=       9kB time=00:00:00.41 bitrate= 186.1kbits/s   
152*** drop!
153    Last message repeated 1 times
154    Last message repeated 1 times
155frame=   10 fps=9.6 q=2.7 size=      13kB time=00:00:00.55 bitrate= 184.7kbits/s dup=0 drop=2   
156*** drop!
157    Last message repeated 1 times
158    Last message repeated 2 times
159    Last message repeated 2 times
160frame=   19 fps= 12 q=4.3 size=      47kB time=00:00:00.97 bitrate= 392.9kbits/s dup=0 drop=5   
161*** drop!
162    Last message repeated 1 times
163    Last message repeated 2 times
164    Last message repeated 2 times
165frame=   24 fps= 12 q=4.8 size=     221kB time=00:00:01.39 bitrate=1302.3kbits/s dup=0 drop=8   
166*** drop!
167    Last message repeated 1 times
168    Last message repeated 1 times
169frame=   31 fps= 12 q=5.1 size=     337kB time=00:00:01.71 bitrate=1608.8kbits/s dup=0 drop=10   
170*** drop!
171    Last message repeated 1 times
172    Last message repeated 2 times
173    Last message repeated 2 times
174frame=   39 fps= 12 q=6.2 size=     470kB time=00:00:02.27 bitrate=1690.7kbits/s dup=0 drop=13   
175*** drop!
176    Last message repeated 1 times
177    Last message repeated 2 times
178    Last message repeated 2 times
179frame=   47 fps= 13 q=10.0 size=     516kB time=00:00:02.55 bitrate=1653.9kbits/s dup=0 drop=16   
180*** drop!
181    Last message repeated 1 times
182    Last message repeated 2 times
183    Last message repeated 3 times
184    Last message repeated 3 times
185frame=   57 fps= 14 q=3.5 size=     569kB time=00:00:02.87 bitrate=1619.1kbits/s dup=0 drop=20   
186*** drop!
187    Last message repeated 1 times
188    Last message repeated 2 times
189    Last message repeated 2 times
190frame=   65 fps= 14 q=2.4 size=     707kB time=00:00:03.34 bitrate=1732.5kbits/s dup=0 drop=23   
191*** drop!
192    Last message repeated 1 times
193    Last message repeated 2 times
194    Last message repeated 3 times
195    Last message repeated 3 times
196frame=   73 fps= 14 q=1.8 size=     793kB time=00:00:04.08 bitrate=1589.8kbits/s dup=0 drop=27   
197*** drop!
198    Last message repeated 1 times
199    Last message repeated 2 times
200    Last message repeated 2 times
201frame=   82 fps= 14 q=6.8 size=     890kB time=00:00:04.73 bitrate=1538.7kbits/s dup=0 drop=30   
202*** drop!
203    Last message repeated 1 times
204    Last message repeated 1 times
205frame=   87 fps= 14 q=8.7 size=     982kB time=00:00:05.15 bitrate=1560.5kbits/s dup=0 drop=32   
206*** drop!
207    Last message repeated 1 times
208    Last message repeated 2 times
209    Last message repeated 2 times
210frame=   95 fps= 14 q=6.5 size=    1066kB time=00:00:05.52 bitrate=1579.6kbits/s dup=0 drop=35   
211*** drop!
212    Last message repeated 1 times
213    Last message repeated 2 times
214    Last message repeated 2 times
215frame=  103 fps= 14 q=6.8 size=    1150kB time=00:00:05.89 bitrate=1597.4kbits/s dup=0 drop=38   
216*** drop!
217    Last message repeated 1 times
218    Last message repeated 2 times
219    Last message repeated 2 times
220frame=  111 fps= 14 q=5.1 size=    1197kB time=00:00:06.17 bitrate=1587.1kbits/s dup=0 drop=41   
221*** drop!
222    Last message repeated 1 times
223    Last message repeated 2 times
224    Last message repeated 3 times
225    Last message repeated 3 times
226frame=  119 fps= 14 q=5.6 size=    1273kB time=00:00:06.59 bitrate=1581.2kbits/s dup=0 drop=45   
227*** drop!
228    Last message repeated 1 times
229    Last message repeated 2 times
230    Last message repeated 2 times
231frame=  128 fps= 15 q=3.8 size=    1358kB time=00:00:07.19 bitrate=1545.7kbits/s dup=0 drop=48   
232*** drop!
233    Last message repeated 1 times
234    Last message repeated 2 times
235    Last message repeated 2 times
236frame=  135 fps= 14 q=8.6 size=    1430kB time=00:00:07.61 bitrate=1538.6kbits/s dup=0 drop=51   
237*** drop!
238    Last message repeated 1 times
239    Last message repeated 2 times
240    Last message repeated 2 times
241frame=  142 fps= 14 q=6.6 size=    1467kB time=00:00:08.03 bitrate=1496.0kbits/s dup=0 drop=54   
242*** drop!
243    Last message repeated 1 times
244    Last message repeated 1 times
245frame=  150 fps= 14 q=6.1 size=    1558kB time=00:00:08.35 bitrate=1526.6kbits/s dup=0 drop=56   
246*** drop!
247    Last message repeated 1 times
248    Last message repeated 2 times
249    Last message repeated 3 times
250    Last message repeated 3 times
251frame=  158 fps= 15 q=5.9 size=    1615kB time=00:00:08.77 bitrate=1507.0kbits/s dup=0 drop=60   
252*** drop!
253    Last message repeated 1 times
254    Last message repeated 2 times
255    Last message repeated 2 times
256frame=  168 fps= 15 q=2.5 size=    1681kB time=00:00:09.05 bitrate=1520.6kbits/s dup=0 drop=63   
257*** drop!
258    Last message repeated 1 times
259    Last message repeated 2 times
260    Last message repeated 2 times
261frame=  176 fps= 15 q=3.1 size=    1775kB time=00:00:09.61 bitrate=1512.6kbits/s dup=0 drop=66   
262*** drop!
263    Last message repeated 1 times
264    Last message repeated 2 times
265    Last message repeated 3 times
266    Last message repeated 3 times
267frame=  183 fps= 15 q=2.8 size=    1879kB time=00:00:10.35 bitrate=1486.4kbits/s dup=0 drop=70   
268*** drop!
269    Last message repeated 1 times
270    Last message repeated 2 times
271    Last message repeated 2 times
272frame=  192 fps= 15 q=2.9 size=    1919kB time=00:00:10.77 bitrate=1459.0kbits/s dup=0 drop=73   
273*** drop!
274    Last message repeated 1 times
275    Last message repeated 2 times
276    Last message repeated 3 times
277    Last message repeated 3 times
278frame=  202 fps= 15 q=2.8 size=    1980kB time=00:00:11.05 bitrate=1467.6kbits/s dup=0 drop=77   
279*** drop!
280    Last message repeated 1 times
281    Last message repeated 2 times
282    Last message repeated 2 times
283frame=  212 fps= 15 q=3.5 size=    2050kB time=00:00:11.51 bitrate=1458.1kbits/s dup=0 drop=80   
284*** drop!
285    Last message repeated 1 times
286    Last message repeated 2 times
287    Last message repeated 3 times
288    Last message repeated 3 times
289frame=  220 fps= 15 q=3.8 size=    2148kB time=00:00:12.07 bitrate=1457.2kbits/s dup=0 drop=84   
290*** drop!
291    Last message repeated 1 times
292    Last message repeated 2 times
293    Last message repeated 2 times
294frame=  229 fps= 15 q=3.0 size=    2248kB time=00:00:12.63 bitrate=1458.0kbits/s dup=0 drop=87   
295*** drop!
296    Last message repeated 1 times
297    Last message repeated 2 times
298    Last message repeated 2 times
299frame=  236 fps= 15 q=4.5 size=    2362kB time=00:00:13.51 bitrate=1431.8kbits/s dup=0 drop=90   
300*** drop!
301    Last message repeated 1 times
302    Last message repeated 1 times
303[mpegts @ 0x9bfc460] PES packet size mismatch
304[h264 @ 0x9c14b00] error while decoding MB 29 30, bytestream (-3)
305[h264 @ 0x9c14b00] concealing 290 DC, 290 AC, 290 MV errors
306timestamp discontinuity -13752000, new offset= -68094564000
307[mp2 @ 0x9c1cee0] incomplete frame
308Error while decoding stream #0:1
309frame=  243 fps= 15 q=4.2 Lsize=    2525kB time=00:00:13.79 bitrate=1499.6kbits/s dup=0 drop=92   
310
311video:2218kB audio:298kB global headers:0kB muxing overhead 0.348435%
312[rtmp @ 0x9d46820] UnPublishing stream...
313[rtmp @ 0x9d46820] Deleting stream...
314ep ffmpeg #