Ticket #1224: putty.2.log

File putty.2.log, 15.0 KB (added by eregi, 4 years ago)

from dvb device to flv file

Line 
1./ffmpeg_g -analyzeduration 2000000000 -loglevel 99 -i /dev/dvb/ad
2dapter0/dvr0 -s 540x432 -filter:v yadif -b:v 1200k -bufsize 400000k -r 18 -ar 220
3050 -ab 32000 -f flv a.flv
4ffmpeg version N-39877-g4fa706a Copyright (c) 2000-2012 the FFmpeg developers
5  built on Apr 16 2012 21:18:03 with gcc 4.5.3
6  configuration: --enable-libx264 --enable-gpl
7  libavutil      51. 46.100 / 51. 46.100
8  libavcodec     54. 14.101 / 54. 14.101
9  libavformat    54.  3.100 / 54.  3.100
10  libavdevice    53.  4.100 / 53.  4.100
11  libavfilter     2. 70.100 /  2. 70.100
12  libswscale      2.  1.100 /  2.  1.100
13  libswresample   0. 11.100 /  0. 11.100
14  libpostproc    52.  0.100 / 52.  0.100
15[mpegts @ 0x9bf6460] Format mpegts probed with size=2048 and score=100
16[mpegts @ 0x9bf6460] File position before avformat_find_stream_info() is 0
17[mpegts @ 0x9bf6460] stream=0 stream_type=0 pid=1421 prog_reg_desc=
18[mpegts @ 0x9bf6460] stream=1 stream_type=0 pid=1420 prog_reg_desc=
19[mpegts @ 0x9bf6460] probing stream 1 pp:2500
20[mpegts @ 0x9bf6460] probing stream 1 pp:2499
21[mpegts @ 0x9bf6460] probing stream 1 pp:2498
22[mpegts @ 0x9bf6460] probing stream 1 pp:2497
23[mpegts @ 0x9bf6460] probing stream 0 pp:2500
24[mpegts @ 0x9bf6460] Probe with size=3456, packets=1 detected mp3 with score=51
25[mpegts @ 0x9bf6460] probed stream 0
26[mpegts @ 0x9bf6460] probing stream 1 pp:2496
27[mpegts @ 0x9bf6460] probing stream 1 pp:2495
28[mpegts @ 0x9bf6460] probing stream 1 pp:2494
29[mpegts @ 0x9bf6460] probing stream 1 pp:2493
30[mpegts @ 0x9bf6460] probing stream 1 pp:2492
31[mpegts @ 0x9bf6460] probing stream 1 pp:2491
32[mpegts @ 0x9bf6460] probing stream 1 pp:2490
33[mpegts @ 0x9bf6460] probing stream 1 pp:2489
34[mpegts @ 0x9bf6460] probing stream 1 pp:2488
35[mpegts @ 0x9bf6460] Probe with size=270239, packets=13 detected h264 with score=51
36[mpegts @ 0x9bf6460] probed stream 1
37[NULL @ 0x9c15b00] non-existing SPS 0 referenced in buffering period
38[NULL @ 0x9c15b00] non-existing PPS referenced
39[h264 @ 0x9c15b00] non-existing SPS 0 referenced in buffering period
40[h264 @ 0x9c15b00] non-existing PPS 0 referenced
41[h264 @ 0x9c15b00] decode_slice_header error
42[h264 @ 0x9c15b00] no frame!
43[h264 @ 0x9c15b00] non-existing SPS 0 referenced in buffering period
44[h264 @ 0x9c15b00] non-existing PPS referenced
45[h264 @ 0x9c15b00] non-existing SPS 0 referenced in buffering period
46[h264 @ 0x9c15b00] non-existing PPS 0 referenced
47[h264 @ 0x9c15b00] decode_slice_header error
48[h264 @ 0x9c15b00] no frame!
49[h264 @ 0x9c15b00] non-existing SPS 0 referenced in buffering period
50[h264 @ 0x9c15b00] non-existing PPS referenced
51[h264 @ 0x9c15b00] non-existing SPS 0 referenced in buffering period
52[h264 @ 0x9c15b00] non-existing PPS 0 referenced
53[h264 @ 0x9c15b00] decode_slice_header error
54[h264 @ 0x9c15b00] no frame!
55[h264 @ 0x9c15b00] non-existing SPS 0 referenced in buffering period
56[h264 @ 0x9c15b00] non-existing PPS referenced
57[h264 @ 0x9c15b00] non-existing SPS 0 referenced in buffering period
58[h264 @ 0x9c15b00] non-existing PPS 0 referenced
59[h264 @ 0x9c15b00] decode_slice_header error
60[h264 @ 0x9c15b00] no frame!
61[h264 @ 0x9c15b00] non-existing SPS 0 referenced in buffering period
62[h264 @ 0x9c15b00] non-existing PPS referenced
63[h264 @ 0x9c15b00] non-existing SPS 0 referenced in buffering period
64[h264 @ 0x9c15b00] non-existing PPS 0 referenced
65[h264 @ 0x9c15b00] decode_slice_header error
66[h264 @ 0x9c15b00] no frame!
67[h264 @ 0x9c15b00] non-existing SPS 0 referenced in buffering period
68[h264 @ 0x9c15b00] non-existing PPS referenced
69[h264 @ 0x9c15b00] non-existing SPS 0 referenced in buffering period
70[h264 @ 0x9c15b00] non-existing PPS 0 referenced
71[h264 @ 0x9c15b00] decode_slice_header error
72[h264 @ 0x9c15b00] no frame!
73[h264 @ 0x9c15b00] non-existing SPS 0 referenced in buffering period
74[h264 @ 0x9c15b00] non-existing PPS referenced
75[h264 @ 0x9c15b00] non-existing SPS 0 referenced in buffering period
76[h264 @ 0x9c15b00] non-existing PPS 0 referenced
77[h264 @ 0x9c15b00] decode_slice_header error
78[h264 @ 0x9c15b00] no frame!
79[h264 @ 0x9c15b00] non-existing SPS 0 referenced in buffering period
80[h264 @ 0x9c15b00] non-existing PPS referenced
81[h264 @ 0x9c15b00] non-existing SPS 0 referenced in buffering period
82[h264 @ 0x9c15b00] non-existing PPS 0 referenced
83[h264 @ 0x9c15b00] decode_slice_header error
84[h264 @ 0x9c15b00] no frame!
85[h264 @ 0x9c15b00] non-existing SPS 0 referenced in buffering period
86[h264 @ 0x9c15b00] non-existing PPS referenced
87[h264 @ 0x9c15b00] non-existing SPS 0 referenced in buffering period
88[h264 @ 0x9c15b00] non-existing PPS 0 referenced
89[h264 @ 0x9c15b00] decode_slice_header error
90[h264 @ 0x9c15b00] no frame!
91[h264 @ 0x9c15b00] non-existing SPS 0 referenced in buffering period
92[h264 @ 0x9c15b00] non-existing PPS referenced
93[h264 @ 0x9c15b00] non-existing SPS 0 referenced in buffering period
94[h264 @ 0x9c15b00] non-existing PPS 0 referenced
95[h264 @ 0x9c15b00] decode_slice_header error
96[h264 @ 0x9c15b00] no frame!
97[h264 @ 0x9c15b00] non-existing SPS 0 referenced in buffering period
98[h264 @ 0x9c15b00] non-existing PPS referenced
99[h264 @ 0x9c15b00] Current profile doesn't provide more RBSP data in PPS, skipping
100[h264 @ 0x9c15b00] non-existing SPS 0 referenced in buffering period
101[h264 @ 0x9c15b00] non-existing PPS 0 referenced
102[h264 @ 0x9c15b00] decode_slice_header error
103[h264 @ 0x9c15b00] no frame!
104[h264 @ 0x9c15b00] mmco: unref short failure
105    Last message repeated 1 times
106    Last message repeated 2 times
107    Last message repeated 3 times
108    Last message repeated 3 times
109[h264 @ 0x9c15b00] Missing reference picture
110[h264 @ 0x9c15b00] Increasing reorder buffer to 1
111[h264 @ 0x9c15b00] no picture ooo
112[h264 @ 0x9c15b00] Increasing reorder buffer to 2
113[h264 @ 0x9c15b00] no picture ooo
114    Last message repeated 1 times
115    Last message repeated 1 times
116[h264 @ 0x9c15b00] no picture
117[h264 @ 0x9c15b00] mmco: unref short failure
118[h264 @ 0x9c15b00] no picture
119[h264 @ 0x9c15b00] Current profile doesn't provide more RBSP data in PPS, skipping
120    Last message repeated 1 times
121    Last message repeated 2 times
122    Last message repeated 3 times
123    Last message repeated 4 times
124    Last message repeated 5 times
125    Last message repeated 6 times
126    Last message repeated 7 times
127    Last message repeated 8 times
128    Last message repeated 9 times
129    Last message repeated 10 times
130    Last message repeated 11 times
131    Last message repeated 12 times
132    Last message repeated 12 times
133[mpegts @ 0x9bf6460] Probe buffer size limit 5000000 reached
134[mpegts @ 0x9bf6460] File position after avformat_find_stream_info() is 5161432
135Input #0, mpegts, from '/dev/dvb/adapter0/dvr0':
136  Duration: N/A, start: 48250.774311, bitrate: N/A
137    Stream #0:0[0x1421], 540, 1/90000: Audio: mp2, 48000 Hz, stereo, s16, 192 kb/s
138    Stream #0:1[0x1420], 606, 1/90000: Video: h264 (Main), yuv420p, 720x576 [SAR 16:11 DAR 20:11], 1/50, 46.32 fps, 25 tbr, 90k tbn, 50 tbc
139File 'a.flv' already exists. Overwrite ? [y/N] y
140w:720 h:576 pixfmt:yuv420p tb:1/1000000 sar:16/11 sws_param:flags=2
141[yadif @ 0x9e31340] mode:0 parity:-1 auto_enable:0
142[scale @ 0x9f8bca0] w:720 h:576 fmt:yuv420p sar:16/11 -> w:540 h:432 fmt:yuv420p sar:16/11 flags:0x4
143[flv @ 0x9d8dda0] Either both buffer size and max rate or neither must be specified
144[flv @ 0x9d8dda0] intra_quant_bias = 0 inter_quant_bias = -64
145[h264 @ 0x9c15b00] detected 1 logical cores
146Output #0, flv, to 'a.flv':
147  Metadata:
148    encoder         : Lavf54.3.100
149    Stream #0:0, 0, 1/1000: Video: flv1 ([2][0][0][0] / 0x0002), yuv420p, 540x432 [SAR 16:11 DAR 20:11], 1/18, q=2-31, 1200 kb/s, 1k tbn, 18 tbc
150    Stream #0:1, 0, 1/1000: Audio: adpcm_swf ([1][0][0][0] / 0x0001), 22050 Hz, stereo, s16, 176 kb/s
151Stream mapping:
152  Stream #0:1 -> #0:0 (h264 -> flv)
153  Stream #0:0 -> #0:1 (mp2 -> adpcm_swf)
154Press [q] to stop, [?] for help
155[h264 @ 0x9c15b00] Missing reference picture
156[h264 @ 0x9c15b00] decode_slice_header error
157[h264 @ 0x9c15b00] concealing 1620 DC, 1620 AC, 1620 MV errors
158[h264 @ 0x9c15b00] no picture
159    Last message repeated 1 times
160    Last message repeated 1 times
161[h264 @ 0x9c15b00] reference picture missing during reorder
162    Last message repeated 1 times
163    Last message repeated 1 times
164[h264 @ 0x9c15b00] Missing reference picture
165    Last message repeated 1 times
166    Last message repeated 2 times
167    Last message repeated 2 times
168[h264 @ 0x9c15b00] mmco: unref short failure
169[h264 @ 0x9c15b00] reference picture missing during reorder
170[h264 @ 0x9c15b00] Missing reference picture
171    Last message repeated 1 times
172    Last message repeated 1 times
173[h264 @ 0x9c15b00] mmco: unref short failure
174frame=    0 fps=0.0 q=0.0 size=       0kB time=00:00:00.00 bitrate=   0.0kbits/s   
175*** drop!
176frame=    4 fps=3.8 q=2.0 size=      20kB time=00:00:00.88 bitrate= 183.0kbits/s dup=0 drop=1   
177*** drop!
178    Last message repeated 1 times
179    Last message repeated 2 times
180    Last message repeated 2 times
181frame=   11 fps=7.1 q=7.0 size=      25kB time=00:00:01.11 bitrate= 182.1kbits/s dup=0 drop=4   
182*** drop!
183    Last message repeated 1 times
184    Last message repeated 2 times
185    Last message repeated 2 times
186frame=   20 fps=9.7 q=3.7 size=     159kB time=00:00:01.25 bitrate=1037.2kbits/s dup=0 drop=7   
187*** drop!
188    Last message repeated 1 times
189    Last message repeated 2 times
190    Last message repeated 2 times
191frame=   29 fps= 11 q=3.2 size=     397kB time=00:00:01.57 bitrate=2058.4kbits/s dup=0 drop=10   
192*** drop!
193    Last message repeated 1 times
194    Last message repeated 2 times
195    Last message repeated 2 times
196frame=   37 fps= 12 q=3.6 size=     468kB time=00:00:02.13 bitrate=1794.3kbits/s dup=0 drop=13   
197*** drop!
198    Last message repeated 1 times
199    Last message repeated 2 times
200    Last message repeated 2 times
201frame=   45 fps= 13 q=4.6 size=     594kB time=00:00:02.87 bitrate=1688.8kbits/s dup=0 drop=16   
202*** drop!
203    Last message repeated 1 times
204    Last message repeated 2 times
205    Last message repeated 3 times
206    Last message repeated 3 times
207frame=   53 fps= 13 q=3.9 size=     676kB time=00:00:03.29 bitrate=1680.4kbits/s dup=0 drop=20   
208*** drop!
209    Last message repeated 1 times
210    Last message repeated 2 times
211    Last message repeated 2 times
212frame=   62 fps= 13 q=3.9 size=     784kB time=00:00:03.85 bitrate=1666.2kbits/s dup=0 drop=23   
213*** drop!
214    Last message repeated 1 times
215    Last message repeated 2 times
216    Last message repeated 2 times
217frame=   70 fps= 14 q=3.1 size=     819kB time=00:00:04.13 bitrate=1623.9kbits/s dup=0 drop=26   
218*** drop!
219    Last message repeated 1 times
220    Last message repeated 2 times
221    Last message repeated 2 times
222frame=   78 fps= 14 q=3.5 size=     925kB time=00:00:04.73 bitrate=1598.5kbits/s dup=0 drop=29   
223*** drop!
224    Last message repeated 1 times
225    Last message repeated 2 times
226    Last message repeated 3 times
227    Last message repeated 3 times
228frame=   86 fps= 14 q=4.0 size=    1018kB time=00:00:05.29 bitrate=1575.1kbits/s dup=0 drop=33   
229*** drop!
230    Last message repeated 1 times
231    Last message repeated 2 times
232    Last message repeated 2 times
233frame=   95 fps= 14 q=3.7 size=    1056kB time=00:00:05.57 bitrate=1552.3kbits/s dup=0 drop=36   
234*** drop!
235    Last message repeated 1 times
236    Last message repeated 2 times
237    Last message repeated 2 times
238frame=  103 fps= 14 q=2.9 size=    1148kB time=00:00:06.03 bitrate=1557.2kbits/s dup=0 drop=39   
239*** drop!
240    Last message repeated 1 times
241    Last message repeated 2 times
242    Last message repeated 2 times
243frame=  110 fps= 14 q=2.9 size=    1181kB time=00:00:06.31 bitrate=1531.7kbits/s dup=0 drop=42   
244*** drop!
245    Last message repeated 1 times
246    Last message repeated 2 times
247    Last message repeated 2 times
248frame=  118 fps= 14 q=2.6 size=    1265kB time=00:00:06.78 bitrate=1528.8kbits/s dup=0 drop=45   
249*** drop!
250    Last message repeated 1 times
251    Last message repeated 2 times
252    Last message repeated 2 times
253frame=  127 fps= 15 q=3.6 size=    1351kB time=00:00:07.33 bitrate=1508.4kbits/s dup=0 drop=48   
254*** drop!
255    Last message repeated 1 times
256    Last message repeated 2 times
257    Last message repeated 2 times
258frame=  135 fps= 15 q=3.8 size=    1424kB time=00:00:07.75 bitrate=1504.0kbits/s dup=0 drop=51   
259*** drop!
260    Last message repeated 1 times
261    Last message repeated 2 times
262    Last message repeated 3 times
263    Last message repeated 3 times
264frame=  142 fps= 15 q=2.6 size=    1486kB time=00:00:08.17 bitrate=1489.5kbits/s dup=0 drop=55   
265*** drop!
266    Last message repeated 1 times
267    Last message repeated 2 times
268    Last message repeated 2 times
269frame=  150 fps= 15 q=3.0 size=    1572kB time=00:00:08.63 bitrate=1490.2kbits/s dup=0 drop=58   
270*** drop!
271    Last message repeated 1 times
272    Last message repeated 2 times
273    Last message repeated 2 times
274frame=  158 fps= 15 q=3.1 size=    1646kB time=00:00:09.05 bitrate=1488.9kbits/s dup=0 drop=61   
275*** drop!
276    Last message repeated 1 times
277    Last message repeated 2 times
278    Last message repeated 2 times
279frame=  166 fps= 15 q=2.5 size=    1695kB time=00:00:09.47 bitrate=1465.5kbits/s dup=0 drop=64   
280*** drop!
281    Last message repeated 1 times
282    Last message repeated 2 times
283    Last message repeated 2 times
284frame=  174 fps= 15 q=3.0 size=    1779kB time=00:00:09.89 bitrate=1472.9kbits/s dup=0 drop=67   
285*** drop!
286    Last message repeated 1 times
287    Last message repeated 2 times
288    Last message repeated 2 times
289frame=  182 fps= 15 q=3.2 size=    1865kB time=00:00:10.35 bitrate=1475.1kbits/s dup=0 drop=70   
290*** drop!
291    Last message repeated 1 times
292    Last message repeated 2 times
293    Last message repeated 2 times
294frame=  190 fps= 15 q=2.7 size=    1935kB time=00:00:10.91 bitrate=1452.2kbits/s dup=0 drop=73   
295*** drop!
296    Last message repeated 1 times
297    Last message repeated 2 times
298    Last message repeated 2 times
299frame=  198 fps= 15 q=3.3 size=    2022kB time=00:00:11.33 bitrate=1461.7kbits/s dup=0 drop=76   
300*** drop!
301    Last message repeated 1 times
302    Last message repeated 2 times
303    Last message repeated 2 times
304frame=  207 fps= 15 q=3.1 size=    2059kB time=00:00:11.65 bitrate=1447.2kbits/s dup=0 drop=79   
305*** drop!
306    Last message repeated 1 times
307    Last message repeated 2 times
308    Last message repeated 3 times
309    Last message repeated 3 times
310frame=  215 fps= 15 q=3.2 size=    2125kB time=00:00:11.93 bitrate=1458.3kbits/s dup=0 drop=83   
311*** drop!
312    Last message repeated 1 times
313    Last message repeated 2 times
314    Last message repeated 2 times
315frame=  224 fps= 15 q=2.5 size=    2230kB time=00:00:12.49 bitrate=1462.2kbits/s dup=0 drop=86   
316*** drop!
317    Last message repeated 1 times
318    Last message repeated 2 times
319    Last message repeated 2 times
320frame=  232 fps= 15 q=2.8 size=    2282kB time=00:00:12.95 bitrate=1442.9kbits/s dup=0 drop=89   
321*** drop!
322[mpegts @ 0x9bf6460] PES packet size mismatch
323[mp2 @ 0x9c0eb00] incomplete frame
324Error while decoding stream #0:0
325[h264 @ 0x9c15b00] error while decoding MB 20 8, bytestream (-7)
326*** drop!
327frame=  235 fps= 15 q=2.6 Lsize=    2455kB time=00:00:13.09 bitrate=1536.0kbits/s dup=0 drop=91   
328
329video:2164kB audio:283kB global headers:0kB muxing overhead 0.342885%
330ep ffmpeg #