Ticket #1224: mkv.log

File mkv.log, 38.6 KB (added by eregi, 4 years ago)
Line 
1=~=~=~=~=~=~=~=~=~=~=~= PuTTY log 2012.04.21 16:28:09 =~=~=~=~=~=~=~=~=~=~=~=
2./ffmpeg_g -loglevel 99 -i /dev/dvb/adapter0/dvr0 -an a.mkv
3ffmpeg version N-39877-g4fa706a Copyright (c) 2000-2012 the FFmpeg developers
4  built on Apr 16 2012 21:18:03 with gcc 4.5.3
5  configuration: --enable-libx264 --enable-gpl
6  libavutil      51. 46.100 / 51. 46.100
7  libavcodec     54. 14.101 / 54. 14.101
8  libavformat    54.  3.100 / 54.  3.100
9  libavdevice    53.  4.100 / 53.  4.100
10  libavfilter     2. 70.100 /  2. 70.100
11  libswscale      2.  1.100 /  2.  1.100
12  libswresample   0. 11.100 /  0. 11.100
13  libpostproc    52.  0.100 / 52.  0.100
14[mpegts @ 0x96ef380] Format mpegts probed with size=2048 and score=100
15[mpegts @ 0x96ef380] File position before avformat_find_stream_info() is 0
16[mpegts @ 0x96ef380] stream=0 stream_type=0 pid=1420 prog_reg_desc=
17[mpegts @ 0x96ef380] probing stream 0 pp:2500
18[mpegts @ 0x96ef380] probing stream 0 pp:2499
19[mpegts @ 0x96ef380] stream=1 stream_type=0 pid=1421 prog_reg_desc=
20[mpegts @ 0x96ef380] probing stream 0 pp:2498
21[mpegts @ 0x96ef380] probing stream 0 pp:2497
22[mpegts @ 0x96ef380] probing stream 0 pp:2496
23[mpegts @ 0x96ef380] probing stream 1 pp:2500
24[mpegts @ 0x96ef380] Probe with size=3456, packets=1 detected mp3 with score=51
25[mpegts @ 0x96ef380] probed stream 1
26[mpegts @ 0x96ef380] probing stream 0 pp:2495
27[mpegts @ 0x96ef380] probing stream 0 pp:2494
28[mpegts @ 0x96ef380] probing stream 0 pp:2493
29[mpegts @ 0x96ef380] probing stream 0 pp:2492
30[mpegts @ 0x96ef380] probing stream 0 pp:2491
31[mpegts @ 0x96ef380] probing stream 0 pp:2490
32[mpegts @ 0x96ef380] probing stream 0 pp:2489
33[mpegts @ 0x96ef380] probing stream 0 pp:2488
34[mpegts @ 0x96ef380] probing stream 0 pp:2487
35[mpegts @ 0x96ef380] probing stream 0 pp:2486
36[mpegts @ 0x96ef380] probing stream 0 pp:2485
37[mpegts @ 0x96ef380] probing stream 0 pp:2484
38[mpegts @ 0x96ef380] probing stream 0 pp:2483
39[mpegts @ 0x96ef380] probing stream 0 pp:2482
40[mpegts @ 0x96ef380] probing stream 0 pp:2481
41[mpegts @ 0x96ef380] probing stream 0 pp:2480
42[mpegts @ 0x96ef380] probing stream 0 pp:2479
43[mpegts @ 0x96ef380] probing stream 0 pp:2478
44[mpegts @ 0x96ef380] probing stream 0 pp:2477
45[mpegts @ 0x96ef380] probing stream 0 pp:2476
46[mpegts @ 0x96ef380] probing stream 0 pp:2475
47[mpegts @ 0x96ef380] probing stream 0 pp:2474
48[mpegts @ 0x96ef380] probing stream 0 pp:2473
49[mpegts @ 0x96ef380] probing stream 0 pp:2472
50[mpegts @ 0x96ef380] Probe with size=526521, packets=29 detected h264 with score=51
51[mpegts @ 0x96ef380] probed stream 0
52[NULL @ 0x97079c0] non-existing SPS 0 referenced in buffering period
53[NULL @ 0x97079c0] non-existing PPS referenced
54[h264 @ 0x97079c0] non-existing SPS 0 referenced in buffering period
55[h264 @ 0x97079c0] non-existing PPS 0 referenced
56[h264 @ 0x97079c0] decode_slice_header error
57[h264 @ 0x97079c0] no frame!
58[h264 @ 0x97079c0] non-existing SPS 0 referenced in buffering period
59[h264 @ 0x97079c0] non-existing PPS referenced
60[h264 @ 0x97079c0] non-existing SPS 0 referenced in buffering period
61[h264 @ 0x97079c0] non-existing PPS 0 referenced
62[h264 @ 0x97079c0] decode_slice_header error
63[h264 @ 0x97079c0] no frame!
64[h264 @ 0x97079c0] non-existing SPS 0 referenced in buffering period
65[h264 @ 0x97079c0] non-existing PPS referenced
66[h264 @ 0x97079c0] non-existing SPS 0 referenced in buffering period
67[h264 @ 0x97079c0] non-existing PPS 0 referenced
68[h264 @ 0x97079c0] decode_slice_header error
69[h264 @ 0x97079c0] no frame!
70[h264 @ 0x97079c0] non-existing SPS 0 referenced in buffering period
71[h264 @ 0x97079c0] non-existing PPS referenced
72[h264 @ 0x97079c0] non-existing SPS 0 referenced in buffering period
73[h264 @ 0x97079c0] non-existing PPS 0 referenced
74[h264 @ 0x97079c0] decode_slice_header error
75[h264 @ 0x97079c0] no frame!
76[h264 @ 0x97079c0] non-existing SPS 0 referenced in buffering period
77[h264 @ 0x97079c0] non-existing PPS referenced
78[h264 @ 0x97079c0] non-existing SPS 0 referenced in buffering period
79[h264 @ 0x97079c0] non-existing PPS 0 referenced
80[h264 @ 0x97079c0] decode_slice_header error
81[h264 @ 0x97079c0] no frame!
82[h264 @ 0x97079c0] non-existing SPS 0 referenced in buffering period
83[h264 @ 0x97079c0] non-existing PPS referenced
84[h264 @ 0x97079c0] non-existing SPS 0 referenced in buffering period
85[h264 @ 0x97079c0] non-existing PPS 0 referenced
86[h264 @ 0x97079c0] decode_slice_header error
87[h264 @ 0x97079c0] no frame!
88[h264 @ 0x97079c0] non-existing SPS 0 referenced in buffering period
89[h264 @ 0x97079c0] non-existing PPS referenced
90[h264 @ 0x97079c0] non-existing SPS 0 referenced in buffering period
91[h264 @ 0x97079c0] non-existing PPS 0 referenced
92[h264 @ 0x97079c0] decode_slice_header error
93[h264 @ 0x97079c0] no frame!
94[h264 @ 0x97079c0] non-existing SPS 0 referenced in buffering period
95[h264 @ 0x97079c0] non-existing PPS referenced
96[h264 @ 0x97079c0] non-existing SPS 0 referenced in buffering period
97[h264 @ 0x97079c0] non-existing PPS 0 referenced
98[h264 @ 0x97079c0] decode_slice_header error
99[h264 @ 0x97079c0] no frame!
100[h264 @ 0x97079c0] non-existing SPS 0 referenced in buffering period
101[h264 @ 0x97079c0] non-existing PPS referenced
102[h264 @ 0x97079c0] non-existing SPS 0 referenced in buffering period
103[h264 @ 0x97079c0] non-existing PPS 0 referenced
104[h264 @ 0x97079c0] decode_slice_header error
105[h264 @ 0x97079c0] no frame!
106[h264 @ 0x97079c0] non-existing SPS 0 referenced in buffering period
107[h264 @ 0x97079c0] non-existing PPS referenced
108[h264 @ 0x97079c0] non-existing SPS 0 referenced in buffering period
109[h264 @ 0x97079c0] non-existing PPS 0 referenced
110[h264 @ 0x97079c0] decode_slice_header error
111[h264 @ 0x97079c0] no frame!
112[h264 @ 0x97079c0] non-existing SPS 0 referenced in buffering period
113[h264 @ 0x97079c0] non-existing PPS referenced
114[h264 @ 0x97079c0] non-existing SPS 0 referenced in buffering period
115[h264 @ 0x97079c0] non-existing PPS 0 referenced
116[h264 @ 0x97079c0] decode_slice_header error
117[h264 @ 0x97079c0] no frame!
118[h264 @ 0x97079c0] non-existing SPS 0 referenced in buffering period
119[h264 @ 0x97079c0] non-existing PPS referenced
120[h264 @ 0x97079c0] non-existing SPS 0 referenced in buffering period
121[h264 @ 0x97079c0] non-existing PPS 0 referenced
122[h264 @ 0x97079c0] decode_slice_header error
123[h264 @ 0x97079c0] no frame!
124[h264 @ 0x97079c0] non-existing SPS 0 referenced in buffering period
125[h264 @ 0x97079c0] non-existing PPS referenced
126[h264 @ 0x97079c0] non-existing SPS 0 referenced in buffering period
127[h264 @ 0x97079c0] non-existing PPS 0 referenced
128[h264 @ 0x97079c0] decode_slice_header error
129[h264 @ 0x97079c0] no frame!
130[h264 @ 0x97079c0] non-existing SPS 0 referenced in buffering period
131[h264 @ 0x97079c0] non-existing PPS referenced
132[h264 @ 0x97079c0] non-existing SPS 0 referenced in buffering period
133[h264 @ 0x97079c0] non-existing PPS 0 referenced
134[h264 @ 0x97079c0] decode_slice_header error
135[h264 @ 0x97079c0] no frame!
136[h264 @ 0x97079c0] non-existing SPS 0 referenced in buffering period
137[h264 @ 0x97079c0] non-existing PPS referenced
138[h264 @ 0x97079c0] non-existing SPS 0 referenced in buffering period
139[h264 @ 0x97079c0] non-existing PPS 0 referenced
140[h264 @ 0x97079c0] decode_slice_header error
141[h264 @ 0x97079c0] no frame!
142[h264 @ 0x97079c0] non-existing SPS 0 referenced in buffering period
143[h264 @ 0x97079c0] non-existing PPS referenced
144[h264 @ 0x97079c0] non-existing SPS 0 referenced in buffering period
145[h264 @ 0x97079c0] non-existing PPS 0 referenced
146[h264 @ 0x97079c0] decode_slice_header error
147[h264 @ 0x97079c0] no frame!
148[h264 @ 0x97079c0] non-existing SPS 0 referenced in buffering period
149[h264 @ 0x97079c0] non-existing PPS referenced
150[h264 @ 0x97079c0] non-existing SPS 0 referenced in buffering period
151[h264 @ 0x97079c0] non-existing PPS 0 referenced
152[h264 @ 0x97079c0] decode_slice_header error
153[h264 @ 0x97079c0] no frame!
154[h264 @ 0x97079c0] non-existing SPS 0 referenced in buffering period
155[h264 @ 0x97079c0] non-existing PPS referenced
156[h264 @ 0x97079c0] non-existing SPS 0 referenced in buffering period
157[h264 @ 0x97079c0] non-existing PPS 0 referenced
158[h264 @ 0x97079c0] decode_slice_header error
159[h264 @ 0x97079c0] no frame!
160[h264 @ 0x97079c0] non-existing SPS 0 referenced in buffering period
161[h264 @ 0x97079c0] non-existing PPS referenced
162[h264 @ 0x97079c0] non-existing SPS 0 referenced in buffering period
163[h264 @ 0x97079c0] non-existing PPS 0 referenced
164[h264 @ 0x97079c0] decode_slice_header error
165[h264 @ 0x97079c0] no frame!
166[h264 @ 0x97079c0] non-existing SPS 0 referenced in buffering period
167[h264 @ 0x97079c0] non-existing PPS referenced
168[h264 @ 0x97079c0] non-existing SPS 0 referenced in buffering period
169[h264 @ 0x97079c0] non-existing PPS 0 referenced
170[h264 @ 0x97079c0] decode_slice_header error
171[h264 @ 0x97079c0] no frame!
172[h264 @ 0x97079c0] non-existing SPS 0 referenced in buffering period
173[h264 @ 0x97079c0] non-existing PPS referenced
174[h264 @ 0x97079c0] non-existing SPS 0 referenced in buffering period
175[h264 @ 0x97079c0] non-existing PPS 0 referenced
176[h264 @ 0x97079c0] decode_slice_header error
177[h264 @ 0x97079c0] no frame!
178[h264 @ 0x97079c0] non-existing SPS 0 referenced in buffering period
179[h264 @ 0x97079c0] non-existing PPS referenced
180[h264 @ 0x97079c0] non-existing SPS 0 referenced in buffering period
181[h264 @ 0x97079c0] non-existing PPS 0 referenced
182[h264 @ 0x97079c0] decode_slice_header error
183[h264 @ 0x97079c0] no frame!
184[h264 @ 0x97079c0] non-existing SPS 0 referenced in buffering period
185[h264 @ 0x97079c0] non-existing PPS referenced
186[h264 @ 0x97079c0] Current profile doesn't provide more RBSP data in PPS, skipping
187[h264 @ 0x97079c0] non-existing SPS 0 referenced in buffering period
188[h264 @ 0x97079c0] non-existing PPS 0 referenced
189[h264 @ 0x97079c0] decode_slice_header error
190[h264 @ 0x97079c0] no frame!
191[h264 @ 0x97079c0] mmco: unref short failure
192    Last message repeated 1 times
193    Last message repeated 2 times
194    Last message repeated 3 times
195    Last message repeated 3 times
196[h264 @ 0x97079c0] Missing reference picture
197[h264 @ 0x97079c0] Increasing reorder buffer to 1
198[h264 @ 0x97079c0] no picture ooo
199[h264 @ 0x97079c0] Increasing reorder buffer to 2
200[h264 @ 0x97079c0] no picture ooo
201    Last message repeated 1 times
202    Last message repeated 1 times
203[h264 @ 0x97079c0] no picture
204[h264 @ 0x97079c0] mmco: unref short failure
205[h264 @ 0x97079c0] no picture
206[h264 @ 0x97079c0] Current profile doesn't provide more RBSP data in PPS, skipping
207    Last message repeated 1 times
208    Last message repeated 2 times
209    Last message repeated 3 times
210    Last message repeated 3 times
211[mpegts @ 0x96ef380] max_analyze_duration 5000000 reached at 5016000
212[mpegts @ 0x96ef380] File position after avformat_find_stream_info() is 1952648
213Input #0, mpegts, from '/dev/dvb/adapter0/dvr0':
214  Duration: N/A, start: 60196.150311, bitrate: N/A
215    Stream #0:0[0x1420], 135, 1/90000: Video: h264 (Main), yuv420p, 720x576 [SAR 12:11 DAR 15:11], 1/50, 31.22 fps, 25 tbr, 90k tbn, 50 tbc
216    Stream #0:1[0x1421], 211, 1/90000: Audio: mp2, 48000 Hz, stereo, s16, 192 kb/s
217File 'a.mkv' already exists. Overwrite ? [y/N] y
218w:720 h:576 pixfmt:yuv420p tb:1/1000000 sar:12/11 sws_param:flags=2
219[libx264 @ 0x970d800] using SAR=12/11
220[libx264 @ 0x970d800] using cpu capabilities: MMX2 SSE2 Cache64
221[libx264 @ 0x970d800] profile High, level 3.0
222[libx264 @ 0x970d800] 264 - core 120 r2146 bcd41db - H.264/MPEG-4 AVC codec - Copyleft 2003-2011 - http://www.videolan.org/x264.html - options: cabac=1 ref=3 deblock=1:0:0 analyse=0x3:0x113 me=hex subme=7 psy=1 psy_rd=1.00:0.00 mixed_ref=1 me_range=16 chroma_me=1 trellis=1 8x8dct=1 cqm=0 deadzone=21,11 fast_pskip=1 chroma_qp_offset=-2 threads=1 sliced_threads=0 nr=0 decimate=1 interlaced=0 bluray_compat=0 constrained_intra=0 bframes=3 b_pyramid=2 b_adapt=1 b_bias=0 direct=1 weightb=1 open_gop=0 weightp=2 keyint=250 keyint_min=25 scenecut=40 intra_refresh=0 rc_lookahead=40 rc=crf mbtree=1 crf=23.0 qcomp=0.60 qpmin=0 qpmax=69 qpstep=4 ip_ratio=1.40 aq=1:1.00
223[h264 @ 0x97079c0] detected 1 logical cores
224Output #0, matroska, to 'a.mkv':
225  Metadata:
226    encoder         : Lavf54.3.100
227    Stream #0:0, 0, 1/1000: Video: h264, yuv420p, 720x576 [SAR 12:11 DAR 15:11], 1/25, q=-1--1, 1k tbn, 25 tbc
228Stream mapping:
229  Stream #0:0 -> #0:0 (h264 -> libx264)
230Press [q] to stop, [?] for help
231[h264 @ 0x97079c0] Missing reference picture
232[h264 @ 0x97079c0] decode_slice_header error
233[h264 @ 0x97079c0] concealing 1620 DC, 1620 AC, 1620 MV errors
234[h264 @ 0x97079c0] no picture
235    Last message repeated 1 times
236    Last message repeated 1 times
237[h264 @ 0x97079c0] reference picture missing during reorder
238[h264 @ 0x97079c0] Missing reference picture
239    Last message repeated 1 times
240    Last message repeated 1 times
241[h264 @ 0x97079c0] mmco: unref short failure
242[h264 @ 0x97079c0] reference picture missing during reorder
243[h264 @ 0x97079c0] Missing reference picture
244    Last message repeated 1 times
245    Last message repeated 1 times
246[h264 @ 0x97079c0] mmco: unref short failure
247frame=    0 fps=0.0 q=0.0 size=       1kB time=00:00:00.00 bitrate=   0.0kbits/s   
248frame=   21 fps= 21 q=0.0 size=       1kB time=00:00:00.00 bitrate=   0.0kbits/s   
249frame=   41 fps= 27 q=0.0 size=       1kB time=00:00:00.00 bitrate=   0.0kbits/s   
250frame=   0 QP=18.64 NAL=3 Slice:I Poc:0   I:1620 P:0    SKIP:0    size=20055 bytes
251[matroska @ 0x970f4a0] Writing block at offset 586, size 20724, pts 1760, dts 1680, duration 40, flags 128
252frame=   42 fps= 18 q=28.0 size=       1kB time=00:00:01.72 bitrate=   2.7kbits/s   
253frame=   1 QP=21.23 NAL=2 Slice:P Poc:4   I:194  P:548  SKIP:878  size=6244 bytes
254[matroska @ 0x970f4a0] Writing block at offset 21319, size 6244, pts 1840, dts 1720, duration 40, flags 0
255[libx264 @ 0x970d800] frame=   2 QP=28.30 NAL=0 Slice:B Poc:2   I:9    P:470  SKIP:1114 size=1656 bytes
256[matroska @ 0x970f4a0] Writing block at offset 27570, size 1656, pts 1800, dts 1760, duration 40, flags 0
257[libx264 @ 0x970d800] frame=   3 QP=21.07 NAL=2 Slice:P Poc:8   I:136  P:585  SKIP:899  size=6112 bytes
258[matroska @ 0x970f4a0] Writing block at offset 29233, size 6112, pts 1920, dts 1800, duration 40, flags 0
259[libx264 @ 0x970d800] frame=   4 QP=28.36 NAL=0 Slice:B Poc:6   I:5    P:438  SKIP:1158 size=1267 bytes
260[matroska @ 0x970f4a0] Writing block at offset 35352, size 1267, pts 1880, dts 1840, duration 40, flags 0
261frame=   46 fps= 15 q=28.0 size=      33kB time=00:00:01.88 bitrate= 141.9kbits/s   
262frame=   5 QP=22.11 NAL=2 Slice:P Poc:12  I:136  P:566  SKIP:918  size=5658 bytes
263[matroska @ 0x970f4a0] Writing block at offset 36626, size 5658, pts 2000, dts 1880, duration 40, flags 0
264[libx264 @ 0x970d800] frame=   6 QP=28.79 NAL=0 Slice:B Poc:10  I:8    P:432  SKIP:1158 size=1340 bytes
265[matroska @ 0x970f4a0] Writing block at offset 42291, size 1340, pts 1960, dts 1920, duration 40, flags 0
266frame=   48 fps= 13 q=28.0 size=      33kB time=00:00:01.96 bitrate= 136.1kbits/s   
267frame=   7 QP=24.36 NAL=2 Slice:P Poc:16  I:123  P:567  SKIP:930  size=4902 bytes
268[matroska @ 0x970f4a0] Writing block at offset 43638, size 4902, pts 2080, dts 1960, duration 40, flags 0
269[libx264 @ 0x970d800] frame=   8 QP=29.78 NAL=0 Slice:B Poc:14  I:6    P:402  SKIP:1201 size=1058 bytes
270[matroska @ 0x970f4a0] Writing block at offset 48547, size 1058, pts 2040, dts 2000, duration 40, flags 0
271frame=   50 fps= 12 q=28.0 size=      33kB time=00:00:02.04 bitrate= 130.7kbits/s   
272frame=   9 QP=23.28 NAL=2 Slice:P Poc:20  I:103  P:574  SKIP:943  size=4986 bytes
273[matroska @ 0x970f4a0] Writing block at offset 49612, size 4986, pts 2160, dts 2040, duration 40, flags 0
274[libx264 @ 0x970d800] frame=  10 QP=29.79 NAL=0 Slice:B Poc:18  I:3    P:470  SKIP:1135 size=1376 bytes
275[matroska @ 0x970f4a0] Writing block at offset 54605, size 1376, pts 2120, dts 2080, duration 40, flags 0
276[libx264 @ 0x970d800] frame=  11 QP=24.32 NAL=2 Slice:P Poc:24  I:138  P:536  SKIP:946  size=4293 bytes
277[matroska @ 0x970f4a0] Writing block at offset 55988, size 4293, pts 2240, dts 2120, duration 40, flags 0
278frame=   53 fps= 11 q=28.0 size=      33kB time=00:00:02.16 bitrate= 123.5kbits/s   
279frame=  12 QP=29.32 NAL=0 Slice:B Poc:22  I:6    P:436  SKIP:1168 size=1247 bytes
280[matroska @ 0x970f4a0] Writing block at offset 60288, size 1247, pts 2200, dts 2160, duration 40, flags 0
281[libx264 @ 0x970d800] frame=  13 QP=24.77 NAL=2 Slice:P Poc:28  I:116  P:522  SKIP:982  size=3140 bytes
282[matroska @ 0x970f4a0] Writing block at offset 61542, size 3140, pts 2320, dts 2200, duration 40, flags 0
283frame=   55 fps= 10 q=28.0 size=      33kB time=00:00:02.24 bitrate= 119.1kbits/s   
284frame=  14 QP=29.54 NAL=0 Slice:B Poc:26  I:5    P:397  SKIP:1209 size=987 bytes
285[matroska @ 0x970f4a0] Writing block at offset 64689, size 987, pts 2280, dts 2240, duration 40, flags 0
286[libx264 @ 0x970d800] frame=  15 QP=28.23 NAL=2 Slice:P Poc:32  I:114  P:488  SKIP:1018 size=2547 bytes
287[matroska @ 0x970f4a0] Writing block at offset 65683, size 2547, pts 2400, dts 2280, duration 40, flags 0
288[libx264 @ 0x970d800] frame=  16 QP=28.72 NAL=0 Slice:B Poc:30  I:8    P:430  SKIP:1164 size=1341 bytes
289[matroska @ 0x970f4a0] Writing block at offset 68237, size 1341, pts 2360, dts 2320, duration 40, flags 0
290frame=   58 fps=9.6 q=28.0 size=      65kB time=00:00:02.36 bitrate= 224.1kbits/s   
291scene cut at 17 Icost:1029469 Pcost:1021444 ratio:0.0078 bias:0.0680 gop:17 (imb:1418 pmb:44)
292[libx264 @ 0x970d800] frame=  17 QP=18.87 NAL=2 Slice:I Poc:34  I:1620 P:0    SKIP:0    size=42931 bytes
293[matroska @ 0x970f4a0] Writing block at offset 69585, size 42931, pts 2440, dts 2360, duration 40, flags 0
294[libx264 @ 0x970d800] frame=  18 QP=21.20 NAL=2 Slice:P Poc:42  I:44   P:948  SKIP:628  size=5714 bytes
295[matroska @ 0x970f4a0] Writing block at offset 112524, size 5714, pts 2600, dts 2400, duration 40, flags 0
296frame=   60 fps=8.8 q=28.0 size=      97kB time=00:00:02.44 bitrate= 324.2kbits/s   
297frame=  19 QP=25.54 NAL=2 Slice:B Poc:38  I:3    P:645  SKIP:958  size=1291 bytes
298[matroska @ 0x970f4a0] Writing block at offset 118245, size 1291, pts 2520, dts 2440, duration 40, flags 0
299[libx264 @ 0x970d800] frame=  20 QP=30.42 NAL=0 Slice:B Poc:36  I:1    P:385  SKIP:1227 size=700 bytes
300[matroska @ 0x970f4a0] Writing block at offset 119543, size 700, pts 2480, dts 2480, duration 40, flags 0
301frame=   62 fps=8.2 q=28.0 size=      97kB time=00:00:02.52 bitrate= 313.9kbits/s   
302frame=  21 QP=25.98 NAL=0 Slice:B Poc:40  I:2    P:354  SKIP:1262 size=559 bytes
303[matroska @ 0x970f4a0] Writing block at offset 120250, size 559, pts 2560, dts 2520, duration 40, flags 0
304[libx264 @ 0x970d800] frame=  22 QP=22.26 NAL=2 Slice:P Poc:50  I:21   P:956  SKIP:643  size=5142 bytes
305[matroska @ 0x970f4a0] Writing block at offset 120816, size 5142, pts 2760, dts 2560, duration 40, flags 0
306[libx264 @ 0x970d800] frame=  23 QP=24.32 NAL=2 Slice:B Poc:46  I:2    P:613  SKIP:996  size=955 bytes
307[matroska @ 0x970f4a0] Writing block at offset 125965, size 955, pts 2680, dts 2600, duration 40, flags 0
308frame=   65 fps=7.8 q=28.0 size=      97kB time=00:00:02.64 bitrate= 299.6kbits/s   
309frame=  24 QP=24.52 NAL=0 Slice:B Poc:44  I:0    P:397  SKIP:1220 size=544 bytes
310[matroska @ 0x970f4a0] Writing block at offset 126927, size 544, pts 2640, dts 2640, duration 40, flags 0
311frame=   66 fps=7.5 q=28.0 size=      97kB time=00:00:02.68 bitrate= 295.1kbits/s   
312frame=  25 QP=26.43 NAL=0 Slice:B Poc:48  I:0    P:426  SKIP:1194 size=512 bytes
313[matroska @ 0x970f4a0] Writing block at offset 127478, size 512, pts 2720, dts 2680, duration 40, flags 0
314[libx264 @ 0x970d800] frame=  26 QP=21.53 NAL=2 Slice:P Poc:58  I:31   P:931  SKIP:658  size=4838 bytes
315[matroska @ 0x970f4a0] Writing block at offset 127997, size 4838, pts 2920, dts 2720, duration 40, flags 0
316[libx264 @ 0x970d800] frame=  27 QP=26.21 NAL=2 Slice:B Poc:54  I:2    P:621  SKIP:990  size=874 bytes
317[matroska @ 0x970f4a0] Writing block at offset 132842, size 874, pts 2840, dts 2760, duration 40, flags 0
318frame=   69 fps=7.3 q=28.0 size=     129kB time=00:00:02.80 bitrate= 376.1kbits/s   
319frame=  28 QP=27.84 NAL=0 Slice:B Poc:52  I:1    P:278  SKIP:1340 size=377 bytes
320[matroska @ 0x970f4a0] Writing block at offset 133723, size 377, pts 2800, dts 2800, duration 40, flags 0
321[libx264 @ 0x970d800] frame=  29 QP=26.85 NAL=0 Slice:B Poc:56  I:0    P:316  SKIP:1304 size=351 bytes
322[matroska @ 0x970f4a0] Writing block at offset 134107, size 351, pts 2880, dts 2840, duration 40, flags 0
323frame=   71 fps=7.1 q=28.0 size=     129kB time=00:00:02.88 bitrate= 365.7kbits/s   
324frame=  30 QP=22.40 NAL=2 Slice:P Poc:66  I:32   P:815  SKIP:773  size=4002 bytes
325[matroska @ 0x970f4a0] Writing block at offset 134465, size 4002, pts 3080, dts 2880, duration 40, flags 0
326[libx264 @ 0x970d800] frame=  31 QP=24.81 NAL=2 Slice:B Poc:62  I:3    P:655  SKIP:956  size=1045 bytes
327[matroska @ 0x970f4a0] Writing block at offset 138474, size 1045, pts 3000, dts 2920, duration 40, flags 0
328frame=   73 fps=6.9 q=28.0 size=     129kB time=00:00:02.96 bitrate= 355.8kbits/s   
329frame=  32 QP=26.36 NAL=0 Slice:B Poc:60  I:0    P:370  SKIP:1248 size=402 bytes
330[matroska @ 0x970f4a0] Writing block at offset 139526, size 402, pts 2960, dts 2960, duration 40, flags 0
331frame=   74 fps=6.7 q=28.0 size=     129kB time=00:00:03.00 bitrate= 351.0kbits/s   
332frame=  33 QP=27.11 NAL=0 Slice:B Poc:64  I:0    P:439  SKIP:1181 size=526 bytes
333[matroska @ 0x970f4a0] Writing block at offset 139935, size 526, pts 3040, dts 3000, duration 40, flags 0
334[libx264 @ 0x970d800] frame=  34 QP=23.33 NAL=2 Slice:P Poc:74  I:44   P:828  SKIP:748  size=3956 bytes
335[matroska @ 0x970f4a0] Writing block at offset 140468, size 3956, pts 3240, dts 3040, duration 40, flags 0
336[libx264 @ 0x970d800] frame=  35 QP=24.56 NAL=2 Slice:B Poc:70  I:4    P:668  SKIP:935  size=1147 bytes
337[matroska @ 0x970f4a0] Writing block at offset 144431, size 1147, pts 3160, dts 3080, duration 40, flags 0
338frame=   77 fps=6.6 q=28.0 size=     129kB time=00:00:03.12 bitrate= 337.5kbits/s   
339frame=  36 QP=28.15 NAL=0 Slice:B Poc:68  I:1    P:534  SKIP:1085 size=582 bytes
340[matroska @ 0x970f4a0] Writing block at offset 145585, size 582, pts 3120, dts 3120, duration 40, flags 0
341frame=   78 fps=6.3 q=28.0 size=     129kB time=00:00:03.16 bitrate= 333.3kbits/s   
342frame=  37 QP=25.98 NAL=0 Slice:B Poc:72  I:1    P:513  SKIP:1104 size=611 bytes
343[matroska @ 0x970f4a0] Writing block at offset 146174, size 611, pts 3200, dts 3160, duration 40, flags 0
344[libx264 @ 0x970d800] frame=  38 QP=24.00 NAL=2 Slice:P Poc:82  I:20   P:703  SKIP:897  size=2362 bytes
345[matroska @ 0x970f4a0] Writing block at offset 146792, size 2362, pts 3400, dts 3200, duration 40, flags 0
346[libx264 @ 0x970d800] frame=  39 QP=27.57 NAL=2 Slice:B Poc:78  I:6    P:687  SKIP:919  size=1143 bytes
347[matroska @ 0x970f4a0] Writing block at offset 149161, size 1143, pts 3320, dts 3240, duration 40, flags 0
348frame=   81 fps=6.3 q=28.0 size=     129kB time=00:00:03.28 bitrate= 321.1kbits/s   
349frame=  40 QP=29.02 NAL=0 Slice:B Poc:76  I:0    P:501  SKIP:1117 size=599 bytes
350[matroska @ 0x970f4a0] Writing block at offset 150311, size 599, pts 3280, dts 3280, duration 40, flags 0
351[libx264 @ 0x970d800] frame=  41 QP=27.01 NAL=0 Slice:B Poc:80  I:2    P:537  SKIP:1079 size=575 bytes
352[matroska @ 0x970f4a0] Writing block at offset 150917, size 575, pts 3360, dts 3320, duration 40, flags 0
353frame=   83 fps=6.2 q=28.0 size=     129kB time=00:00:03.36 bitrate= 313.4kbits/s   
354frame=  42 QP=25.45 NAL=2 Slice:P Poc:86  I:12   P:420  SKIP:1188 size=1084 bytes
355[matroska @ 0x970f4a0] Writing block at offset 151499, size 1084, pts 3480, dts 3360, duration 40, flags 0
356frame=   84 fps=6.0 q=28.0 size=     129kB time=00:00:03.40 bitrate= 309.7kbits/s   
357frame=  43 QP=28.00 NAL=0 Slice:B Poc:84  I:1    P:431  SKIP:1188 size=535 bytes
358[matroska @ 0x970f4a0] Writing block at offset 152590, size 535, pts 3440, dts 3400, duration 40, flags 0
359[libx264 @ 0x970d800] frame=  44 QP=21.58 NAL=2 Slice:P Poc:88  I:1314 P:175  SKIP:131  size=30251 bytes
360[matroska @ 0x970f4a0] Writing block at offset 153132, size 30251, pts 3520, dts 3440, duration 40, flags 0
361[libx264 @ 0x970d800] frame=  45 QP=21.48 NAL=2 Slice:P Poc:96  I:40   P:1030 SKIP:550  size=6293 bytes
362[matroska @ 0x970f4a0] Writing block at offset 183391, size 6293, pts 3680, dts 3480, duration 40, flags 0
363frame=   87 fps=5.8 q=28.0 size=     161kB time=00:00:03.52 bitrate= 373.7kbits/s   
364frame=  46 QP=26.17 NAL=2 Slice:B Poc:92  I:2    P:581  SKIP:1030 size=870 bytes
365[matroska @ 0x970f4a0] Writing block at offset 189691, size 870, pts 3600, dts 3520, duration 40, flags 0
366frame=   88 fps=5.6 q=28.0 size=     161kB time=00:00:03.56 bitrate= 369.5kbits/s   
367frame=  47 QP=26.12 NAL=0 Slice:B Poc:90  I:0    P:384  SKIP:1235 size=507 bytes
368[matroska @ 0x970f4a0] Writing block at offset 190568, size 507, pts 3560, dts 3560, duration 40, flags 0
369[libx264 @ 0x970d800] frame=  48 QP=30.27 NAL=0 Slice:B Poc:94  I:1    P:413  SKIP:1206 size=508 bytes
370[matroska @ 0x970f4a0] Writing block at offset 191082, size 508, pts 3640, dts 3600, duration 40, flags 0
371frame=   90 fps=5.5 q=28.0 size=     161kB time=00:00:03.64 bitrate= 361.3kbits/s   
372frame=  49 QP=20.78 NAL=2 Slice:P Poc:104 I:36   P:1090 SKIP:494  size=7531 bytes
373[matroska @ 0x970f4a0] Writing block at offset 191597, size 7531, pts 3840, dts 3640, duration 40, flags 0
374[libx264 @ 0x970d800] frame=  50 QP=27.16 NAL=2 Slice:B Poc:100 I:2    P:669  SKIP:940  size=1161 bytes
375[matroska @ 0x970f4a0] Writing block at offset 199135, size 1161, pts 3760, dts 3680, duration 40, flags 0
376frame=   92 fps=5.4 q=28.0 size=     193kB time=00:00:03.72 bitrate= 424.0kbits/s   
377frame=  51 QP=28.89 NAL=0 Slice:B Poc:98  I:0    P:423  SKIP:1197 size=458 bytes
378[matroska @ 0x970f4a0] Writing block at offset 200303, size 458, pts 3720, dts 3720, duration 40, flags 0
379frame=   93 fps=5.3 q=28.0 size=     193kB time=00:00:03.76 bitrate= 419.5kbits/s   
380frame=  52 QP=24.17 NAL=0 Slice:B Poc:102 I:0    P:457  SKIP:1161 size=535 bytes
381[matroska @ 0x970f4a0] Writing block at offset 200768, size 535, pts 3800, dts 3760, duration 40, flags 0
382[libx264 @ 0x970d800] frame=  53 QP=20.83 NAL=2 Slice:P Poc:112 I:36   P:950  SKIP:634  size=5629 bytes
383[matroska @ 0x970f4a0] Writing block at offset 201310, size 5629, pts 4000, dts 3800, duration 40, flags 0
384[libx264 @ 0x970d800] frame=  54 QP=27.65 NAL=2 Slice:B Poc:108 I:2    P:660  SKIP:948  size=1290 bytes
385[matroska @ 0x970f4a0] Writing block at offset 206946, size 1290, pts 3920, dts 3840, duration 40, flags 0
386frame=   96 fps=5.3 q=28.0 size=     193kB time=00:00:03.88 bitrate= 406.6kbits/s   
387frame=  55 QP=28.07 NAL=0 Slice:B Poc:106 I:0    P:470  SKIP:1144 size=629 bytes
388[matroska @ 0x970f4a0] Writing block at offset 208243, size 629, pts 3880, dts 3880, duration 40, flags 0
389frame=   97 fps=5.2 q=28.0 size=     193kB time=00:00:03.92 bitrate= 402.4kbits/s   
390frame=  56 QP=27.27 NAL=0 Slice:B Poc:110 I:0    P:461  SKIP:1154 size=618 bytes
391[matroska @ 0x970f4a0] Writing block at offset 208879, size 618, pts 3960, dts 3920, duration 40, flags 0
392[libx264 @ 0x970d800] frame=  57 QP=21.93 NAL=2 Slice:P Poc:120 I:34   P:967  SKIP:619  size=5671 bytes
393[matroska @ 0x970f4a0] Writing block at offset 209504, size 5671, pts 4160, dts 3960, duration 40, flags 0
394[libx264 @ 0x970d800] frame=  58 QP=27.39 NAL=2 Slice:B Poc:116 I:2    P:630  SKIP:973  size=1239 bytes
395[matroska @ 0x970f4a0] Writing block at offset 215182, size 1239, pts 4080, dts 4000, duration 40, flags 0
396frame=  100 fps=5.1 q=28.0 size=     193kB time=00:00:04.04 bitrate= 390.5kbits/s   
397frame=  59 QP=29.29 NAL=0 Slice:B Poc:114 I:0    P:468  SKIP:1148 size=644 bytes
398[matroska @ 0x970f4a0] Writing block at offset 216428, size 644, pts 4040, dts 4040, duration 40, flags 0
399[libx264 @ 0x970d800] frame=  60 QP=27.46 NAL=0 Slice:B Poc:118 I:0    P:517  SKIP:1102 size=679 bytes
400[matroska @ 0x970f4a0] Writing block at offset 217079, size 679, pts 4120, dts 4080, duration 40, flags 0
401frame=  102 fps=5.1 q=28.0 size=     193kB time=00:00:04.12 bitrate= 382.9kbits/s   
402frame=  61 QP=21.51 NAL=2 Slice:P Poc:128 I:45   P:1024 SKIP:551  size=6435 bytes
403[matroska @ 0x970f4a0] Writing block at offset 217765, size 6435, pts 4320, dts 4120, duration 40, flags 0
404[h264 @ 0x97079c0] error while decoding MB 2 20, bytestream (-6)
405[h264 @ 0x97079c0] concealing 767 DC, 767 AC, 767 MV errors
406[libx264 @ 0x970d800] frame=  62 QP=24.99 NAL=2 Slice:B Poc:124 I:0    P:703  SKIP:901  size=1292 bytes
407[matroska @ 0x970f4a0] Writing block at offset 224207, size 1292, pts 4240, dts 4160, duration 40, flags 0
408frame=  104 fps=5.0 q=28.0 size=     193kB time=00:00:04.20 bitrate= 375.6kbits/s   
409frame=  63 QP=27.45 NAL=0 Slice:B Poc:122 I:1    P:458  SKIP:1155 size=607 bytes
410[matroska @ 0x970f4a0] Writing block at offset 225506, size 607, pts 4200, dts 4200, duration 40, flags 0
411[libx264 @ 0x970d800] frame=  64 QP=26.94 NAL=0 Slice:B Poc:126 I:0    P:477  SKIP:1143 size=597 bytes
412[matroska @ 0x970f4a0] Writing block at offset 226120, size 597, pts 4280, dts 4240, duration 40, flags 0
413[libx264 @ 0x970d800] frame=  65 QP=21.92 NAL=2 Slice:P Poc:136 I:45   P:945  SKIP:630  size=4772 bytes
414[matroska @ 0x970f4a0] Writing block at offset 226724, size 4772, pts 4480, dts 4280, duration 40, flags 0
415[libx264 @ 0x970d800] frame=  66 QP=25.22 NAL=2 Slice:B Poc:132 I:1    P:719  SKIP:891  size=1388 bytes
416[matroska @ 0x970f4a0] Writing block at offset 231503, size 1388, pts 4400, dts 4320, duration 40, flags 0
417[libx264 @ 0x970d800] frame=  67 QP=28.32 NAL=0 Slice:B Poc:130 I:0    P:513  SKIP:1103 size=667 bytes
418[matroska @ 0x970f4a0] Writing block at offset 232898, size 667, pts 4360, dts 4360, duration 40, flags 0
419[libx264 @ 0x970d800] frame=  68 QP=25.68 NAL=0 Slice:B Poc:134 I:1    P:585  SKIP:1033 size=736 bytes
420[matroska @ 0x970f4a0] Writing block at offset 233572, size 736, pts 4440, dts 4400, duration 40, flags 0
421[libx264 @ 0x970d800] frame=  69 QP=23.24 NAL=2 Slice:P Poc:144 I:71   P:860  SKIP:689  size=3928 bytes
422[matroska @ 0x970f4a0] Writing block at offset 234315, size 3928, pts 4640, dts 4440, duration 40, flags 0
423[libx264 @ 0x970d800] frame=  70 QP=24.45 NAL=2 Slice:B Poc:140 I:4    P:703  SKIP:908  size=1396 bytes
424[matroska @ 0x970f4a0] Writing block at offset 238250, size 1396, pts 4560, dts 4480, duration 40, flags 0
425[libx264 @ 0x970d800] frame=  71 QP=26.83 NAL=0 Slice:B Poc:138 I:0    P:521  SKIP:1098 size=672 bytes
426[matroska @ 0x970f4a0] Writing block at offset 239653, size 672, pts 4520, dts 4520, duration 40, flags 0
427[libx264 @ 0x970d800] frame=  72 QP=26.65 NAL=0 Slice:B Poc:142 I:1    P:555  SKIP:1060 size=701 bytes
428[matroska @ 0x970f4a0] Writing block at offset 240332, size 701, pts 4600, dts 4560, duration 40, flags 0
429[libx264 @ 0x970d800] frame=  73 QP=26.89 NAL=2 Slice:P Poc:150 I:107  P:632  SKIP:881  size=2439 bytes
430[matroska @ 0x970f4a0] Writing block at offset 241040, size 2439, pts 4760, dts 4600, duration 40, flags 0
431[libx264 @ 0x970d800] frame=  74 QP=29.42 NAL=2 Slice:B Poc:148 I:1    P:564  SKIP:1052 size=925 bytes
432[matroska @ 0x970f4a0] Writing block at offset 243486, size 925, pts 4720, dts 4640, duration 40, flags 0
433[libx264 @ 0x970d800] frame=  75 QP=29.11 NAL=0 Slice:B Poc:146 I:2    P:531  SKIP:1080 size=783 bytes
434[matroska @ 0x970f4a0] Writing block at offset 244418, size 783, pts 4680, dts 4680, duration 40, flags 0
435[libx264 @ 0x970d800] frame=  76 QP=24.85 NAL=2 Slice:P Poc:152 I:1308 P:168  SKIP:144  size=11435 bytes
436[matroska @ 0x970f4a0] Writing block at offset 245208, size 11435, pts 4800, dts 4720, duration 40, flags 0
437[libx264 @ 0x970d800] frame=  77 QP=24.27 NAL=2 Slice:P Poc:156 I:560  P:595  SKIP:465  size=6050 bytes
438[matroska @ 0x970f4a0] Writing block at offset 256650, size 6050, pts 4880, dts 4760, duration 40, flags 0
439[libx264 @ 0x970d800] frame=  78 QP=26.11 NAL=0 Slice:B Poc:154 I:54   P:546  SKIP:1012 size=2125 bytes
440[matroska @ 0x970f4a0] Writing block at offset 262707, size 2125, pts 4840, dts 4800, duration 40, flags 0
441[libx264 @ 0x970d800] frame=  79 QP=24.37 NAL=2 Slice:P Poc:158 I:288  P:771  SKIP:561  size=4777 bytes
442[matroska @ 0x970f4a0] Writing block at offset 264839, size 4777, pts 4920, dts 4840, duration 40, flags 0
443[libx264 @ 0x970d800] frame=  80 QP=23.88 NAL=2 Slice:P Poc:160 I:868  P:382  SKIP:370  size=7237 bytes
444[matroska @ 0x970f4a0] Writing block at offset 269623, size 7237, pts 4960, dts 4880, duration 40, flags 0
445[libx264 @ 0x970d800] frame=  81 QP=23.61 NAL=2 Slice:P Poc:164 I:635  P:538  SKIP:447  size=6372 bytes
446[matroska @ 0x970f4a0] Writing block at offset 276867, size 6372, pts 5040, dts 4920, duration 40, flags 0
447[libx264 @ 0x970d800] frame=  82 QP=27.92 NAL=0 Slice:B Poc:162 I:82   P:703  SKIP:805  size=2965 bytes
448[matroska @ 0x970f4a0] Writing block at offset 283246, size 2965, pts 5000, dts 4960, duration 40, flags 0
449[libx264 @ 0x970d800] frame=  83 QP=24.36 NAL=2 Slice:P Poc:166 I:354  P:750  SKIP:516  size=5696 bytes
450[matroska @ 0x970f4a0] Writing block at offset 286218, size 5696, pts 5080, dts 5000, duration 40, flags 0
451[libx264 @ 0x970d800] frame=  84 QP=23.38 NAL=2 Slice:P Poc:168 I:604  P:577  SKIP:439  size=6695 bytes
452[matroska @ 0x970f4a0] Writing block at offset 291921, size 6695, pts 5120, dts 5040, duration 40, flags 0
453[libx264 @ 0x970d800] frame=  85 QP=22.77 NAL=2 Slice:P Poc:172 I:600  P:624  SKIP:396  size=7336 bytes
454[matroska @ 0x970f4a0] Writing block at offset 298623, size 7336, pts 5200, dts 5080, duration 40, flags 0
455[libx264 @ 0x970d800] frame=  86 QP=27.33 NAL=0 Slice:B Poc:170 I:69   P:741  SKIP:773  size=3332 bytes
456[matroska @ 0x970f4a0] Writing block at offset 305966, size 3332, pts 5160, dts 5120, duration 40, flags 0
457[libx264 @ 0x970d800] frame=  87 QP=24.08 NAL=2 Slice:P Poc:176 I:740  P:528  SKIP:352  size=7424 bytes
458[matroska @ 0x970f4a0] Writing block at offset 309305, size 7424, pts 5280, dts 5160, duration 40, flags 0
459[libx264 @ 0x970d800] frame=  88 QP=25.99 NAL=0 Slice:B Poc:174 I:79   P:687  SKIP:823  size=3212 bytes
460[matroska @ 0x970f4a0] Writing block at offset 316736, size 3212, pts 5240, dts 5200, duration 40, flags 0
461[libx264 @ 0x970d800] frame=  89 QP=22.05 NAL=2 Slice:P Poc:180 I:544  P:657  SKIP:419  size=8085 bytes
462[matroska @ 0x970f4a0] Writing block at offset 319955, size 8085, pts 5360, dts 5240, duration 40, flags 0
463[libx264 @ 0x970d800] frame=  90 QP=28.95 NAL=0 Slice:B Poc:178 I:35   P:634  SKIP:910  size=2711 bytes
464[matroska @ 0x970f4a0] Writing block at offset 328047, size 2711, pts 5320, dts 5280, duration 40, flags 0
465[libx264 @ 0x970d800] frame=  91 QP=22.69 NAL=2 Slice:P Poc:184 I:421  P:712  SKIP:487  size=6407 bytes
466[matroska @ 0x970f4a0] Writing block at offset 330765, size 6407, pts 5440, dts 5320, duration 40, flags 0
467[libx264 @ 0x970d800] frame=  92 QP=27.97 NAL=0 Slice:B Poc:182 I:14   P:682  SKIP:907  size=2248 bytes
468[matroska @ 0x970f4a0] Writing block at offset 337179, size 2248, pts 5400, dts 5360, duration 40, flags 0
469[libx264 @ 0x970d800] frame=  93 QP=23.99 NAL=2 Slice:P Poc:188 I:373  P:696  SKIP:551  size=5263 bytes
470[matroska @ 0x970f4a0] Writing block at offset 339434, size 5263, pts 5520, dts 5400, duration 40, flags 0
471[libx264 @ 0x970d800] frame=  94 QP=24.38 NAL=0 Slice:B Poc:186 I:17   P:587  SKIP:986  size=2146 bytes
472[matroska @ 0x970f4a0] Writing block at offset 344704, size 2146, pts 5480, dts 5440, duration 40, flags 0
473[libx264 @ 0x970d800] frame=  95 QP=25.13 NAL=2 Slice:P Poc:190 I:1303 P:172  SKIP:145  size=22624 bytes
474[matroska @ 0x970f4a0] Writing block at offset 346857, size 22624, pts 5560, dts 5480, duration 40, flags 0
475[libx264 @ 0x970d800] frame=  96 QP=24.91 NAL=2 Slice:P Poc:194 I:319  P:838  SKIP:463  size=8140 bytes
476[matroska @ 0x970f4a0] Writing block at offset 369489, size 8140, pts 5640, dts 5520, duration 40, flags 0
477[libx264 @ 0x970d800] frame=  97 QP=26.85 NAL=0 Slice:B Poc:192 I:38   P:687  SKIP:856  size=3008 bytes
478[matroska @ 0x970f4a0] Writing block at offset 377636, size 3008, pts 5600, dts 5560, duration 40, flags 0
479[libx264 @ 0x970d800] frame=  98 QP=24.46 NAL=2 Slice:P Poc:198 I:532  P:703  SKIP:385  size=10566 bytes
480[matroska @ 0x970f4a0] Writing block at offset 380651, size 10566, pts 5720, dts 5600, duration 40, flags 0
481[libx264 @ 0x970d800] frame=  99 QP=30.12 NAL=0 Slice:B Poc:196 I:38   P:736  SKIP:798  size=3448 bytes
482[matroska @ 0x970f4a0] Writing block at offset 391224, size 3448, pts 5680, dts 5640, duration 40, flags 0
483[libx264 @ 0x970d800] frame= 100 QP=25.22 NAL=2 Slice:P Poc:202 I:527  P:731  SKIP:362  size=11096 bytes
484[matroska @ 0x970f4a0] Writing block at offset 394679, size 11096, pts 5800, dts 5680, duration 40, flags 0
485[libx264 @ 0x970d800] frame= 101 QP=26.47 NAL=0 Slice:B Poc:200 I:83   P:729  SKIP:761  size=4280 bytes
486[matroska @ 0x970f4a0] Writing block at offset 405782, size 4280, pts 5760, dts 5720, duration 40, flags 0
487[libx264 @ 0x970d800] frame= 102 QP=22.69 NAL=2 Slice:P Poc:206 I:734  P:501  SKIP:385  size=11549 bytes
488[matroska @ 0x970f4a0] Writing block at offset 410069, size 11549, pts 5880, dts 5760, duration 40, flags 0
489[libx264 @ 0x970d800] frame= 103 QP=27.86 NAL=0 Slice:B Poc:204 I:104  P:791  SKIP:669  size=5569 bytes
490[matroska @ 0x970f4a0] Writing block at offset 421625, size 5569, pts 5840, dts 5800, duration 40, flags 0
491[libx264 @ 0x970d800] frame= 104 QP=22.36 NAL=2 Slice:P Poc:208 I:487  P:502  SKIP:631  size=8206 bytes
492[matroska @ 0x970f4a0] Writing block at offset 427201, size 8206, pts 5960, dts 5840, duration 40, flags 0
493[libx264 @ 0x970d800] frame= 105 QP=22.60 NAL=2 Slice:P Poc:210 I:719  P:477  SKIP:424  size=8879 bytes
494[matroska @ 0x970f4a0] Writing block at offset 435414, size 8879, pts 6040, dts 5880, duration 40, flags 0
495end duration = 6080
496frame=  106 fps=2.8 q=26.0 Lsize=     434kB time=00:00:05.92 bitrate= 600.4kbits/s   
497
498video:433kB audio:0kB global headers:0kB muxing overhead 0.298190%
499[libx264 @ 0x970d800] frame I:2     Avg QP:18.76  size: 31493
500[libx264 @ 0x970d800] frame P:43    Avg QP:23.29  size:  7018
501[libx264 @ 0x970d800] frame B:61    Avg QP:27.28  size:  1271
502[libx264 @ 0x970d800] consecutive B-frames: 10.4% 37.7%  2.8% 49.1%
503[libx264 @ 0x970d800] mb I  I16..4: 41.5% 27.0% 31.5%
504[libx264 @ 0x970d800] mb P  I16..4:  6.4% 12.0%  3.0%  P16..4: 29.1%  7.5%  4.4%  0.0%  0.0%    skip:37.6%
505[libx264 @ 0x970d800] mb B  I16..4:  0.3%  0.3%  0.1%  B16..8: 30.8%  1.9%  0.4%  direct: 0.8%  skip:65.3%  L0:37.9% L1:54.2% BI: 7.9%
506[libx264 @ 0x970d800] 8x8 transform intra:50.7% inter:68.5%
507[libx264 @ 0x970d800] coded y,uvDC,uvAC intra: 53.1% 63.2% 21.9% inter: 7.2% 8.3% 1.0%
508[libx264 @ 0x970d800] i16 v,h,dc,p: 62% 21%  7% 10%
509[libx264 @ 0x970d800] i8 v,h,dc,ddl,ddr,vr,hd,vl,hu: 32% 15% 19%  5%  5%  6%  5%  7%  6%
510[libx264 @ 0x970d800] i4 v,h,dc,ddl,ddr,vr,hd,vl,hu: 35% 17% 16%  4%  6%  7%  5%  5%  4%
511[libx264 @ 0x970d800] i8c dc,h,v,p: 42% 21% 32%  5%
512[libx264 @ 0x970d800] Weighted P-Frames: Y:0.0% UV:0.0%
513[libx264 @ 0x970d800] ref P L0: 72.9% 13.0%  9.4%  4.7%
514[libx264 @ 0x970d800] ref B L0: 95.1%  4.4%  0.6%
515[libx264 @ 0x970d800] ref B L1: 99.2%  0.8%
516[libx264 @ 0x970d800] kb/s:811.56
517ep ffmpeg #