Ticket #1224: first.log

File first.log, 13.2 KB (added by eregi, 4 years ago)
Line 
1./ffmpeg_g -i /dev/dvb/adapter0/dvr0 -an -vcodec libx264 -preset veryslow -f null -
2ffmpeg version N-39877-g4fa706a Copyright (c) 2000-2012 the FFmpeg developers
3  built on Apr 16 2012 21:18:03 with gcc 4.5.3
4  configuration: --enable-libx264 --enable-gpl
5  libavutil      51. 46.100 / 51. 46.100
6  libavcodec     54. 14.101 / 54. 14.101
7  libavformat    54.  3.100 / 54.  3.100
8  libavdevice    53.  4.100 / 53.  4.100
9  libavfilter     2. 70.100 /  2. 70.100
10  libswscale      2.  1.100 /  2.  1.100
11  libswresample   0. 11.100 /  0. 11.100
12  libpostproc    52.  0.100 / 52.  0.100
13[NULL @ 0x9baa9c0] non-existing SPS 0 referenced in buffering period
14[NULL @ 0x9baa9c0] non-existing PPS referenced
15[h264 @ 0x9baa9c0] non-existing SPS 0 referenced in buffering period
16[h264 @ 0x9baa9c0] non-existing PPS 0 referenced
17[h264 @ 0x9baa9c0] decode_slice_header error
18[h264 @ 0x9baa9c0] no frame!
19[h264 @ 0x9baa9c0] non-existing SPS 0 referenced in buffering period
20[h264 @ 0x9baa9c0] non-existing PPS referenced
21[h264 @ 0x9baa9c0] non-existing SPS 0 referenced in buffering period
22[h264 @ 0x9baa9c0] non-existing PPS 0 referenced
23[h264 @ 0x9baa9c0] decode_slice_header error
24[h264 @ 0x9baa9c0] no frame!
25[h264 @ 0x9baa9c0] non-existing SPS 0 referenced in buffering period
26[h264 @ 0x9baa9c0] non-existing PPS referenced
27[h264 @ 0x9baa9c0] non-existing SPS 0 referenced in buffering period
28[h264 @ 0x9baa9c0] non-existing PPS 0 referenced
29[h264 @ 0x9baa9c0] decode_slice_header error
30[h264 @ 0x9baa9c0] no frame!
31[h264 @ 0x9baa9c0] non-existing SPS 0 referenced in buffering period
32[h264 @ 0x9baa9c0] non-existing PPS referenced
33[h264 @ 0x9baa9c0] non-existing SPS 0 referenced in buffering period
34[h264 @ 0x9baa9c0] non-existing PPS 0 referenced
35[h264 @ 0x9baa9c0] decode_slice_header error
36[h264 @ 0x9baa9c0] no frame!
37[h264 @ 0x9baa9c0] non-existing SPS 0 referenced in buffering period
38[h264 @ 0x9baa9c0] non-existing PPS referenced
39[h264 @ 0x9baa9c0] non-existing SPS 0 referenced in buffering period
40[h264 @ 0x9baa9c0] non-existing PPS 0 referenced
41[h264 @ 0x9baa9c0] decode_slice_header error
42[h264 @ 0x9baa9c0] no frame!
43[h264 @ 0x9baa9c0] non-existing SPS 0 referenced in buffering period
44[h264 @ 0x9baa9c0] non-existing PPS referenced
45[h264 @ 0x9baa9c0] non-existing SPS 0 referenced in buffering period
46[h264 @ 0x9baa9c0] non-existing PPS 0 referenced
47[h264 @ 0x9baa9c0] decode_slice_header error
48[h264 @ 0x9baa9c0] no frame!
49[h264 @ 0x9baa9c0] non-existing SPS 0 referenced in buffering period
50[h264 @ 0x9baa9c0] non-existing PPS referenced
51[h264 @ 0x9baa9c0] non-existing SPS 0 referenced in buffering period
52[h264 @ 0x9baa9c0] non-existing PPS 0 referenced
53[h264 @ 0x9baa9c0] decode_slice_header error
54[h264 @ 0x9baa9c0] no frame!
55[h264 @ 0x9baa9c0] non-existing SPS 0 referenced in buffering period
56[h264 @ 0x9baa9c0] non-existing PPS referenced
57[h264 @ 0x9baa9c0] non-existing SPS 0 referenced in buffering period
58[h264 @ 0x9baa9c0] non-existing PPS 0 referenced
59[h264 @ 0x9baa9c0] decode_slice_header error
60[h264 @ 0x9baa9c0] no frame!
61[h264 @ 0x9baa9c0] non-existing SPS 0 referenced in buffering period
62[h264 @ 0x9baa9c0] non-existing PPS referenced
63[h264 @ 0x9baa9c0] non-existing SPS 0 referenced in buffering period
64[h264 @ 0x9baa9c0] non-existing PPS 0 referenced
65[h264 @ 0x9baa9c0] decode_slice_header error
66[h264 @ 0x9baa9c0] no frame!
67[h264 @ 0x9baa9c0] non-existing SPS 0 referenced in buffering period
68[h264 @ 0x9baa9c0] non-existing PPS referenced
69[h264 @ 0x9baa9c0] non-existing SPS 0 referenced in buffering period
70[h264 @ 0x9baa9c0] non-existing PPS 0 referenced
71[h264 @ 0x9baa9c0] decode_slice_header error
72[h264 @ 0x9baa9c0] no frame!
73[h264 @ 0x9baa9c0] non-existing SPS 0 referenced in buffering period
74[h264 @ 0x9baa9c0] non-existing PPS referenced
75[h264 @ 0x9baa9c0] non-existing SPS 0 referenced in buffering period
76[h264 @ 0x9baa9c0] non-existing PPS 0 referenced
77[h264 @ 0x9baa9c0] decode_slice_header error
78[h264 @ 0x9baa9c0] no frame!
79[h264 @ 0x9baa9c0] non-existing SPS 0 referenced in buffering period
80[h264 @ 0x9baa9c0] non-existing PPS referenced
81[h264 @ 0x9baa9c0] non-existing SPS 0 referenced in buffering period
82[h264 @ 0x9baa9c0] non-existing PPS 0 referenced
83[h264 @ 0x9baa9c0] decode_slice_header error
84[h264 @ 0x9baa9c0] no frame!
85[h264 @ 0x9baa9c0] non-existing SPS 0 referenced in buffering period
86[h264 @ 0x9baa9c0] non-existing PPS referenced
87[h264 @ 0x9baa9c0] non-existing SPS 0 referenced in buffering period
88[h264 @ 0x9baa9c0] non-existing PPS 0 referenced
89[h264 @ 0x9baa9c0] decode_slice_header error
90[h264 @ 0x9baa9c0] no frame!
91[h264 @ 0x9baa9c0] non-existing SPS 0 referenced in buffering period
92[h264 @ 0x9baa9c0] non-existing PPS referenced
93[h264 @ 0x9baa9c0] non-existing SPS 0 referenced in buffering period
94[h264 @ 0x9baa9c0] non-existing PPS 0 referenced
95[h264 @ 0x9baa9c0] decode_slice_header error
96[h264 @ 0x9baa9c0] no frame!
97[h264 @ 0x9baa9c0] Increasing reorder buffer to 1
98[h264 @ 0x9baa9c0] Increasing reorder buffer to 2
99[mpegts @ 0x9b92380] max_analyze_duration 5000000 reached at 5016000
100Input #0, mpegts, from '/dev/dvb/adapter0/dvr0':
101  Duration: N/A, start: 62754.022311, bitrate: N/A
102    Stream #0:0[0x1420]: Video: h264 (Main), yuv420p, 720x576 [SAR 12:11 DAR 15:11], 29 fps, 25 tbr, 90k tbn, 50 tbc
103    Stream #0:1[0x1421]: Audio: mp2, 48000 Hz, stereo, s16, 192 kb/s
104[buffer @ 0x9bb5d00] w:720 h:576 pixfmt:yuv420p tb:1/1000000 sar:12/11 sws_param:flags=2
105[libx264 @ 0x9bfe740] using SAR=12/11
106[libx264 @ 0x9bfe740] using cpu capabilities: MMX2 SSE2 Cache64
107[libx264 @ 0x9bfe740] profile High, level 4.0
108Output #0, null, to 'pipe:':
109  Metadata:
110    encoder         : Lavf54.3.100
111    Stream #0:0: Video: h264, yuv420p, 720x576 [SAR 12:11 DAR 15:11], q=-1--1, 90k tbn, 25 tbc
112Stream mapping:
113  Stream #0:0 -> #0:0 (h264 -> libx264)
114Press [q] to stop, [?] for help
115[h264 @ 0x9baa9c0] Missing reference picture
116[h264 @ 0x9baa9c0] decode_slice_header error
117[h264 @ 0x9baa9c0] concealing 1620 DC, 1620 AC, 1620 MV errors
118[h264 @ 0x9baa9c0] Missing reference picture
119[h264 @ 0x9baa9c0] decode_slice_header error
120[h264 @ 0x9baa9c0] concealing 1620 DC, 1620 AC, 1620 MV errors
121[h264 @ 0x9baa9c0] reference picture missing during reorder
122    Last message repeated 1 times
123[h264 @ 0x9baa9c0] Missing reference picture
124[h264 @ 0x9baa9c0] decode_slice_header error
125[h264 @ 0x9baa9c0] concealing 1620 DC, 1620 AC, 1620 MV errors
126[h264 @ 0x9baa9c0] mmco: unref short failure
127[h264 @ 0x9baa9c0] reference picture missing during reorder
128[h264 @ 0x9baa9c0] Missing reference picture
129    Last message repeated 1 times
130[h264 @ 0x9baa9c0] mmco: unref short failure
131frame=   34 fps=0.0 q=0.0 size=       0kB time=00:00:00.00 bitrate=   0.0kbits/sframe=   51 fps= 44 q=0.0 size=       0kB time=00:00:00.00 bitrate=   0.0kbits/sframe=   63 fps=9.3 q=31.0 size=       0kB time=00:00:00.00 bitrate=   0.0kbits/frame=   64 fps=8.8 q=31.0 size=       0kB time=00:00:00.04 bitrate=   0.0kbits/frame=   67 fps=8.6 q=31.0 size=       0kB time=00:00:00.16 bitrate=   0.0kbits/frame=   69 fps=8.3 q=31.0 size=       0kB time=00:00:00.24 bitrate=   0.0kbits/frame=   71 fps=8.0 q=31.0 size=       0kB time=00:00:00.32 bitrate=   0.0kbits/frame=   73 fps=7.8 q=31.0 size=       0kB time=00:00:00.40 bitrate=   0.0kbits/frame=   76 fps=7.5 q=31.0 size=       0kB time=00:00:00.52 bitrate=   0.0kbits/frame=   78 fps=7.2 q=31.0 size=       0kB time=00:00:00.60 bitrate=   0.0kbits/frame=   82 fps=7.1 q=31.0 size=       0kB time=00:00:00.76 bitrate=   0.0kbits/frame=   85 fps=7.0 q=31.0 size=       0kB time=00:00:00.88 bitrate=   0.0kbits/frame=   87 fps=6.8 q=31.0 size=       0kB time=00:00:00.96 bitrate=   0.0kbits/frame=   91 fps=6.8 q=31.0 size=       0kB time=00:00:01.12 bitrate=   0.0kbits/frame=   93 fps=6.7 q=31.0 size=       0kB time=00:00:01.20 bitrate=   0.0kbits/frame=   95 fps=6.6 q=31.0 size=       0kB time=00:00:01.28 bitrate=   0.0kbits/frame=   97 fps=5.9 q=30.0 size=       0kB time=00:00:01.36 bitrate=   0.0kbits/frame=   97 fps=5.4 q=30.0 size=       0kB time=00:00:01.36 bitrate=   0.0kbits/frame=   99 fps=5.3 q=29.0 size=       0kB time=00:00:01.44 bitrate=   0.0kbits/frame=  100 fps=5.0 q=28.0 size=       0kB time=00:00:01.48 bitrate=   0.0kbits/frame=  101 fps=4.4 q=28.0 size=       0kB time=00:00:01.52 bitrate=   0.0kbits/frame=  101 fps=4.1 q=28.0 size=       0kB time=00:00:01.52 bitrate=   0.0kbits/frame=  103 fps=4.0 q=28.0 size=       0kB time=00:00:01.60 bitrate=   0.0kbits/frame=  104 fps=3.8 q=28.0 size=       0kB time=00:00:01.64 bitrate=   0.0kbits/frame=  104 fps=3.4 q=28.0 size=       0kB time=00:00:01.64 bitrate=   0.0kbits/frame=  106 fps=3.2 q=28.0 size=       0kB time=00:00:01.72 bitrate=   0.0kbits/frame=  107 fps=3.1 q=28.0 size=       0kB time=00:00:01.76 bitrate=   0.0kbits/frame=  108 fps=3.0 q=28.0 size=       0kB time=00:00:01.80 bitrate=   0.0kbits/frame=  108 fps=2.7 q=28.0 size=       0kB time=00:00:01.80 bitrate=   0.0kbits/frame=  110 fps=2.6 q=28.0 size=       0kB time=00:00:01.88 bitrate=   0.0kbits/frame=  111 fps=2.5 q=28.0 size=       0kB time=00:00:01.92 bitrate=   0.0kbits/frame=  111 fps=2.4 q=28.0 size=       0kB time=00:00:01.92 bitrate=   0.0kbits/frame=  113 fps=2.3 q=28.0 size=       0kB time=00:00:02.00 bitrate=   0.0kbits/frame=  114 fps=2.2 q=28.0 size=       0kB time=00:00:02.04 bitrate=   0.0kbits/frame=  114 fps=2.1 q=28.0 size=       0kB time=00:00:02.04 bitrate=   0.0kbits/frame=  116 fps=2.1 q=28.0 size=       0kB time=00:00:02.12 bitrate=   0.0kbits/frame=  117 fps=1.9 q=28.0 size=       0kB time=00:00:02.16 bitrate=   0.0kbits/frame=  117 fps=1.9 q=28.0 size=       0kB time=00:00:02.16 bitrate=   0.0kbits/frame=  118 fps=1.8 q=28.0 size=       0kB time=00:00:02.20 bitrate=   0.0kbits/frame=  119 fps=1.8 q=28.0 size=       0kB time=00:00:02.24 bitrate=   0.0kbits/frame=  121 fps=1.7 q=28.0 size=       0kB time=00:00:02.32 bitrate=   0.0kbits/frame=  122 fps=1.6 q=28.0 size=       0kB time=00:00:02.36 bitrate=   0.0kbits/frame=  123 fps=1.6 q=28.0 size=       0kB time=00:00:02.40 bitrate=   0.0kbits/frame=  123 fps=1.6 q=28.0 size=       0kB time=00:00:02.40 bitrate=   0.0kbits/frame=  125 fps=1.5 q=28.0 size=       0kB time=00:00:02.48 bitrate=   0.0kbits/frame=  126 fps=1.5 q=28.0 size=       0kB time=00:00:02.52 bitrate=   0.0kbits/frame=  127 fps=1.5 q=28.0 size=       0kB time=00:00:02.56 bitrate=   0.0kbits/frame=  127 fps=1.5 q=28.0 size=       0kB time=00:00:02.56 bitrate=   0.0kbits/frame=  129 fps=1.4 q=28.0 size=       0kB time=00:00:02.64 bitrate=   0.0kbits/frame=  130 fps=1.4 q=28.0 size=       0kB time=00:00:02.68 bitrate=   0.0kbits/frame=  131 fps=1.4 q=28.0 size=       0kB time=00:00:02.72 bitrate=   0.0kbits/frame=  133 fps=1.4 q=28.0 size=       0kB time=00:00:02.80 bitrate=   0.0kbits/frame=  134 fps=1.4 q=28.0 size=       0kB time=00:00:02.84 bitrate=   0.0kbits/frame=  134 fps=1.4 q=28.0 size=       0kB time=00:00:02.84 bitrate=   0.0kbits/frame=  136 fps=1.4 q=28.0 size=       0kB time=00:00:02.92 bitrate=   0.0kbits/frame=  137 fps=1.4 q=28.0 size=       0kB time=00:00:02.96 bitrate=   0.0kbits/frame=  138 fps=1.4 q=28.0 size=       0kB time=00:00:03.00 bitrate=   0.0kbits/frame=  138 fps=1.4 q=28.0 size=       0kB time=00:00:03.00 bitrate=   0.0kbits/frame=  140 fps=1.4 q=28.0 size=       0kB time=00:00:03.08 bitrate=   0.0kbits/frame=  141 fps=1.4 q=28.0 size=       0kB time=00:00:03.12 bitrate=   0.0kbits/frame=  141 fps=1.3 q=28.0 size=       0kB time=00:00:03.12 bitrate=   0.0kbits/frame=  143 fps=1.3 q=28.0 size=       0kB time=00:00:03.20 bitrate=   0.0kbits/error while decoding MB 8 22, bytestream (-33)
132frame=  143 fps=1.3 q=28.0 size=       0kB time=00:00:03.20 bitrate=   0.0kbits/s dup=33 drop=0
133frame=  145 fps=0.5 q=28.0 Lsize=       0kB time=00:00:05.72 bitrate=   0.0kbits/s dup=33 drop=0
134video:929kB audio:0kB global headers:0kB muxing overhead -100.000000%
135[libx264 @ 0x9bfe740] frame I:3     Avg QP:21.62  size: 43285
136[libx264 @ 0x9bfe740] frame P:61    Avg QP:28.26  size:  6628
137[libx264 @ 0x9bfe740] frame B:81    Avg QP:30.99  size:  5151
138[libx264 @ 0x9bfe740] consecutive B-frames: 24.8%  1.4%  2.1% 71.7%  0.0%  0.0%  0.0%  0.0%  0.0%
139[libx264 @ 0x9bfe740] mb I  I16..4: 26.7% 54.9% 18.3%
140[libx264 @ 0x9bfe740] mb P  I16..4:  1.9%  7.7%  3.4%  P16..4: 13.9%  3.9%  3.4%  0.3%  0.0%    skip:65.5%
141[libx264 @ 0x9bfe740] mb B  I16..4:  0.6%  2.6%  1.9%  B16..8: 31.3%  6.0%  3.6%  direct: 3.7%  skip:50.3%  L0:38.6% L1:39.4% BI:22.0%
142[libx264 @ 0x9bfe740] 8x8 transform intra:56.2% inter:59.2%
143[libx264 @ 0x9bfe740] direct mvs  spatial:98.8% temporal:1.2%
144[libx264 @ 0x9bfe740] coded y,uvDC,uvAC intra: 74.9% 78.4% 42.0% inter: 13.2% 9.0% 0.7%
145[libx264 @ 0x9bfe740] i16 v,h,dc,p: 35% 33% 10% 22%
146[libx264 @ 0x9bfe740] i8 v,h,dc,ddl,ddr,vr,hd,vl,hu: 17% 19%  9%  6%  8% 11%  9% 10% 12%
147[libx264 @ 0x9bfe740] i4 v,h,dc,ddl,ddr,vr,hd,vl,hu: 21% 16%  8%  6% 10% 12%  9%  8%  9%
148[libx264 @ 0x9bfe740] i8c dc,h,v,p: 31% 31% 21% 17%
149[libx264 @ 0x9bfe740] Weighted P-Frames: Y:0.0% UV:0.0%
150[libx264 @ 0x9bfe740] ref P L0: 62.9% 16.0%  8.0%  5.9%  2.1%  1.4%  1.0%  0.6%  0.6%  0.4%  0.4%  0.4%  0.3%  0.2%  0.0%  0.0%
151[libx264 @ 0x9bfe740] ref B L0: 88.6%  4.6%  2.4%  1.1%  0.8%  0.7%  0.5%  0.3%  0.2%  0.2%  0.2%  0.1%  0.2%  0.1%  0.1%
152[libx264 @ 0x9bfe740] ref B L1: 99.0%  1.0%
153[libx264 @ 0x9bfe740] kb/s:1312.22