Ticket #1224: ffmpeg_g.txt

File ffmpeg_g.txt, 5.2 KB (added by eregi, 4 years ago)

ffmpeg_g console output

Line 
1./ffmpeg_g -loglevel 99 -y -f mpegts -vcodec h264 -i /dev/dvb/adap
2pter0/dvr0 -ac 1 -s 440x248 -r 22 -ar 22050 -ab 32000 -f flv rtmp://localhost/oflaDemo/streams/live
3ffmpeg version N-39877-g4fa706a Copyright (c) 2000-2012 the FFmpeg developers
4  built on Apr 16 2012 21:18:03 with gcc 4.5.3
5  configuration: --enable-libx264 --enable-gpl
6  libavutil      51. 46.100 / 51. 46.100
7  libavcodec     54. 14.101 / 54. 14.101
8  libavformat    54.  3.100 / 54.  3.100
9  libavdevice    53.  4.100 / 53.  4.100
10  libavfilter     2. 70.100 /  2. 70.100
11  libswscale      2.  1.100 /  2.  1.100
12  libswresample   0. 11.100 /  0. 11.100
13  libpostproc    52.  0.100 / 52.  0.100
14[mpegts @ 0xab60440] File position before avformat_find_stream_info() is 0
15[mpegts @ 0xab60440] stream=0 stream_type=0 pid=140c prog_reg_desc=
16[mpegts @ 0xab60440] probing stream 0 pp:2500
17[mpegts @ 0xab60440] probing stream 0 pp:2499
18[mpegts @ 0xab60440] stream=1 stream_type=0 pid=140d prog_reg_desc=
19[mpegts @ 0xab60440] probing stream 0 pp:2498
20[mpegts @ 0xab60440] Probe with size=75677, packets=3 detected h264 with score=51
21[mpegts @ 0xab60440] probed stream 0
22[NULL @ 0xab78b00] non-existing SPS 0 referenced in buffering period
23[NULL @ 0xab78b00] non-existing PPS referenced
24[h264 @ 0xab78b00] non-existing SPS 0 referenced in buffering period
25[h264 @ 0xab78b00] non-existing PPS 0 referenced
26[h264 @ 0xab78b00] decode_slice_header error
27[h264 @ 0xab78b00] no frame!
28[h264 @ 0xab78b00] non-existing SPS 0 referenced in buffering period
29[h264 @ 0xab78b00] non-existing PPS referenced
30[h264 @ 0xab78b00] Current profile doesn't provide more RBSP data in PPS, skipping
31[h264 @ 0xab78b00] non-existing SPS 0 referenced in buffering period
32[h264 @ 0xab78b00] non-existing PPS 0 referenced
33[h264 @ 0xab78b00] decode_slice_header error
34[h264 @ 0xab78b00] no frame!
35[h264 @ 0xab78b00] mmco: unref short failure
36    Last message repeated 1 times
37    Last message repeated 2 times
38    Last message repeated 3 times
39    Last message repeated 3 times
40[mpegts @ 0xab60440] probing stream 1 pp:2500
41[mpegts @ 0xab60440] Probe with size=3456, packets=1 detected mp3 with score=51
42[mpegts @ 0xab60440] probed stream 1
43[h264 @ 0xab78b00] Missing reference picture
44[h264 @ 0xab78b00] Increasing reorder buffer to 1
45[h264 @ 0xab78b00] no picture ooo
46[h264 @ 0xab78b00] Increasing reorder buffer to 2
47[h264 @ 0xab78b00] no picture ooo
48    Last message repeated 1 times
49    Last message repeated 1 times
50[h264 @ 0xab78b00] no picture
51[h264 @ 0xab78b00] mmco: unref short failure
52[h264 @ 0xab78b00] no picture
53[h264 @ 0xab78b00] Current profile doesn't provide more RBSP data in PPS, skipping
54    Last message repeated 1 times
55    Last message repeated 2 times
56    Last message repeated 3 times
57    Last message repeated 4 times
58    Last message repeated 4 times
59[mpegts @ 0xab60440] max_analyze_duration 5000000 reached at 5020000
60[mpegts @ 0xab60440] File position after avformat_find_stream_info() is 2072592
61Input #0, mpegts, from '/dev/dvb/adapter0/dvr0':
62  Duration: N/A, start: 26847.067822, bitrate: N/A
63    Stream #0:0[0x140c], 134, 1/90000: Video: h264 (Main), yuv420p, 720x576 [SAR 12:11 DAR 15:11], 1/50, 26.29 fps, 25 tbr, 90k tbn, 50 tbc
64    Stream #0:1[0x140d], 210, 1/90000: Audio: mp2, 48000 Hz, stereo, s16, 192 kb/s
65[rtmp @ 0xacbdde0] Handshaking...
66[rtmp @ 0xacbdde0] Server version 1.2.3.4
67[rtmp @ 0xacbdde0] Proto = rtmp, path = /oflaDemo/streams/live, app = oflaDemo, fname = streams/live
68[rtmp @ 0xacbdde0] Client bandwidth = 64000
69[rtmp @ 0xacbdde0] Releasing stream...
70[rtmp @ 0xacbdde0] FCPublish stream...
71[rtmp @ 0xacbdde0] Creating stream...
72[rtmp @ 0xacbdde0] Sending publish command for 'streams/live'
73[buffer @ 0xaf3c660] w:720 h:576 pixfmt:yuv420p tb:1/1000000 sar:12/11 sws_param:flags=2
74[scale @ 0xad60900] w:720 h:576 fmt:yuv420p sar:12/11 -> w:440 h:248 fmt:yuv420p sar:93/121 flags:0x4
75[flv @ 0xac8dd60] intra_quant_bias = 0 inter_quant_bias = -64
76[h264 @ 0xab78b00] detected 1 logical cores
77Guessed Channel Layout for Output Stream #0.1 : mono
78Output #0, flv, to 'rtmp://localhost/oflaDemo/streams/live':
79  Metadata:
80    encoder         : Lavf54.3.100
81    Stream #0:0, 0, 1/1000: Video: flv1 ([2][0][0][0] / 0x0002), yuv420p, 440x248 [SAR 93:121 DAR 15:11], 1/22, q=2-31, 200 kb/s, 1k tbn, 22 tbc
82    Stream #0:1, 0, 1/1000: Audio: adpcm_swf ([1][0][0][0] / 0x0001), 22050 Hz, mono, s16, 88 kb/s
83Stream mapping:
84  Stream #0:0 -> #0:0 (h264 -> flv)
85  Stream #0:1 -> #0:1 (mp2 -> adpcm_swf)
86Press [q] to stop, [?] for help
87[h264 @ 0xab78b00] Missing reference picture
88[h264 @ 0xab78b00] decode_slice_header error
89[h264 @ 0xab78b00] concealing 1620 DC, 1620 AC, 1620 MV errors
90[h264 @ 0xab78b00] Missing reference picture
91[h264 @ 0xab78b00] decode_slice_header error
92[h264 @ 0xab78b00] concealing 1620 DC, 1620 AC, 1620 MV errors
93[h264 @ 0xab78b00] mmco: unref short failure
94    Last message repeated 1 times
95    Last message repeated 2 times
96    Last message repeated 3 times
97    Last message repeated 3 times
980.500000 0.500000
99[h264 @ 0xab78b00] Missing reference picture
100[h264 @ 0xab78b00] no picture
101    Last message repeated 1 times
102    Last message repeated 1 times
103[h264 @ 0xab78b00] mmco: unref short failure
104ep ffmpeg #