Ticket #1198: ffmpeg-20120413-110525.log

File ffmpeg-20120413-110525.log, 3.7 KB (added by schtorch, 5 years ago)

Logfile of failed conversion

Line 
1ffmpeg started on 2012-04-13 at 11:05:25
2Report written to "ffmpeg-20120413-110525.log"
3Command line:
4ffmpeg -i Video_281.wmv -report -y test.wmv
5ffmpeg version N-39733-g733cf0a Copyright (c) 2000-2012 the FFmpeg developers
6  built on Apr 12 2012 10:49:30 with gcc 4.5.1 20101208 [gcc-4_5-branch revision 167585]
7  configuration: --enable-gpl --enable-version3 --enable-shared --enable-nonfree --enable-postproc --enable-libfaac --enable-libmp3lame --enable-libopencore-amrnb --enable-libopencore-amrwb --enable-libvorbis --enable-libtheora --enable-libvpx --enable-libspeex --enable-libxvid --enable-libx264 --disable-network --disable-stripping --enable-libschroedinger --enable-libdirac --enable-libgsm --enable-avfilter --enable-pthreads --disable-doc --disable-ffplay --disable-ffserver --extra-cflags=-I/usr/local/include --extra-ldflags=-L/usr/local/lib --disable-protocol=httpproxy --enable-bzlib
8  libavutil      51. 46.100 / 51. 46.100
9  libavcodec     54. 14.101 / 54. 14.101
10  libavformat    54.  3.100 / 54.  3.100
11  libavdevice    53.  4.100 / 53.  4.100
12  libavfilter     2. 67.101 /  2. 67.101
13  libswscale      2.  1.100 /  2.  1.100
14  libswresample   0. 11.100 /  0. 11.100
15  libpostproc    52.  0.100 / 52.  0.100
16[asf @ 0x62cb20] Format asf probed with size=2048 and score=100
17[asf @ 0x62cb20] gpos mismatch our pos=24, end=26
18[asf @ 0x62cb20] gpos mismatch our pos=24, end=3630
19[asf @ 0x62cb20] gpos mismatch our pos=24, end=38
20[asf @ 0x62cb20] Unsupported value type 1 in tag ASFLeakyBucketPairs.
21[asf @ 0x62cb20] gpos mismatch our pos=24, end=242
22[asf @ 0x62cb20] gpos mismatch our pos=24, end=38
23[asf @ 0x62cb20] parser not found for codec wmav2, packets or times may be invalid.
24[asf @ 0x62cb20] All info found
25rfps: 14.916667 0.018039
26rfps: 15.000000 0.014682
27rfps: 15.083333 0.018901
28rfps: 47.416667 0.018400
29rfps: 47.500000 0.015537
30rfps: 14.985015 0.014798
31Input #0, asf, from 'Video_281.wmv':
32  Metadata:
33    WMFSDKVersion   : 12.0.7601.17514
34    WMFSDKNeeded    : 0.0.0.0000
35    IsVBR           : 1
36    VBR Peak        : 126
37    Buffer Average  : 114
38  Duration: 00:00:16.67, start: 0.000000, bitrate: 1487 kb/s
39    Stream #0:0(eng), 8, 1/1000: Audio: wmav2 (a[1][0][0] / 0x0161), 32000 Hz, 1 channels, s16, 20 kb/s
40    Stream #0:1(eng), 41, 1/1000: Video: wmv2 (WMV2 / 0x32564D57), yuv420p, 640x480, 1452 kb/s, 1k tbr, 1k tbn, 1k tbc
41[buffer @ 0x6433c0] w:640 h:480 pixfmt:yuv420p tb:1/1000000 sar:0/1 sws_param:flags=2
42[msmpeg4 @ 0x643b20] intra_quant_bias = 0 inter_quant_bias = -64
43Guessed Channel Layout for  Input Stream #0.0 : mono
44Output #0, asf, to 'test.wmv':
45  Metadata:
46    WMFSDKVersion   : 12.0.7601.17514
47    WMFSDKNeeded    : 0.0.0.0000
48    IsVBR           : 1
49    VBR Peak        : 126
50    Buffer Average  : 114
51    WM/EncodingSettings: Lavf54.3.100
52    Stream #0:0(eng), 0, 1/1000: Video: msmpeg4 (MP43 / 0x3334504D), yuv420p, 640x480, q=2-31, 200 kb/s, 1k tbn, 1k tbc
53    Stream #0:1(eng), 0, 1/1000: Audio: wmav2 (a[1][0][0] / 0x0161), 32000 Hz, mono, s16, 128 kb/s
54Stream mapping:
55  Stream #0:1 -> #0:0 (wmv2 -> msmpeg4)
56  Stream #0:0 -> #0:1 (wmav2 -> wmav2)
57Press [q] to stop, [?] for help
58[wmv2 @ 0x633f80] I7:0/
59*** 9 dup!
60*** 78 dup!
61*** 63 dup!
62*** 63 dup!
63*** 63 dup!
64*** 63 dup!
65*** 64 dup!
66*** 64 dup!
67*** 77 dup!
68*** 64 dup!
69frame=  618 fps=0.0 q=31.0 size=       1kB time=00:00:00.00 bitrate=   0.0kbits/s dup=608 drop=0   
70*** 63 dup!
71*** 63 dup!
72*** 63 dup!
73*** 63 dup!
74*** 79 dup!
75[wmv2 @ 0x633f80] I7:0/
76*** 93 dup!
77*** 32 dup!
78*** 63 dup!
79frame= 1145 fps=1128 q=31.0 size=     163kB time=00:00:00.25 bitrate=5228.7kbits/s dup=1127 drop=0   
80Application provided invalid, non monotonically increasing dts to muxer in stream 1: 192 >= 192
81av_interleaved_write_frame(): Invalid argument