Ticket #1139: any.log

File any.log, 2.3 KB (added by ssp43, 7 years ago)

log-file

Line 
1ffmpeg version 0.10 Copyright (c) 2000-2012 the FFmpeg developers
2  built on Mar 26 2012 15:33:45 with gcc 4.5.1 20101208 [gcc-4_5-branch revision 167585]
3  configuration: --shlibdir=/usr/lib64 --prefix=/usr --mandir=/usr/share/man --libdir=/usr/lib64 --enable-shared --disable-static --enable-debug --disable-stripping --extra-cflags='-fmessage-length=0 -O2 -Wall -D_FORTIFY_SOURCE=2 -fstack-protector -funwind-tables -fasynchronous-unwind-tables -g -fPIC -I/usr/include/gsm' --enable-gpl --enable-x11grab --enable-version3 --enable-pthreads --enable-avfilter --enable-libvpx --enable-libmp3lame --enable-libvorbis --enable-libtheora --enable-libspeex --enable-libxvid --enable-libx264 --enable-libschroedinger --enable-libdirac --enable-libgsm --enable-libopencore-amrnb --enable-libopencore-amrwb --enable-postproc --enable-libdc1394 --enable-librtmp
4  libavutil      51. 34.101 / 51. 34.101
5  libavcodec     53. 60.100 / 53. 60.100
6  libavformat    53. 31.100 / 53. 31.100
7  libavdevice    53.  4.100 / 53.  4.100
8  libavfilter     2. 60.100 /  2. 60.100
9  libswscale      2.  1.100 /  2.  1.100
10  libswresample   0.  6.100 /  0.  6.100
11  libpostproc    52.  0.100 / 52.  0.100
12Input #0, image2, from 'any_picture.png':
13  Duration: 00:00:00.04, start: 0.000000, bitrate: N/A
14    Stream #0:0: Video: png, rgba, 236x1080, 23.98 fps, 23.98 tbr, 23.98 tbn, 23.98 tbc
15[buffer @ 0x63f9c0] w:236 h:1080 pixfmt:rgba tb:1/1000000 sar:0/1 sws_param:
16[fade @ 0x63af20] type:in start_frame:65 nb_frames:48 alpha:0
17[fade @ 0x63ba80] type:out start_frame:3120 nb_frames:48 alpha:0
18[fade @ 0x63ba80] auto-inserting filter 'auto-inserted scale 0' between the filter 'Parsed_fade_0' and the filter 'Parsed_fade_1'
19[scale @ 0x63cd80] w:236 h:1080 fmt:rgba -> w:236 h:1080 fmt:yuv420p flags:0x4
20Output #0, yuv4mpegpipe, to 'any.file':
21  Metadata:
22    encoder         : Lavf53.31.100
23    Stream #0:0: Video: rawvideo (I420 / 0x30323449), yuv420p, 236x1080, q=2-31, 200 kb/s, 90k tbn, 23.98 tbc
24Stream mapping:
25  Stream #0:0 -> #0:0 (png -> rawvideo)
26Press [q] to stop, [?] for help
27frame= 3168 fps= 54 q=0.0 Lsize= 1182821kB time=00:02:12.13 bitrate=73333.3kbits/s   
28video:0kB audio:0kB global headers:0kB muxing overhead inf%
29Output file is empty, nothing was encoded (check -ss / -t / -frames parameters if used)