Ticket #113: po_arrive_early_michelle_021811.S_mxf.log

File po_arrive_early_michelle_021811.S_mxf.log, 1.8 KB (added by k_s_johnson, 6 years ago)

ffmpeg output log

Line 
1FFmpeg version UNKNOWN, Copyright (c) 2000-2011 the FFmpeg developers
2  built on Apr 24 2011 21:12:57 with gcc 4.4.1 20090725 (Red Hat 4.4.1-2)
3  configuration: --disable-ffplay --disable-ffserver --enable-gpl --enable-nonfree --enable-libfaac
4  libavutil    51.  0. 0 / 51.  0. 0
5  libavcodec   53.  0. 0 / 53.  0. 0
6  libavformat  53.  0. 0 / 53.  0. 0
7  libavdevice  53.  0. 0 / 53.  0. 0
8  libavfilter   2.  0. 0 /  2.  0. 0
9  libswscale    0. 13. 0 /  0. 13. 0
10[aac @ 0x1e9bfa0] Audio object type 23 is not supported.
11    Last message repeated 471 times
12[mov,mp4,m4a,3gp,3g2,mj2 @ 0x1e97ae0] max_analyze_duration reached
13
14Seems stream 0 codec frame rate differs from container frame rate: 5994.00 (5994/1) -> 29.97 (2997/100)
15Input #0, mov,mp4,m4a,3gp,3g2,mj2, from '/files/MediaCache/po_arrive_early_michelle_021811.mov':
16  Metadata:
17    major_brand     : qt 
18    minor_version   : 537199360
19    compatible_brands: qt 
20    creation_time   : 2011-02-16 02:33:06
21  Duration: 00:00:15.81, start: 0.000000, bitrate: 3972 kb/s
22    Stream #0.0(eng): Video: h264 (Main), yuv420p, 1280x720, 3842 kb/s, PAR 1:1 DAR 16:9, 29.97 fps, 29.97 tbr, 2997 tbn, 5994 tbc
23    Metadata:
24      creation_time   : 2011-02-16 02:36:56
25    Stream #0.1(eng): Audio: aac, 0 channels, 121 kb/s
26    Metadata:
27      creation_time   : 2011-02-16 02:36:57
28Incompatible sample format '(null)' for codec 'pcm_s24le', auto-selecting format 's32'
29[aac @ 0x1e9bfa0] Audio object type 23 is not supported.
30Output #0, wav, to '/files/DCPCache/po_arrive_early_michelle_021811//Build/extracted.wav':
31    Stream #0.0(eng): Audio: pcm_s24le, 0 channels, s32
32    Metadata:
33      creation_time   : 2011-02-16 02:36:57
34Stream mapping:
35  Stream #0.1 -> #0.0
36Error while opening decoder for input stream #0.1