Ticket #1069: ffmeg.log

File ffmeg.log, 5.7 KB (added by lennie, 5 years ago)

Captured command line output

Line 
1ffmpeg version N-34294-g0bc5677, Copyright (c) 2000-2011 the FFmpeg developers
2  built on Oct 31 2011 02:25:26 with gcc 4.5.0 20100414 (Fedora MinGW 4.5.0-1.fc14)
3  configuration: --prefix=/var/www/users/research/ffmpeg/snapshots/build --arch=x86 --target-os=mingw32 --cross-prefix=i686-pc-mingw32- --cc='ccache i686-pc-mingw32-gcc' --enable-w32threads --enable-memalign-hack --enable-runtime-cpudetect --enable-cross-compile --enable-static --disable-shared --extra-libs='-lws2_32 -lwinmm' --extra-cflags='--static -I/var/www/users/research/ffmpeg/snapshots/build/include' --extra-ldflags='-static -L/var/www/users/research/ffmpeg/snapshots/build/lib' --enable-bzlib --enable-zlib --enable-gpl --enable-version3 --enable-nonfree --enable-libx264 --enable-libspeex --enable-libtheora --enable-libvorbis --enable-libfaac --enable-libxvid --enable-libopencore-amrnb --enable-libopencore-amrwb --enable-libmp3lame --enable-libvpx --disable-decoder=libvpx
4  libavutil    51. 22. 0 / 51. 22. 0
5  libavcodec   53. 25. 0 / 53. 25. 0
6  libavformat  53. 18. 0 / 53. 18. 0
7  libavdevice  53.  4. 0 / 53.  4. 0
8  libavfilter   2. 45. 2 /  2. 45. 2
9  libswscale    2.  1. 0 /  2.  1. 0
10  libpostproc  51.  2. 0 / 51.  2. 0
11[h264 @ 0x3499400] mb_type 33 in I slice too large at 73 58
12[h264 @ 0x3499400] error while decoding MB 73 58
13[h264 @ 0x3499400] concealing 1176 DC, 1176 AC, 1176 MV errors
14
15Seems stream 0 codec frame rate differs from container frame rate: 48000.00 (48000/1) -> 23.98 (24000/1001)
16Input #0, mov,mp4,m4a,3gp,3g2,mj2, from 'C:\media\Artifacts\MVI_0584-cut.MOV':
17  Metadata:
18    major_brand     : qt 
19    minor_version   : 537331968
20    compatible_brands: qt  CAEP
21    creation_time   : 2012-03-10 08:00:25
22  Duration: 00:00:02.00, start: 0.000000, bitrate: 33818 kb/s
23    Stream #0:0(eng): Video: h264 (Constrained Baseline) (avc1 / 0x31637661), yuvj420p, 1920x1080, 32782 kb/s, 23.98 fps, 23.98 tbr, 24k tbn, 48k tbc
24    Metadata:
25      creation_time   : 2012-03-10 08:00:25
26      handler_name    :
27    Stream #0:1(eng): Audio: pcm_s16le (sowt / 0x74776F73), 48000 Hz, 1 channels, s16, 768 kb/s
28    Metadata:
29      creation_time   : 2012-03-10 08:00:25
30      handler_name    :
31Incompatible pixel format 'yuvj420p' for codec 'libxvid', auto-selecting format 'yuv420p'
32[buffer @ 0x354ff80] w:1920 h:1080 pixfmt:yuvj420p tb:1/1000000 sar:0/1 sws_param:
33[buffersink @ 0x348f020] auto-inserting filter 'auto-inserted scale 0' between the filter 'src' and the filter 'out'
34[scale @ 0x3b3b700] w:1920 h:1080 fmt:yuvj420p -> w:1920 h:1080 fmt:yuv420p flags:0x4
35Output #0, avi, to 'c:\media\MVI_0584-cut.avi':
36  Metadata:
37    major_brand     : qt 
38    minor_version   : 537331968
39    compatible_brands: qt  CAEP
40    creation_time   : 2012-03-10 08:00:25
41    ISFT            : Lavf53.18.0
42    Stream #0:0(eng): Video: mpeg4 (hq) (XVID / 0x44495658), yuv420p, 1920x1080 [SAR 1:1 DAR 16:9], q=3-5, 8000 kb/s, 29.97 tbn, 29.97 tbc
43    Metadata:
44      creation_time   : 2012-03-10 08:00:25
45      handler_name    :
46    Stream #0:1(eng): Audio: mp3 (U[0][0][0] / 0x0055), 48000 Hz, 2 channels, s16, 128 kb/s
47    Metadata:
48      creation_time   : 2012-03-10 08:00:25
49      handler_name    :
50Stream mapping:
51  Stream #0.0 -> #0.0 (h264 -> libxvid)
52  Stream #0.1 -> #0.1 (pcm_s16le -> libmp3lame)
53Press [q] to stop, [?] for help
54[h264 @ 0x3499400] mb_type 33 in I slice too large at 73 58
55[h264 @ 0x3499400] error while decoding MB 73 58
56[h264 @ 0x3499400] concealing 1176 DC, 1176 AC, 1176 MV errors
57[h264 @ 0x3499400] negative number of zero coeffs at 97 4
58[h264 @ 0x3499400] error while decoding MB 97 4
59[h264 @ 0x3499400] concealing 7632 DC, 7632 AC, 7632 MV errors
60[h264 @ 0x3499400] mb_type 55 in P slice too large at 41 22
61[h264 @ 0x3499400] error while decoding MB 41 22
62[h264 @ 0x3499400] concealing 5528 DC, 5528 AC, 5528 MV errors
63[h264 @ 0x3499400] P sub_mb_type 12 out of range at 12 13
64[h264 @ 0x3499400] error while decoding MB 12 13
65[h264 @ 0x3499400] concealing 6637 DC, 6637 AC, 6637 MV errors
66[h264 @ 0x3499400] out of range intra chroma pred mode at 65 8
67[h264 @ 0x3499400] error while decoding MB 65 8
68[h264 @ 0x3499400] concealing 7184 DC, 7184 AC, 7184 MV errors
69frame=    5 fps=  0 q=6.0 size=     213kB time=00:00:00.16 bitrate=10464.5kbits/s   
70frame=    8 fps=  6 q=3.0 size=     370kB time=00:00:00.26 bitrate=11348.2kbits/s   
71frame=   12 fps=  6 q=5.0 size=     630kB time=00:00:00.40 bitrate=12642.3kbits/s   
72mb_type 33 in I slice too large at 73 7
73[h264 @ 0x3499400] error while decoding MB 73 7
74[h264 @ 0x3499400] concealing 7296 DC, 7296 AC, 7296 MV errors
75[h264 @ 0x3499400] concealing 3253 DC, 3253 AC, 3253 MV errors
76[h264 @ 0x3499400] mb_type 50 in P slice too large at 85 63
77[h264 @ 0x3499400] error while decoding MB 85 63
78[h264 @ 0x3499400] concealing 564 DC, 564 AC, 564 MV errors
79frame=   17 fps=  6 q=5.0 size=     851kB time=00:00:00.66 bitrate=10452.6kbits/s   
80frame=   20 fps=  6 q=5.0 size=    1024kB time=00:00:00.76 bitrate=10926.6kbits/s   
81frame=   24 fps=  6 q=5.0 size=    1227kB time=00:00:00.91 bitrate=11024.5kbits/s   
82frame=   27 fps=  6 q=5.0 size=    1555kB time=00:00:01.06 bitrate=11933.8kbits/s   
83frame=   31 fps=  6 q=5.0 size=    1719kB time=00:00:01.23 bitrate=11405.0kbits/s   
84frame=   35 fps=  6 q=5.0 size=    1872kB time=00:00:01.40 bitrate=10943.7kbits/s   
85frame=   39 fps=  6 q=5.0 size=    2095kB time=00:00:01.56 bitrate=10941.5kbits/s   
86frame=   43 fps=  6 q=7.0 size=    2269kB time=00:00:01.73 bitrate=10715.3kbits/s   
87frame=   47 fps=  6 q=7.0 size=    2382kB time=00:00:01.90 bitrate=10262.0kbits/s   
88frame=   48 fps=  6 q=5.0 Lsize=    2387kB time=00:00:01.93 bitrate=10106.0kbits/s   
89
90video:2342kB audio:32kB global headers:0kB muxing overhead 0.553455%