Ticket #1065: ffmpeg-20120316-223115.log

File ffmpeg-20120316-223115.log, 5.0 KB (added by L.H.V.F., 5 years ago)
Line 
1ffmpeg started on 2012-03-16 at 22:31:15
2Report written to "ffmpeg-20120316-223115.log"
3Command line:
4ffmpeg -v 9 -loglevel 99 -i data0001.ts -report
5ffmpeg version N-38622-g1eabd71 Copyright (c) 2000-2012 the FFmpeg developers
6  built on Mar  7 2012 00:18:03 with gcc 4.6.2
7  configuration: --enable-gpl --enable-version3 --disable-w32threads --enable-runtime-cpudetect --enable-avisynth --enable-bzlib --enable-frei0r --enable-libopencore-amrnb --enable-libopencore-amrwb --enable-libfreetype --enable-libgsm --enable-libmp3lame --enable-libopenjpeg --enable-librtmp --enable-libschroedinger --enable-libspeex --enable-libtheora --enable-libvo-aacenc --enable-libvo-amrwbenc --enable-libvorbis --enable-libvpx --enable-libx264 --enable-libxavs --enable-libxvid --enable-zlib
8  libavutil      51. 42.100 / 51. 42.100
9  libavcodec     54. 10.100 / 54. 10.100
10  libavformat    54.  2.100 / 54.  2.100
11  libavdevice    53.  4.100 / 53.  4.100
12  libavfilter     2. 63.100 /  2. 63.100
13  libswscale      2.  1.100 /  2.  1.100
14  libswresample   0.  7.100 /  0.  7.100
15  libpostproc    52.  0.100 / 52.  0.100
16[mpegts @ 0216B440] Format mpegts probed with size=2048 and score=100
17[mpegts @ 0216B440] stream=0 stream_type=1b pid=d4 prog_reg_desc=
18[mpegts @ 0216B440] stream=1 stream_type=11 pid=d5 prog_reg_desc=
19[mpegts @ 0216B440] stream=2 stream_type=11 pid=d6 prog_reg_desc=
20[mpegts @ 0216B440] stream=3 stream_type=6 pid=e0 prog_reg_desc=
21[h264 @ 022689E0] non-existing PPS referenced
22[h264 @ 022689E0] non-existing PPS 0 referenced
23[h264 @ 022689E0] decode_slice_header error
24[h264 @ 022689E0] no frame!
25[h264 @ 022689E0] non-existing PPS referenced
26[h264 @ 022689E0] non-existing PPS 0 referenced
27[h264 @ 022689E0] decode_slice_header error
28[h264 @ 022689E0] no frame!
29[h264 @ 022689E0] non-existing PPS referenced
30[h264 @ 022689E0] non-existing PPS 0 referenced
31[h264 @ 022689E0] decode_slice_header error
32[h264 @ 022689E0] no frame!
33[h264 @ 022689E0] non-existing PPS referenced
34[h264 @ 022689E0] non-existing PPS 0 referenced
35[h264 @ 022689E0] decode_slice_header error
36[h264 @ 022689E0] no frame!
37[h264 @ 022689E0] non-existing PPS referenced
38[h264 @ 022689E0] non-existing PPS 0 referenced
39[h264 @ 022689E0] decode_slice_header error
40[h264 @ 022689E0] no frame!
41[mpegts @ 0216B440] probing stream 2 pp:2500
42[mpegts @ 0216B440] Probe with size=1578, packets=1 detected loas with score=51
43[mpegts @ 0216B440] probed stream 2
44[aac_latm @ 02274FE0] no decoder config found
45[aac_latm @ 02274FE0] no decoder config found
46[aac_latm @ 02274FE0] no decoder config found
47[aac_latm @ 02274FE0] no decoder config found
48[aac_latm @ 02274FE0] no decoder config found
49[aac_latm @ 02274FE0] audio config changed
50[mpegts @ 0216B440] probing stream 1 pp:2500
51[mpegts @ 0216B440] Probe with size=3455, packets=1 detected loas with score=51
52[mpegts @ 0216B440] probed stream 1
53[aac_latm @ 0226EC80] no decoder config found
54[aac_latm @ 0226EC80] no decoder config found
55[aac_latm @ 0226EC80] no decoder config found
56[aac_latm @ 0226EC80] audio config changed
57[h264 @ 022689E0] Current profile doesn't provide more RBSP data in PPS, skipping
58[h264 @ 022689E0] mmco: unref short failure
59[h264 @ 022689E0] mmco: unref short failure
60[h264 @ 022689E0] mmco: unref short failure
61[h264 @ 022689E0] mmco: unref short failure
62[h264 @ 022689E0] Increasing reorder buffer to 1
63[h264 @ 022689E0] no picture ooo
64[h264 @ 022689E0] Increasing reorder buffer to 2
65[h264 @ 022689E0] no picture ooo
66[h264 @ 022689E0] no picture ooo
67[h264 @ 022689E0] mmco: unref short failure
68[h264 @ 022689E0] mmco: unref short failure
69[h264 @ 022689E0] no picture
70[h264 @ 022689E0] no picture
71[h264 @ 022689E0] Current profile doesn't provide more RBSP data in PPS, skipping
72[h264 @ 022689E0] Current profile doesn't provide more RBSP data in PPS, skipping
73[h264 @ 022689E0] Current profile doesn't provide more RBSP data in PPS, skipping
74[h264 @ 022689E0] Current profile doesn't provide more RBSP data in PPS, skipping
75[mpegts @ 0216B440] max_analyze_duration 5000000 reached at 5003333
76[mpegts @ 0216B440] Could not find codec parameters (Unknown: none ([6][0][0][0] / 0x0006))
77rfps: 59.940060 0.000000
78[NULL @ 0227B360] start time is not set in estimate_timings_from_pts
79[mpegts @ 0216B440] PES packet size mismatch
80[mpegts @ 0216B440] PES packet size mismatch
81Input #0, mpegts, from 'data0001.ts':
82  Duration: 00:00:50.09, start: 88894.787733, bitrate: 2498 kb/s
83  Program 59232
84  Program 59233
85    Stream #0:0[0xd4], 306, 1/90000: Video: h264 (Main) ([27][0][0][0] / 0x001B), yuv420p, 720x480 [SAR 10:11 DAR 15:11], 1001/60000, 60.76 fps, 59.94 tbr, 90k tbn, 59.94 tbc
86    Stream #0:1[0xd5](por), 116, 1/90000: Audio: aac_latm ([17][0][0][0] / 0x0011), 48000 Hz, stereo, s16
87    Stream #0:2[0xd6](eng), 120, 1/90000: Audio: aac_latm ([17][0][0][0] / 0x0011), 48000 Hz, 2 channels (FC), s16
88    Stream #0:3[0xe0], 0, 1/90000: Unknown: none ([6][0][0][0] / 0x0006)
89  Program 59234
90  Program 59256
91At least one output file must be specified