Ticket #1055: ffmpeg-20120311-154567.log

File ffmpeg-20120311-154567.log, 31.8 KB (added by bfo, 7 years ago)
Line 
1ffmpeg started on 2012-03-11 at 16:10:19
2Report written to "ffmpeg-20120311-154567.log"
3Command line:
4ffmpeg -report -v 9 -loglevel 99 -i 03_Track_3.wma 03_Track_3.mp3
5ffmpeg version git-2012-03-11-ad029c2 Copyright (c) 2000-2012 the FFmpeg developers
6  built on Mar 11 2012 14:59:59 with gcc 4.6.3
7  configuration: --prefix=/usr --enable-gpl --enable-libfaac --enable-libmp3lame --enable-libtheora --enable-libvorbis --enable-libx264 --enable-nonfree --enable-x11grab
8  libavutil      51. 42.100 / 51. 42.100
9  libavcodec     54. 10.100 / 54. 10.100
10  libavformat    54.  2.100 / 54.  2.100
11  libavdevice    53.  4.100 / 53.  4.100
12  libavfilter     2. 64.101 /  2. 64.101
13  libswscale      2.  1.100 /  2.  1.100
14  libswresample   0.  7.100 /  0.  7.100
15  libpostproc    52.  0.100 / 52.  0.100
16[asf @ 0x31def20] Format asf probed with size=2048 and score=100
17[asf @ 0x31def20] Unsupported value type 1 in tag ASFLeakyBucketPairs.
18[asf @ 0x31def20] Unsupported value type 1 in tag WM/MCDI.
19[asf @ 0x31def20] gpos mismatch our pos=24, end=26
20[asf @ 0x31def20] gpos mismatch our pos=24, end=34
21[asf @ 0x31def20] gpos mismatch our pos=24, end=374
22[asf @ 0x31def20] gpos mismatch our pos=24, end=2734
23[asf @ 0x31def20] gpos mismatch our pos=24, end=226
24[asf @ 0x31def20] gpos mismatch our pos=24, end=32
25[asf @ 0x31def20] parser not found for codec wmalossless, packets or times may be invalid.
26[asf @ 0x31def20] All info found
27Input #0, asf, from '03_Track_3.wma':
28  Metadata:
29    WM/MediaPrimaryClassID: {D1607DBC-E323-4BE2-86A1-48A42A28441E}
30    WMFSDKVersion   : 11.0.5721.5275
31    WMFSDKNeeded    : 0.0.0.0000
32    WM/EncodingTime : 1844674
33    PeakValue       : 292
34    AverageLevel    : 396
35    track           : 3
36    WM/UniqueFileIdentifier: ;
37    WM/Provider     : User Feedback
38    album           : Schritte International 5
39    album_artist    : Hueber
40    genre           : Miscellaneous
41    IsVBR           : 1
42    MediaFoundationVersion: 2.112
43    title           : Track 3
44    artist          : Hueber
45  Duration: 00:00:31.98, start: 0.000000, bitrate: 618 kb/s
46    Stream #0:0(eng), 1, 1/1000: Audio: wmalossless (c[1][0][0] / 0x0163), 44100 Hz, stereo, s16, 1152 kb/s
47Output #0, mp3, to '03_Track_3.mp3':
48  Metadata:
49    WM/MediaPrimaryClassID: {D1607DBC-E323-4BE2-86A1-48A42A28441E}
50    WMFSDKVersion   : 11.0.5721.5275
51    WMFSDKNeeded    : 0.0.0.0000
52    WM/EncodingTime : 1844674
53    PeakValue       : 292
54    AverageLevel    : 396
55    TRCK            : 3
56    WM/UniqueFileIdentifier: ;
57    WM/Provider     : User Feedback
58    TALB            : Schritte International 5
59    TPE2            : Hueber
60    TCON            : Miscellaneous
61    IsVBR           : 1
62    MediaFoundationVersion: 2.112
63    TIT2            : Track 3
64    TPE1            : Hueber
65    TSSE            : Lavf54.2.100
66    Stream #0:0(eng), 0, 1/90000: Audio: mp3, 44100 Hz, stereo, s16
67Stream mapping:
68  Stream #0:0 -> #0:0 (wmalossless -> libmp3lame)
69Press [q] to stop, [?] for help
70Multiple frames in a packet from stream 0
71Multiple frames in a packet from stream 0
72Multiple frames in a packet from stream 0
73Multiple frames in a packet from stream 0
74Multiple frames in a packet from stream 0
75Multiple frames in a packet from stream 0
76Multiple frames in a packet from stream 0
77Multiple frames in a packet from stream 0
78Multiple frames in a packet from stream 0
79Multiple frames in a packet from stream 0
80Multiple frames in a packet from stream 0
81Multiple frames in a packet from stream 0
82Multiple frames in a packet from stream 0
83Multiple frames in a packet from stream 0
84Multiple frames in a packet from stream 0
85Multiple frames in a packet from stream 0
86Multiple frames in a packet from stream 0
87Multiple frames in a packet from stream 0
88Multiple frames in a packet from stream 0
89Multiple frames in a packet from stream 0
90DTS 1346, next:1484512 st:0 invalid droping
91Multiple frames in a packet from stream 0
92Multiple frames in a packet from stream 0
93Multiple frames in a packet from stream 0
94Multiple frames in a packet from stream 0
95DTS 1532, next:1716707 st:0 invalid droping
96Multiple frames in a packet from stream 0
97Multiple frames in a packet from stream 0
98Multiple frames in a packet from stream 0
99DTS 1717, next:1902463 st:0 invalid droping
100Multiple frames in a packet from stream 0
101Multiple frames in a packet from stream 0
102Multiple frames in a packet from stream 0
103DTS 1856, next:2088219 st:0 invalid droping
104Multiple frames in a packet from stream 0
105Multiple frames in a packet from stream 0
106DTS 2043, next:2227536 st:0 invalid droping
107Multiple frames in a packet from stream 0
108Multiple frames in a packet from stream 0
109Multiple frames in a packet from stream 0
110DTS 2228, next:2413292 st:0 invalid droping
111Multiple frames in a packet from stream 0
112Multiple frames in a packet from stream 0
113Multiple frames in a packet from stream 0
114DTS 2367, next:2599048 st:0 invalid droping
115Multiple frames in a packet from stream 0
116Multiple frames in a packet from stream 0
117DTS 2507, next:2738365 st:0 invalid droping
118Multiple frames in a packet from stream 0
119Multiple frames in a packet from stream 0
120DTS 2693, next:2877682 st:0 invalid droping
121Multiple frames in a packet from stream 0
122Multiple frames in a packet from stream 0
123Multiple frames in a packet from stream 0
124DTS 2832, next:3063438 st:0 invalid droping
125Multiple frames in a packet from stream 0
126Multiple frames in a packet from stream 0
127DTS 2971, next:3202755 st:0 invalid droping
128Multiple frames in a packet from stream 0
129Multiple frames in a packet from stream 0
130DTS 3157, next:3342072 st:0 invalid droping
131Multiple frames in a packet from stream 0
132Multiple frames in a packet from stream 0
133Multiple frames in a packet from stream 0
134DTS 3297, next:3527828 st:0 invalid droping
135Multiple frames in a packet from stream 0
136Multiple frames in a packet from stream 0
137DTS 3482, next:3667145 st:0 invalid droping
138Multiple frames in a packet from stream 0
139Multiple frames in a packet from stream 0
140Multiple frames in a packet from stream 0
141DTS 3621, next:3852901 st:0 invalid droping
142Multiple frames in a packet from stream 0
143Multiple frames in a packet from stream 0
144DTS 3760, next:3992218 st:0 invalid droping
145Multiple frames in a packet from stream 0
146Multiple frames in a packet from stream 0
147DTS 3947, next:4131535 st:0 invalid droping
148Multiple frames in a packet from stream 0
149Multiple frames in a packet from stream 0
150Multiple frames in a packet from stream 0
151DTS 4086, next:4317291 st:0 invalid droping
152Multiple frames in a packet from stream 0
153Multiple frames in a packet from stream 0
154DTS 4225, next:4456608 st:0 invalid droping
155Multiple frames in a packet from stream 0
156Multiple frames in a packet from stream 0
157DTS 4364, next:4595925 st:0 invalid droping
158Multiple frames in a packet from stream 0
159Multiple frames in a packet from stream 0
160DTS 4551, next:4735242 st:0 invalid droping
161Multiple frames in a packet from stream 0
162Multiple frames in a packet from stream 0
163Multiple frames in a packet from stream 0
164DTS 4690, next:4920998 st:0 invalid droping
165Multiple frames in a packet from stream 0
166Multiple frames in a packet from stream 0
167DTS 4829, next:5060315 st:0 invalid droping
168Multiple frames in a packet from stream 0
169Multiple frames in a packet from stream 0
170DTS 5014, next:5199632 st:0 invalid droping
171Multiple frames in a packet from stream 0
172Multiple frames in a packet from stream 0
173Multiple frames in a packet from stream 0
174DTS 5154, next:5385388 st:0 invalid droping
175Multiple frames in a packet from stream 0
176Multiple frames in a packet from stream 0
177DTS 5294, next:5524705 st:0 invalid droping
178Multiple frames in a packet from stream 0
179Multiple frames in a packet from stream 0
180DTS 5479, next:5664022 st:0 invalid droping
181Multiple frames in a packet from stream 0
182Multiple frames in a packet from stream 0
183Multiple frames in a packet from stream 0
184DTS 5618, next:5849778 st:0 invalid droping
185Multiple frames in a packet from stream 0
186Multiple frames in a packet from stream 0
187DTS 5757, next:5989095 st:0 invalid droping
188Multiple frames in a packet from stream 0
189Multiple frames in a packet from stream 0
190DTS 5897, next:6128412 st:0 invalid droping
191Multiple frames in a packet from stream 0
192Multiple frames in a packet from stream 0
193DTS 6083, next:6267729 st:0 invalid droping
194Multiple frames in a packet from stream 0
195Multiple frames in a packet from stream 0
196Multiple frames in a packet from stream 0
197DTS 6176, next:6453485 st:0 invalid droping
198Multiple frames in a packet from stream 0
199DTS 6361, next:6546363 st:0 invalid droping
200Multiple frames in a packet from stream 0
201Multiple frames in a packet from stream 0
202Multiple frames in a packet from stream 0
203DTS 6501, next:6732119 st:0 invalid droping
204Multiple frames in a packet from stream 0
205Multiple frames in a packet from stream 0
206DTS 6640, next:6871436 st:0 invalid droping
207Multiple frames in a packet from stream 0
208Multiple frames in a packet from stream 0
209DTS 6779, next:7010753 st:0 invalid droping
210Multiple frames in a packet from stream 0
211Multiple frames in a packet from stream 0
212DTS 6918, next:7150070 st:0 invalid droping
213Multiple frames in a packet from stream 0
214Multiple frames in a packet from stream 0
215DTS 7105, next:7289387 st:0 invalid droping
216Multiple frames in a packet from stream 0
217Multiple frames in a packet from stream 0
218Multiple frames in a packet from stream 0
219DTS 7244, next:7475143 st:0 invalid droping
220Multiple frames in a packet from stream 0
221Multiple frames in a packet from stream 0
222DTS 7383, next:7614460 st:0 invalid droping
223Multiple frames in a packet from stream 0
224Multiple frames in a packet from stream 0
225DTS 7522, next:7753777 st:0 invalid droping
226Multiple frames in a packet from stream 0
227Multiple frames in a packet from stream 0
228DTS 7709, next:7893094 st:0 invalid droping
229Multiple frames in a packet from stream 0
230Multiple frames in a packet from stream 0
231Multiple frames in a packet from stream 0
232size=     120kB time=00:00:07.62 bitrate= 128.7kbits/s   
233DTS 7848, next:8078850 st:0 invalid droping
234Multiple frames in a packet from stream 0
235Multiple frames in a packet from stream 0
236DTS 7987, next:8218167 st:0 invalid droping
237Multiple frames in a packet from stream 0
238Multiple frames in a packet from stream 0
239DTS 8172, next:8357484 st:0 invalid droping
240Multiple frames in a packet from stream 0
241Multiple frames in a packet from stream 0
242Multiple frames in a packet from stream 0
243DTS 8312, next:8543240 st:0 invalid droping
244Multiple frames in a packet from stream 0
245Multiple frames in a packet from stream 0
246DTS 8452, next:8682557 st:0 invalid droping
247Multiple frames in a packet from stream 0
248Multiple frames in a packet from stream 0
249DTS 8637, next:8821874 st:0 invalid droping
250Multiple frames in a packet from stream 0
251Multiple frames in a packet from stream 0
252Multiple frames in a packet from stream 0
253DTS 8776, next:9007630 st:0 invalid droping
254Multiple frames in a packet from stream 0
255Multiple frames in a packet from stream 0
256DTS 8915, next:9146947 st:0 invalid droping
257Multiple frames in a packet from stream 0
258Multiple frames in a packet from stream 0
259DTS 9102, next:9286264 st:0 invalid droping
260Multiple frames in a packet from stream 0
261Multiple frames in a packet from stream 0
262Multiple frames in a packet from stream 0
263DTS 9241, next:9472020 st:0 invalid droping
264Multiple frames in a packet from stream 0
265Multiple frames in a packet from stream 0
266DTS 9380, next:9611337 st:0 invalid droping
267Multiple frames in a packet from stream 0
268Multiple frames in a packet from stream 0
269DTS 9519, next:9750654 st:0 invalid droping
270Multiple frames in a packet from stream 0
271Multiple frames in a packet from stream 0
272DTS 9659, next:9889971 st:0 invalid droping
273Multiple frames in a packet from stream 0
274Multiple frames in a packet from stream 0
275DTS 9844, next:10029288 st:0 invalid droping
276Multiple frames in a packet from stream 0
277Multiple frames in a packet from stream 0
278Multiple frames in a packet from stream 0
279DTS 9984, next:10215044 st:0 invalid droping
280Multiple frames in a packet from stream 0
281Multiple frames in a packet from stream 0
282DTS 10123, next:10354361 st:0 invalid droping
283Multiple frames in a packet from stream 0
284Multiple frames in a packet from stream 0
285DTS 10263, next:10493678 st:0 invalid droping
286Multiple frames in a packet from stream 0
287Multiple frames in a packet from stream 0
288DTS 10402, next:10632995 st:0 invalid droping
289Multiple frames in a packet from stream 0
290Multiple frames in a packet from stream 0
291DTS 10587, next:10772312 st:0 invalid droping
292Multiple frames in a packet from stream 0
293Multiple frames in a packet from stream 0
294Multiple frames in a packet from stream 0
295DTS 10726, next:10958068 st:0 invalid droping
296Multiple frames in a packet from stream 0
297Multiple frames in a packet from stream 0
298DTS 10866, next:11097385 st:0 invalid droping
299Multiple frames in a packet from stream 0
300Multiple frames in a packet from stream 0
301DTS 11052, next:11236702 st:0 invalid droping
302Multiple frames in a packet from stream 0
303Multiple frames in a packet from stream 0
304Multiple frames in a packet from stream 0
305DTS 11191, next:11422458 st:0 invalid droping
306Multiple frames in a packet from stream 0
307Multiple frames in a packet from stream 0
308DTS 11330, next:11561775 st:0 invalid droping
309Multiple frames in a packet from stream 0
310Multiple frames in a packet from stream 0
311DTS 11469, next:11701092 st:0 invalid droping
312Multiple frames in a packet from stream 0
313Multiple frames in a packet from stream 0
314DTS 11656, next:11840409 st:0 invalid droping
315Multiple frames in a packet from stream 0
316Multiple frames in a packet from stream 0
317Multiple frames in a packet from stream 0
318DTS 11795, next:12026165 st:0 invalid droping
319Multiple frames in a packet from stream 0
320Multiple frames in a packet from stream 0
321DTS 11934, next:12165482 st:0 invalid droping
322Multiple frames in a packet from stream 0
323Multiple frames in a packet from stream 0
324DTS 12073, next:12304799 st:0 invalid droping
325Multiple frames in a packet from stream 0
326Multiple frames in a packet from stream 0
327DTS 12213, next:12444116 st:0 invalid droping
328Multiple frames in a packet from stream 0
329Multiple frames in a packet from stream 0
330DTS 12353, next:12583433 st:0 invalid droping
331Multiple frames in a packet from stream 0
332Multiple frames in a packet from stream 0
333DTS 12492, next:12722750 st:0 invalid droping
334Multiple frames in a packet from stream 0
335Multiple frames in a packet from stream 0
336DTS 12677, next:12862067 st:0 invalid droping
337Multiple frames in a packet from stream 0
338Multiple frames in a packet from stream 0
339Multiple frames in a packet from stream 0
340DTS 12817, next:13047823 st:0 invalid droping
341Multiple frames in a packet from stream 0
342Multiple frames in a packet from stream 0
343DTS 12956, next:13187140 st:0 invalid droping
344Multiple frames in a packet from stream 0
345Multiple frames in a packet from stream 0
346DTS 13142, next:13326457 st:0 invalid droping
347Multiple frames in a packet from stream 0
348Multiple frames in a packet from stream 0
349Multiple frames in a packet from stream 0
350DTS 13281, next:13512213 st:0 invalid droping
351Multiple frames in a packet from stream 0
352Multiple frames in a packet from stream 0
353DTS 13420, next:13651530 st:0 invalid droping
354Multiple frames in a packet from stream 0
355Multiple frames in a packet from stream 0
356DTS 13606, next:13790847 st:0 invalid droping
357Multiple frames in a packet from stream 0
358Multiple frames in a packet from stream 0
359Multiple frames in a packet from stream 0
360DTS 13745, next:13976603 st:0 invalid droping
361Multiple frames in a packet from stream 0
362Multiple frames in a packet from stream 0
363DTS 13884, next:14115920 st:0 invalid droping
364Multiple frames in a packet from stream 0
365Multiple frames in a packet from stream 0
366DTS 14024, next:14255237 st:0 invalid droping
367Multiple frames in a packet from stream 0
368Multiple frames in a packet from stream 0
369DTS 14210, next:14394554 st:0 invalid droping
370Multiple frames in a packet from stream 0
371Multiple frames in a packet from stream 0
372Multiple frames in a packet from stream 0
373DTS 14349, next:14580310 st:0 invalid droping
374Multiple frames in a packet from stream 0
375Multiple frames in a packet from stream 0
376DTS 14488, next:14719627 st:0 invalid droping
377Multiple frames in a packet from stream 0
378Multiple frames in a packet from stream 0
379DTS 14627, next:14858944 st:0 invalid droping
380Multiple frames in a packet from stream 0
381Multiple frames in a packet from stream 0
382DTS 14767, next:14998261 st:0 invalid droping
383Multiple frames in a packet from stream 0
384Multiple frames in a packet from stream 0
385DTS 14953, next:15137578 st:0 invalid droping
386Multiple frames in a packet from stream 0
387Multiple frames in a packet from stream 0
388Multiple frames in a packet from stream 0
389size=     233kB time=00:00:14.86 bitrate= 128.4kbits/s   
390DTS 15092, next:15323334 st:0 invalid droping
391Multiple frames in a packet from stream 0
392Multiple frames in a packet from stream 0
393DTS 15231, next:15462651 st:0 invalid droping
394Multiple frames in a packet from stream 0
395Multiple frames in a packet from stream 0
396DTS 15418, next:15601968 st:0 invalid droping
397Multiple frames in a packet from stream 0
398Multiple frames in a packet from stream 0
399Multiple frames in a packet from stream 0
400DTS 15557, next:15787724 st:0 invalid droping
401Multiple frames in a packet from stream 0
402Multiple frames in a packet from stream 0
403DTS 15696, next:15927041 st:0 invalid droping
404Multiple frames in a packet from stream 0
405Multiple frames in a packet from stream 0
406DTS 15835, next:16066358 st:0 invalid droping
407Multiple frames in a packet from stream 0
408Multiple frames in a packet from stream 0
409DTS 16021, next:16205675 st:0 invalid droping
410Multiple frames in a packet from stream 0
411Multiple frames in a packet from stream 0
412Multiple frames in a packet from stream 0
413DTS 16161, next:16391431 st:0 invalid droping
414Multiple frames in a packet from stream 0
415Multiple frames in a packet from stream 0
416DTS 16300, next:16530748 st:0 invalid droping
417Multiple frames in a packet from stream 0
418Multiple frames in a packet from stream 0
419DTS 16439, next:16670065 st:0 invalid droping
420Multiple frames in a packet from stream 0
421Multiple frames in a packet from stream 0
422DTS 16624, next:16809382 st:0 invalid droping
423Multiple frames in a packet from stream 0
424Multiple frames in a packet from stream 0
425Multiple frames in a packet from stream 0
426DTS 16764, next:16995138 st:0 invalid droping
427Multiple frames in a packet from stream 0
428Multiple frames in a packet from stream 0
429DTS 16950, next:17134455 st:0 invalid droping
430Multiple frames in a packet from stream 0
431Multiple frames in a packet from stream 0
432Multiple frames in a packet from stream 0
433DTS 17089, next:17320211 st:0 invalid droping
434Multiple frames in a packet from stream 0
435Multiple frames in a packet from stream 0
436DTS 17228, next:17459528 st:0 invalid droping
437Multiple frames in a packet from stream 0
438Multiple frames in a packet from stream 0
439DTS 17414, next:17598845 st:0 invalid droping
440Multiple frames in a packet from stream 0
441Multiple frames in a packet from stream 0
442Multiple frames in a packet from stream 0
443DTS 17553, next:17784601 st:0 invalid droping
444Multiple frames in a packet from stream 0
445Multiple frames in a packet from stream 0
446DTS 17739, next:17923918 st:0 invalid droping
447Multiple frames in a packet from stream 0
448Multiple frames in a packet from stream 0
449Multiple frames in a packet from stream 0
450DTS 17878, next:18109674 st:0 invalid droping
451Multiple frames in a packet from stream 0
452Multiple frames in a packet from stream 0
453DTS 18018, next:18248991 st:0 invalid droping
454Multiple frames in a packet from stream 0
455Multiple frames in a packet from stream 0
456DTS 18157, next:18388308 st:0 invalid droping
457Multiple frames in a packet from stream 0
458Multiple frames in a packet from stream 0
459DTS 18296, next:18527625 st:0 invalid droping
460Multiple frames in a packet from stream 0
461Multiple frames in a packet from stream 0
462DTS 18482, next:18666942 st:0 invalid droping
463Multiple frames in a packet from stream 0
464Multiple frames in a packet from stream 0
465Multiple frames in a packet from stream 0
466DTS 18622, next:18852698 st:0 invalid droping
467Multiple frames in a packet from stream 0
468Multiple frames in a packet from stream 0
469DTS 18761, next:18992015 st:0 invalid droping
470Multiple frames in a packet from stream 0
471Multiple frames in a packet from stream 0
472DTS 18900, next:19131332 st:0 invalid droping
473Multiple frames in a packet from stream 0
474Multiple frames in a packet from stream 0
475DTS 19039, next:19270649 st:0 invalid droping
476Multiple frames in a packet from stream 0
477Multiple frames in a packet from stream 0
478DTS 19179, next:19409966 st:0 invalid droping
479Multiple frames in a packet from stream 0
480Multiple frames in a packet from stream 0
481DTS 19319, next:19549283 st:0 invalid droping
482Multiple frames in a packet from stream 0
483Multiple frames in a packet from stream 0
484DTS 19457, next:19688600 st:0 invalid droping
485Multiple frames in a packet from stream 0
486Multiple frames in a packet from stream 0
487DTS 19643, next:19827917 st:0 invalid droping
488Multiple frames in a packet from stream 0
489Multiple frames in a packet from stream 0
490Multiple frames in a packet from stream 0
491DTS 19782, next:20013673 st:0 invalid droping
492Multiple frames in a packet from stream 0
493Multiple frames in a packet from stream 0
494DTS 19969, next:20152990 st:0 invalid droping
495Multiple frames in a packet from stream 0
496Multiple frames in a packet from stream 0
497Multiple frames in a packet from stream 0
498DTS 20108, next:20338746 st:0 invalid droping
499Multiple frames in a packet from stream 0
500Multiple frames in a packet from stream 0
501DTS 20247, next:20478063 st:0 invalid droping
502Multiple frames in a packet from stream 0
503Multiple frames in a packet from stream 0
504DTS 20432, next:20617380 st:0 invalid droping
505Multiple frames in a packet from stream 0
506Multiple frames in a packet from stream 0
507Multiple frames in a packet from stream 0
508DTS 20572, next:20803136 st:0 invalid droping
509Multiple frames in a packet from stream 0
510Multiple frames in a packet from stream 0
511DTS 20758, next:20942453 st:0 invalid droping
512Multiple frames in a packet from stream 0
513Multiple frames in a packet from stream 0
514Multiple frames in a packet from stream 0
515DTS 20897, next:21128209 st:0 invalid droping
516Multiple frames in a packet from stream 0
517Multiple frames in a packet from stream 0
518DTS 21083, next:21267526 st:0 invalid droping
519Multiple frames in a packet from stream 0
520Multiple frames in a packet from stream 0
521Multiple frames in a packet from stream 0
522DTS 21223, next:21453282 st:0 invalid droping
523Multiple frames in a packet from stream 0
524Multiple frames in a packet from stream 0
525DTS 21362, next:21592599 st:0 invalid droping
526Multiple frames in a packet from stream 0
527Multiple frames in a packet from stream 0
528DTS 21501, next:21731916 st:0 invalid droping
529Multiple frames in a packet from stream 0
530Multiple frames in a packet from stream 0
531DTS 21640, next:21871233 st:0 invalid droping
532Multiple frames in a packet from stream 0
533Multiple frames in a packet from stream 0
534DTS 21780, next:22010550 st:0 invalid droping
535Multiple frames in a packet from stream 0
536Multiple frames in a packet from stream 0
537size=     339kB time=00:00:21.68 bitrate= 128.3kbits/s   
538DTS 21966, next:22149867 st:0 invalid droping
539Multiple frames in a packet from stream 0
540Multiple frames in a packet from stream 0
541Multiple frames in a packet from stream 0
542DTS 22105, next:22335623 st:0 invalid droping
543Multiple frames in a packet from stream 0
544Multiple frames in a packet from stream 0
545DTS 22290, next:22474940 st:0 invalid droping
546Multiple frames in a packet from stream 0
547Multiple frames in a packet from stream 0
548Multiple frames in a packet from stream 0
549DTS 22430, next:22660696 st:0 invalid droping
550Multiple frames in a packet from stream 0
551Multiple frames in a packet from stream 0
552DTS 22615, next:22800013 st:0 invalid droping
553Multiple frames in a packet from stream 0
554Multiple frames in a packet from stream 0
555Multiple frames in a packet from stream 0
556DTS 22755, next:22985769 st:0 invalid droping
557Multiple frames in a packet from stream 0
558Multiple frames in a packet from stream 0
559DTS 22894, next:23125086 st:0 invalid droping
560Multiple frames in a packet from stream 0
561Multiple frames in a packet from stream 0
562DTS 23033, next:23264403 st:0 invalid droping
563Multiple frames in a packet from stream 0
564Multiple frames in a packet from stream 0
565DTS 23173, next:23403720 st:0 invalid droping
566Multiple frames in a packet from stream 0
567Multiple frames in a packet from stream 0
568DTS 23312, next:23543037 st:0 invalid droping
569Multiple frames in a packet from stream 0
570Multiple frames in a packet from stream 0
571DTS 23497, next:23682354 st:0 invalid droping
572Multiple frames in a packet from stream 0
573Multiple frames in a packet from stream 0
574Multiple frames in a packet from stream 0
575DTS 23637, next:23868110 st:0 invalid droping
576Multiple frames in a packet from stream 0
577Multiple frames in a packet from stream 0
578DTS 23777, next:24007427 st:0 invalid droping
579Multiple frames in a packet from stream 0
580Multiple frames in a packet from stream 0
581DTS 23962, next:24146744 st:0 invalid droping
582Multiple frames in a packet from stream 0
583Multiple frames in a packet from stream 0
584Multiple frames in a packet from stream 0
585DTS 24101, next:24332500 st:0 invalid droping
586Multiple frames in a packet from stream 0
587Multiple frames in a packet from stream 0
588DTS 24240, next:24471817 st:0 invalid droping
589Multiple frames in a packet from stream 0
590Multiple frames in a packet from stream 0
591DTS 24380, next:24611134 st:0 invalid droping
592Multiple frames in a packet from stream 0
593Multiple frames in a packet from stream 0
594DTS 24566, next:24750451 st:0 invalid droping
595Multiple frames in a packet from stream 0
596Multiple frames in a packet from stream 0
597Multiple frames in a packet from stream 0
598DTS 24705, next:24936207 st:0 invalid droping
599Multiple frames in a packet from stream 0
600Multiple frames in a packet from stream 0
601DTS 24891, next:25075524 st:0 invalid droping
602Multiple frames in a packet from stream 0
603Multiple frames in a packet from stream 0
604Multiple frames in a packet from stream 0
605DTS 24984, next:25261280 st:0 invalid droping
606Multiple frames in a packet from stream 0
607DTS 25170, next:25354158 st:0 invalid droping
608Multiple frames in a packet from stream 0
609Multiple frames in a packet from stream 0
610Multiple frames in a packet from stream 0
611DTS 25309, next:25539914 st:0 invalid droping
612Multiple frames in a packet from stream 0
613Multiple frames in a packet from stream 0
614DTS 25448, next:25679231 st:0 invalid droping
615Multiple frames in a packet from stream 0
616Multiple frames in a packet from stream 0
617DTS 25587, next:25818548 st:0 invalid droping
618Multiple frames in a packet from stream 0
619Multiple frames in a packet from stream 0
620DTS 25774, next:25957865 st:0 invalid droping
621Multiple frames in a packet from stream 0
622Multiple frames in a packet from stream 0
623Multiple frames in a packet from stream 0
624DTS 25913, next:26143621 st:0 invalid droping
625Multiple frames in a packet from stream 0
626Multiple frames in a packet from stream 0
627DTS 26052, next:26282938 st:0 invalid droping
628Multiple frames in a packet from stream 0
629Multiple frames in a packet from stream 0
630DTS 26191, next:26422255 st:0 invalid droping
631Multiple frames in a packet from stream 0
632Multiple frames in a packet from stream 0
633DTS 26377, next:26561572 st:0 invalid droping
634Multiple frames in a packet from stream 0
635Multiple frames in a packet from stream 0
636Multiple frames in a packet from stream 0
637DTS 26516, next:26747328 st:0 invalid droping
638Multiple frames in a packet from stream 0
639Multiple frames in a packet from stream 0
640DTS 26702, next:26886645 st:0 invalid droping
641Multiple frames in a packet from stream 0
642Multiple frames in a packet from stream 0
643Multiple frames in a packet from stream 0
644DTS 26888, next:27072401 st:0 invalid droping
645Multiple frames in a packet from stream 0
646Multiple frames in a packet from stream 0
647Multiple frames in a packet from stream 0
648DTS 27120, next:27258157 st:0 invalid droping
649Multiple frames in a packet from stream 0
650Multiple frames in a packet from stream 0
651Multiple frames in a packet from stream 0
652Multiple frames in a packet from stream 0
653DTS 27306, next:27490352 st:0 invalid droping
654Multiple frames in a packet from stream 0
655Multiple frames in a packet from stream 0
656Multiple frames in a packet from stream 0
657DTS 27538, next:27676108 st:0 invalid droping
658Multiple frames in a packet from stream 0
659Multiple frames in a packet from stream 0
660Multiple frames in a packet from stream 0
661Multiple frames in a packet from stream 0
662DTS 27770, next:27908303 st:0 invalid droping
663Multiple frames in a packet from stream 0
664Multiple frames in a packet from stream 0
665Multiple frames in a packet from stream 0
666Multiple frames in a packet from stream 0
667DTS 28002, next:28140498 st:0 invalid droping
668Multiple frames in a packet from stream 0
669Multiple frames in a packet from stream 0
670Multiple frames in a packet from stream 0
671Multiple frames in a packet from stream 0
672DTS 28281, next:28372693 st:0 invalid droping
673Multiple frames in a packet from stream 0
674Multiple frames in a packet from stream 0
675Multiple frames in a packet from stream 0
676Multiple frames in a packet from stream 0
677Multiple frames in a packet from stream 0
678Multiple frames in a packet from stream 0
679Multiple frames in a packet from stream 0
680Multiple frames in a packet from stream 0
681Multiple frames in a packet from stream 0
682Multiple frames in a packet from stream 0
683Multiple frames in a packet from stream 0
684Multiple frames in a packet from stream 0
685Multiple frames in a packet from stream 0
686Multiple frames in a packet from stream 0
687Multiple frames in a packet from stream 0
688Multiple frames in a packet from stream 0
689Multiple frames in a packet from stream 0
690Multiple frames in a packet from stream 0
691Multiple frames in a packet from stream 0
692Multiple frames in a packet from stream 0
693Multiple frames in a packet from stream 0
694Multiple frames in a packet from stream 0
695size=     455kB time=00:00:29.07 bitrate= 128.2kbits/s   
696Multiple frames in a packet from stream 0
697Multiple frames in a packet from stream 0
698Multiple frames in a packet from stream 0
699Multiple frames in a packet from stream 0
700Multiple frames in a packet from stream 0
701Multiple frames in a packet from stream 0
702Multiple frames in a packet from stream 0
703Multiple frames in a packet from stream 0
704Multiple frames in a packet from stream 0
705Multiple frames in a packet from stream 0
706Multiple frames in a packet from stream 0
707Multiple frames in a packet from stream 0
708Multiple frames in a packet from stream 0
709Multiple frames in a packet from stream 0
710Multiple frames in a packet from stream 0
711Multiple frames in a packet from stream 0
712Multiple frames in a packet from stream 0
713Multiple frames in a packet from stream 0
714Multiple frames in a packet from stream 0
715Multiple frames in a packet from stream 0
716Multiple frames in a packet from stream 0
717Multiple frames in a packet from stream 0
718Multiple frames in a packet from stream 0
719Multiple frames in a packet from stream 0
720Multiple frames in a packet from stream 0
721Multiple frames in a packet from stream 0
722Multiple frames in a packet from stream 0
723Multiple frames in a packet from stream 0
724Multiple frames in a packet from stream 0
725Multiple frames in a packet from stream 0
726Multiple frames in a packet from stream 0
727Multiple frames in a packet from stream 0
728Multiple frames in a packet from stream 0
729Multiple frames in a packet from stream 0
730Multiple frames in a packet from stream 0
731Multiple frames in a packet from stream 0
732Multiple frames in a packet from stream 0
733Multiple frames in a packet from stream 0
734Multiple frames in a packet from stream 0
735Multiple frames in a packet from stream 0
736Multiple frames in a packet from stream 0
737Multiple frames in a packet from stream 0
738Multiple frames in a packet from stream 0
739size=     490kB time=00:00:31.29 bitrate= 128.2kbits/s   
740video:0kB audio:489kB global headers:0kB muxing overhead 0.137404%