Ticket #1043: 2_pass_run_log.txt

File 2_pass_run_log.txt, 18.6 KB (added by puck, 4 years ago)
Line 
1ffmpeg version N-38892-g6cabb67 Copyright (c) 2000-2012 the FFmpeg developers
2  built on Mar 31 2012 09:49:44 with gcc 4.6.2
3  configuration: --pkg-config=pkg-config --prefix=/home/mark/software/packages/w
4in32 --enable-memalign-hack --arch=x86 --target-os=mingw32 --cross-prefix=i686-w
564-mingw32- --enable-libfaac --enable-libx264 --enable-gpl --enable-nonfree --di
6sable-w32threads
7  libavutil      51. 42.100 / 51. 42.100
8  libavcodec     54. 11.100 / 54. 11.100
9  libavformat    54.  2.100 / 54.  2.100
10  libavdevice    53.  4.100 / 53.  4.100
11  libavfilter     2. 65.101 /  2. 65.101
12  libswscale      2.  1.100 /  2.  1.100
13  libswresample   0.  7.100 /  0.  7.100
14  libpostproc    52.  0.100 / 52.  0.100
15[h264 @ 02274120] non-existing PPS referenced
16[h264 @ 02274120] non-existing PPS 0 referenced
17[h264 @ 02274120] decode_slice_header error
18[h264 @ 02274120] no frame!
19[h264 @ 02274120] non-existing PPS referenced
20[h264 @ 02274120] non-existing PPS 0 referenced
21[h264 @ 02274120] decode_slice_header error
22[h264 @ 02274120] no frame!
23[h264 @ 02274120] non-existing PPS referenced
24[h264 @ 02274120] non-existing PPS 0 referenced
25[h264 @ 02274120] decode_slice_header error
26[h264 @ 02274120] no frame!
27[h264 @ 02274120] non-existing PPS referenced
28[h264 @ 02274120] non-existing PPS 0 referenced
29[h264 @ 02274120] decode_slice_header error
30[h264 @ 02274120] no frame!
31[h264 @ 02274120] non-existing PPS referenced
32[h264 @ 02274120] non-existing PPS 0 referenced
33[h264 @ 02274120] decode_slice_header error
34[h264 @ 02274120] no frame!
35[h264 @ 02274120] non-existing PPS referenced
36[h264 @ 02274120] non-existing PPS 0 referenced
37[h264 @ 02274120] decode_slice_header error
38[h264 @ 02274120] no frame!
39[h264 @ 02274120] non-existing PPS referenced
40[h264 @ 02274120] non-existing PPS 0 referenced
41[h264 @ 02274120] decode_slice_header error
42[h264 @ 02274120] no frame!
43[h264 @ 02274120] non-existing PPS referenced
44[h264 @ 02274120] non-existing PPS 0 referenced
45[h264 @ 02274120] decode_slice_header error
46[h264 @ 02274120] no frame!
47[h264 @ 02274120] non-existing PPS referenced
48[h264 @ 02274120] non-existing PPS 0 referenced
49[h264 @ 02274120] decode_slice_header error
50[h264 @ 02274120] no frame!
51[h264 @ 02274120] non-existing PPS referenced
52[h264 @ 02274120] non-existing PPS 0 referenced
53[h264 @ 02274120] decode_slice_header error
54[h264 @ 02274120] no frame!
55[h264 @ 02274120] non-existing PPS referenced
56[h264 @ 02274120] non-existing PPS 0 referenced
57[h264 @ 02274120] decode_slice_header error
58[h264 @ 02274120] no frame!
59[h264 @ 02274120] non-existing PPS referenced
60[h264 @ 02274120] non-existing PPS 0 referenced
61[h264 @ 02274120] decode_slice_header error
62[h264 @ 02274120] no frame!
63[h264 @ 02274120] non-existing PPS referenced
64[h264 @ 02274120] non-existing PPS 0 referenced
65[h264 @ 02274120] decode_slice_header error
66[h264 @ 02274120] no frame!
67[h264 @ 02274120] non-existing PPS referenced
68[h264 @ 02274120] non-existing PPS 0 referenced
69[h264 @ 02274120] decode_slice_header error
70[h264 @ 02274120] no frame!
71[h264 @ 02274120] non-existing PPS referenced
72[h264 @ 02274120] non-existing PPS 0 referenced
73[h264 @ 02274120] decode_slice_header error
74[h264 @ 02274120] no frame!
75[h264 @ 02274120] non-existing PPS referenced
76[h264 @ 02274120] non-existing PPS 0 referenced
77[h264 @ 02274120] decode_slice_header error
78[h264 @ 02274120] no frame!
79[h264 @ 02274120] non-existing PPS referenced
80[h264 @ 02274120] non-existing PPS 0 referenced
81[h264 @ 02274120] decode_slice_header error
82[h264 @ 02274120] no frame!
83[h264 @ 02274120] non-existing PPS referenced
84[h264 @ 02274120] non-existing PPS 0 referenced
85[h264 @ 02274120] decode_slice_header error
86[h264 @ 02274120] no frame!
87[h264 @ 02274120] non-existing PPS referenced
88[h264 @ 02274120] non-existing PPS 0 referenced
89[h264 @ 02274120] decode_slice_header error
90[h264 @ 02274120] no frame!
91[h264 @ 02274120] non-existing PPS referenced
92[h264 @ 02274120] non-existing PPS 0 referenced
93[h264 @ 02274120] decode_slice_header error
94[h264 @ 02274120] no frame!
95[h264 @ 02274120] non-existing PPS referenced
96[h264 @ 02274120] non-existing PPS 0 referenced
97[h264 @ 02274120] decode_slice_header error
98[h264 @ 02274120] no frame!
99[h264 @ 02274120] non-existing PPS referenced
100[h264 @ 02274120] non-existing PPS 0 referenced
101[h264 @ 02274120] decode_slice_header error
102[h264 @ 02274120] no frame!
103[h264 @ 02274120] non-existing PPS referenced
104[h264 @ 02274120] non-existing PPS 0 referenced
105[h264 @ 02274120] decode_slice_header error
106[h264 @ 02274120] no frame!
107[h264 @ 02274120] Increasing reorder buffer to 1
108[mpegts @ 0226ba20] max_analyze_duration 5000000 reached at 5013333
109Input #0, mpegts, from 'D:\Test\0007.ts':
110  Duration: 00:01:33.15, start: 687.664089, bitrate: 2881 kb/s
111  Program 1
112    Stream #0:0[0x44](eng): Video: h264 (Main) ([27][0][0][0] / 0x001B), yuv420p
113, 720x576 [SAR 1:1 DAR 5:4], 30.39 fps, 25 tbr, 90k tbn, 50 tbc
114    Stream #0:1[0x45](eng): Audio: aac ([15][0][0][0] / 0x000F), 48000 Hz, stere
115o, s16, 96 kb/s
116[buffer @ 02274560] w:720 h:576 pixfmt:yuv420p tb:1/1000000 sar:1/1 sws_param:
117[yadif @ 0233fc80] mode:0 parity:-1 auto_enable:0
118[crop @ 02e49520] w:720 h:576 sar:1/1 -> w:720 h:572 sar:1/1
119[pad @ 02e496c0] w:720 h:572 -> w:720 h:576 x:0 y:0 color:0x108080FF[yuva]
120[scale @ 003ee6c0] w:720 h:576 fmt:yuv420p sar:1/1 -> w:720 h:576 fmt:yuv420p sa
121r:1/1 flags:0x4
122Incompatible sample format 's16' for codec 'ac3', auto-selecting format 'flt'
123[ac3 @ 0276ab00] channel_layout not specified
124[ac3 @ 0276ab00] No channel layout specified. The encoder will guess the layout,
125 but it might be incorrect.
126Output #0, dvd, to 'nul.mpg':
127  Metadata:
128    encoder         : Lavf54.2.100
129    Stream #0:0(eng): Video: mpeg2video, yuv420p, 720x576 [SAR 64:45 DAR 16:9],
130q=2-31, pass 1, 6000 kb/s, 90k tbn, 25 tbc
131    Stream #0:1(eng): Audio: ac3, 48000 Hz, stereo, flt, 256 kb/s
132Stream mapping:
133  Stream #0:0 -> #0:0 (h264 -> mpeg2video)
134  Stream #0:1 -> #0:1 (aac -> ac3)
135Press [q] to stop, [?] for help
136[h264 @ 02c2ffa0] Missing reference picture
137[h264 @ 02c2ffa0] decode_slice_header error
138[h264 @ 02c2ffa0] concealing 1620 DC, 1620 AC, 1620 MV errors
139[h264 @ 02e059e0] Missing reference picture
140[h264 @ 02e059e0] decode_slice_header error
141[h264 @ 02e059e0] concealing 1620 DC, 1620 AC, 1620 MV errors
142[h264 @ 022e4740] Missing reference picture
143[h264 @ 022e4740] decode_slice_header error
144[h264 @ 022e4740] concealing 1620 DC, 1620 AC, 1620 MV errors
145[h264 @ 0233d2a0] Missing reference picture
146[h264 @ 02e059e0] Missing reference picture
147frame=   84 fps=0.0 q=3.1 size=       0kB time=00:00:03.28 bitrate=   0.0kbits/s
148frame=  166 fps=161 q=2.0 size=       0kB time=00:00:06.56 bitrate=   0.0kbits/s
149frame=  252 fps=163 q=2.0 size=       0kB time=00:00:10.00 bitrate=   0.0kbits/s
150frame=  327 fps=159 q=2.0 size=       0kB time=00:00:13.00 bitrate=   0.0kbits/s
151frame=  389 fps=151 q=4.4 size=       0kB time=00:00:15.48 bitrate=   0.0kbits/s
152frame=  469 fps=152 q=3.0 size=       0kB time=00:00:18.68 bitrate=   0.0kbits/s
153frame=  553 fps=153 q=2.0 size=       0kB time=00:00:22.04 bitrate=   0.0kbits/s
154frame=  636 fps=154 q=2.0 size=       0kB time=00:00:25.36 bitrate=   0.0kbits/s
155frame=  713 fps=154 q=2.0 size=       0kB time=00:00:28.44 bitrate=   0.0kbits/s
156frame=  798 fps=155 q=2.0 size=       0kB time=00:00:31.84 bitrate=   0.0kbits/s
157frame=  877 fps=155 q=2.0 size=       0kB time=00:00:35.00 bitrate=   0.0kbits/s
158frame=  957 fps=155 q=2.0 size=       0kB time=00:00:38.20 bitrate=   0.0kbits/s
159frame= 1033 fps=154 q=2.0 size=       0kB time=00:00:41.24 bitrate=   0.0kbits/s
160frame= 1116 fps=155 q=2.0 size=       0kB time=00:00:44.56 bitrate=   0.0kbits/s
161frame= 1193 fps=154 q=1.6 size=       0kB time=00:00:47.64 bitrate=   0.0kbits/s
162frame= 1271 fps=154 q=2.0 size=       0kB time=00:00:50.76 bitrate=   0.0kbits/s
163frame= 1354 fps=154 q=2.0 size=       0kB time=00:00:54.08 bitrate=   0.0kbits/s
164frame= 1439 fps=155 q=2.0 size=       0kB time=00:00:57.48 bitrate=   0.0kbits/s
165frame= 1518 fps=155 q=2.0 size=       0kB time=00:01:00.64 bitrate=   0.0kbits/s
166frame= 1600 fps=155 q=2.0 size=       0kB time=00:01:03.92 bitrate=   0.0kbits/s
167frame= 1671 fps=154 q=1.6 size=       0kB time=00:01:06.76 bitrate=   0.0kbits/s
168frame= 1753 fps=155 q=2.0 size=       0kB time=00:01:10.04 bitrate=   0.0kbits/s
169frame= 1823 fps=154 q=2.0 size=       0kB time=00:01:12.84 bitrate=   0.0kbits/s
170frame= 1906 fps=154 q=2.0 size=       0kB time=00:01:16.16 bitrate=   0.0kbits/s
171frame= 1981 fps=154 q=2.0 size=       0kB time=00:01:19.16 bitrate=   0.0kbits/s
172frame= 2062 fps=154 q=2.0 size=       0kB time=00:01:22.40 bitrate=   0.0kbits/s
173frame= 2139 fps=154 q=2.0 size=       0kB time=00:01:25.48 bitrate=   0.0kbits/s
174frame= 2221 fps=154 q=2.0 size=       0kB time=00:01:28.76 bitrate=   0.0kbits/s
175frame= 2291 fps=153 q=2.0 size=       0kB time=00:01:31.56 bitrate=   0.0kbits/s
176error while decoding MB 20 2, bytestream (-20)
177[h264 @ 02e059e0] concealing 1559 DC, 1559 AC, 1559 MV errors
178frame= 2326 fps=154 q=2.0 Lsize=       0kB time=00:01:32.99 bitrate=   0.0kbits/
179s dup=24 drop=0
180video:53122kB audio:2906kB global headers:0kB muxing overhead -100.000000%
181====================================================================================================================
182Press any key to continue . . .
183====================================================================================================================
184ffmpeg version N-38892-g6cabb67 Copyright (c) 2000-2012 the FFmpeg developers
185  built on Mar 31 2012 09:49:44 with gcc 4.6.2
186  configuration: --pkg-config=pkg-config --prefix=/home/mark/software/packages/w
187in32 --enable-memalign-hack --arch=x86 --target-os=mingw32 --cross-prefix=i686-w
18864-mingw32- --enable-libfaac --enable-libx264 --enable-gpl --enable-nonfree --di
189sable-w32threads
190  libavutil      51. 42.100 / 51. 42.100
191  libavcodec     54. 11.100 / 54. 11.100
192  libavformat    54.  2.100 / 54.  2.100
193  libavdevice    53.  4.100 / 53.  4.100
194  libavfilter     2. 65.101 /  2. 65.101
195  libswscale      2.  1.100 /  2.  1.100
196  libswresample   0.  7.100 /  0.  7.100
197  libpostproc    52.  0.100 / 52.  0.100
198[h264 @ 023c4320] non-existing PPS referenced
199[h264 @ 023c4320] non-existing PPS 0 referenced
200[h264 @ 023c4320] decode_slice_header error
201[h264 @ 023c4320] no frame!
202[h264 @ 023c4320] non-existing PPS referenced
203[h264 @ 023c4320] non-existing PPS 0 referenced
204[h264 @ 023c4320] decode_slice_header error
205[h264 @ 023c4320] no frame!
206[h264 @ 023c4320] non-existing PPS referenced
207[h264 @ 023c4320] non-existing PPS 0 referenced
208[h264 @ 023c4320] decode_slice_header error
209[h264 @ 023c4320] no frame!
210[h264 @ 023c4320] non-existing PPS referenced
211[h264 @ 023c4320] non-existing PPS 0 referenced
212[h264 @ 023c4320] decode_slice_header error
213[h264 @ 023c4320] no frame!
214[h264 @ 023c4320] non-existing PPS referenced
215[h264 @ 023c4320] non-existing PPS 0 referenced
216[h264 @ 023c4320] decode_slice_header error
217[h264 @ 023c4320] no frame!
218[h264 @ 023c4320] non-existing PPS referenced
219[h264 @ 023c4320] non-existing PPS 0 referenced
220[h264 @ 023c4320] decode_slice_header error
221[h264 @ 023c4320] no frame!
222[h264 @ 023c4320] non-existing PPS referenced
223[h264 @ 023c4320] non-existing PPS 0 referenced
224[h264 @ 023c4320] decode_slice_header error
225[h264 @ 023c4320] no frame!
226[h264 @ 023c4320] non-existing PPS referenced
227[h264 @ 023c4320] non-existing PPS 0 referenced
228[h264 @ 023c4320] decode_slice_header error
229[h264 @ 023c4320] no frame!
230[h264 @ 023c4320] non-existing PPS referenced
231[h264 @ 023c4320] non-existing PPS 0 referenced
232[h264 @ 023c4320] decode_slice_header error
233[h264 @ 023c4320] no frame!
234[h264 @ 023c4320] non-existing PPS referenced
235[h264 @ 023c4320] non-existing PPS 0 referenced
236[h264 @ 023c4320] decode_slice_header error
237[h264 @ 023c4320] no frame!
238[h264 @ 023c4320] non-existing PPS referenced
239[h264 @ 023c4320] non-existing PPS 0 referenced
240[h264 @ 023c4320] decode_slice_header error
241[h264 @ 023c4320] no frame!
242[h264 @ 023c4320] non-existing PPS referenced
243[h264 @ 023c4320] non-existing PPS 0 referenced
244[h264 @ 023c4320] decode_slice_header error
245[h264 @ 023c4320] no frame!
246[h264 @ 023c4320] non-existing PPS referenced
247[h264 @ 023c4320] non-existing PPS 0 referenced
248[h264 @ 023c4320] decode_slice_header error
249[h264 @ 023c4320] no frame!
250[h264 @ 023c4320] non-existing PPS referenced
251[h264 @ 023c4320] non-existing PPS 0 referenced
252[h264 @ 023c4320] decode_slice_header error
253[h264 @ 023c4320] no frame!
254[h264 @ 023c4320] non-existing PPS referenced
255[h264 @ 023c4320] non-existing PPS 0 referenced
256[h264 @ 023c4320] decode_slice_header error
257[h264 @ 023c4320] no frame!
258[h264 @ 023c4320] non-existing PPS referenced
259[h264 @ 023c4320] non-existing PPS 0 referenced
260[h264 @ 023c4320] decode_slice_header error
261[h264 @ 023c4320] no frame!
262[h264 @ 023c4320] non-existing PPS referenced
263[h264 @ 023c4320] non-existing PPS 0 referenced
264[h264 @ 023c4320] decode_slice_header error
265[h264 @ 023c4320] no frame!
266[h264 @ 023c4320] non-existing PPS referenced
267[h264 @ 023c4320] non-existing PPS 0 referenced
268[h264 @ 023c4320] decode_slice_header error
269[h264 @ 023c4320] no frame!
270[h264 @ 023c4320] non-existing PPS referenced
271[h264 @ 023c4320] non-existing PPS 0 referenced
272[h264 @ 023c4320] decode_slice_header error
273[h264 @ 023c4320] no frame!
274[h264 @ 023c4320] non-existing PPS referenced
275[h264 @ 023c4320] non-existing PPS 0 referenced
276[h264 @ 023c4320] decode_slice_header error
277[h264 @ 023c4320] no frame!
278[h264 @ 023c4320] non-existing PPS referenced
279[h264 @ 023c4320] non-existing PPS 0 referenced
280[h264 @ 023c4320] decode_slice_header error
281[h264 @ 023c4320] no frame!
282[h264 @ 023c4320] non-existing PPS referenced
283[h264 @ 023c4320] non-existing PPS 0 referenced
284[h264 @ 023c4320] decode_slice_header error
285[h264 @ 023c4320] no frame!
286[h264 @ 023c4320] non-existing PPS referenced
287[h264 @ 023c4320] non-existing PPS 0 referenced
288[h264 @ 023c4320] decode_slice_header error
289[h264 @ 023c4320] no frame!
290[h264 @ 023c4320] Increasing reorder buffer to 1
291[mpegts @ 023bba40] max_analyze_duration 5000000 reached at 5013333
292Input #0, mpegts, from 'D:\Test\0007.ts':
293  Duration: 00:01:33.15, start: 687.664089, bitrate: 2881 kb/s
294  Program 1
295    Stream #0:0[0x44](eng): Video: h264 (Main) ([27][0][0][0] / 0x001B), yuv420p
296, 720x576 [SAR 1:1 DAR 5:4], 30.39 fps, 25 tbr, 90k tbn, 50 tbc
297    Stream #0:1[0x45](eng): Audio: aac ([15][0][0][0] / 0x000F), 48000 Hz, stere
298o, s16, 96 kb/s
299[buffer @ 023dce60] w:720 h:576 pixfmt:yuv420p tb:1/1000000 sar:1/1 sws_param:
300[yadif @ 02d91d80] mode:0 parity:-1 auto_enable:0
301[crop @ 023d6b00] w:720 h:576 sar:1/1 -> w:720 h:572 sar:1/1
302[pad @ 023c3e00] w:720 h:572 -> w:720 h:576 x:0 y:0 color:0x108080FF[yuva]
303[scale @ 02d91a20] w:720 h:576 fmt:yuv420p sar:1/1 -> w:720 h:576 fmt:yuv420p sa
304r:1/1 flags:0x4
305Incompatible sample format 's16' for codec 'ac3', auto-selecting format 'flt'
306[mpeg2video @ 03110b80] [lavc rc] Using all of requested bitrate is not necessar
307y for this video with these parameters.
308[ac3 @ 03199200] channel_layout not specified
309[ac3 @ 03199200] No channel layout specified. The encoder will guess the layout,
310 but it might be incorrect.
311Output #0, dvd, to 'D:\Test\0007 [31-3-2012 A V Input to MPG].mpg':
312  Metadata:
313    encoder         : Lavf54.2.100
314    Stream #0:0(eng): Video: mpeg2video, yuv420p, 720x576 [SAR 64:45 DAR 16:9],
315q=2-31, pass 2, 6000 kb/s, 90k tbn, 25 tbc
316    Stream #0:1(eng): Audio: ac3, 48000 Hz, stereo, flt, 256 kb/s
317Stream mapping:
318  Stream #0:0 -> #0:0 (h264 -> mpeg2video)
319  Stream #0:1 -> #0:1 (aac -> ac3)
320Press [q] to stop, [?] for help
321[h264 @ 02a82ec0] Missing reference picture
322[h264 @ 02a82ec0] decode_slice_header error
323[h264 @ 02a82ec0] concealing 1620 DC, 1620 AC, 1620 MV errors
324[h264 @ 02421280] Missing reference picture
325[h264 @ 02421280] decode_slice_header error
326[h264 @ 02421280] concealing 1620 DC, 1620 AC, 1620 MV errors
327[h264 @ 02478fe0] Missing reference picture
328[h264 @ 02478fe0] decode_slice_header error
329[h264 @ 02478fe0] concealing 1620 DC, 1620 AC, 1620 MV errors
330[h264 @ 02ee4760] Missing reference picture
331[h264 @ 02421280] Missing reference picture
332frame=   79 fps=0.0 q=2.0 size=    2700kB time=00:00:03.08 bitrate=7181.3kbits/s
333frame=  157 fps=152 q=2.0 size=    5230kB time=00:00:06.20 bitrate=6910.3kbits/s
334frame=  245 fps=159 q=2.0 size=    7050kB time=00:00:09.72 bitrate=5941.7kbits/s
335frame=  325 fps=158 q=2.0 size=   10060kB time=00:00:12.92 bitrate=6378.6kbits/s
336frame=  395 fps=153 q=4.5 size=   13280kB time=00:00:15.72 bitrate=6920.5kbits/s
337frame=  460 fps=149 q=2.0 size=   16250kB time=00:00:18.32 bitrate=7266.4kbits/s
338frame=  543 fps=151 q=2.0 size=   18858kB time=00:00:21.64 bitrate=7138.9kbits/s
339frame=  629 fps=153 q=2.0 size=   20906kB time=00:00:25.08 bitrate=6828.6kbits/s
340frame=  712 fps=154 q=2.0 size=   22980kB time=00:00:28.40 bitrate=6628.6kbits/s
341frame=  797 fps=155 q=2.0 size=   25182kB time=00:00:31.80 bitrate=6487.1kbits/s
342frame=  880 fps=155 q=2.0 size=   27644kB time=00:00:35.12 bitrate=6448.2kbits/s
343frame=  963 fps=156 q=2.0 size=   29298kB time=00:00:38.44 bitrate=6243.7kbits/s
344frame= 1046 fps=156 q=2.0 size=   31280kB time=00:00:41.76 bitrate=6136.2kbits/s
345frame= 1130 fps=157 q=1.6 size=   33052kB time=00:00:45.12 bitrate=6000.9kbits/s
346frame= 1213 fps=157 q=2.0 size=   34802kB time=00:00:48.44 bitrate=5885.6kbits/s
347frame= 1298 fps=158 q=2.0 size=   36404kB time=00:00:51.84 bitrate=5752.7kbits/s
348frame= 1385 fps=158 q=2.0 size=   38528kB time=00:00:55.32 bitrate=5705.4kbits/s
349frame= 1468 fps=158 q=1.6 size=   40402kB time=00:00:58.64 bitrate=5644.2kbits/s
350frame= 1551 fps=159 q=2.0 size=   42042kB time=00:01:01.96 bitrate=5558.6kbits/s
351frame= 1636 fps=159 q=2.0 size=   43722kB time=00:01:05.36 bitrate=5480.0kbits/s
352frame= 1720 fps=159 q=2.0 size=   45288kB time=00:01:08.72 bitrate=5398.7kbits/s
353frame= 1801 fps=159 q=2.0 size=   47130kB time=00:01:11.96 bitrate=5365.3kbits/s
354frame= 1884 fps=159 q=1.6 size=   48794kB time=00:01:15.28 bitrate=5309.8kbits/s
355frame= 1967 fps=159 q=2.0 size=   50466kB time=00:01:18.60 bitrate=5259.8kbits/s
356frame= 2044 fps=159 q=2.0 size=   52404kB time=00:01:21.68 bitrate=5255.8kbits/s
357frame= 2123 fps=159 q=2.0 size=   54202kB time=00:01:24.84 bitrate=5233.6kbits/s
358frame= 2206 fps=159 q=2.0 size=   56322kB time=00:01:28.16 bitrate=5233.6kbits/s
359frame= 2289 fps=159 q=2.0 size=   58432kB time=00:01:31.48 bitrate=5232.6kbits/s
360error while decoding MB 20 2, bytestream (-20)
361[h264 @ 02421280] concealing 1559 DC, 1559 AC, 1559 MV errors
362frame= 2326 fps=159 q=2.0 Lsize=   59362kB time=00:01:32.99 bitrate=5229.4kbits/
363s dup=24 drop=0
364video:55264kB audio:2906kB global headers:0kB muxing overhead 2.049377%
365Press any key to continue . . .