Ticket #1010: ffmpeg_log.txt

File ffmpeg_log.txt, 18.5 KB (added by lost1, 4 years ago)
Line 
1D:\Downloads\Programme\Multimedia\ffmpeg\bin>ffmpeg -loglevel debug -i "rtsp://server.com/my_stream.sdp" -s 720x576 -vcodec copy -acodec copy
2-y output.mov
3ffmpeg version N-37915-g6cb2085 Copyright (c) 2000-2012 the FFmpeg developers
4  built on Feb 15 2012 20:52:28 with gcc 4.6.2
5  configuration: --enable-gpl --enable-version3 --disable-w32threads --enable-ru
6ntime-cpudetect --enable-avisynth --enable-bzlib --enable-frei0r --enable-libope
7ncore-amrnb --enable-libopencore-amrwb --enable-libfreetype --enable-libgsm --en
8able-libmp3lame --enable-libopenjpeg --enable-librtmp --enable-libschroedinger -
9-enable-libspeex --enable-libtheora --enable-libvo-aacenc --enable-libvo-amrwben
10c --enable-libvorbis --enable-libvpx --enable-libx264 --enable-libxavs --enable-
11libxvid --enable-zlib
12  libavutil      51. 39.100 / 51. 39.100
13  libavcodec     54.  3.100 / 54.  3.100
14  libavformat    54.  1.100 / 54.  1.100
15  libavdevice    53.  4.100 / 53.  4.100
16  libavfilter     2. 62.100 /  2. 62.100
17  libswscale      2.  1.100 /  2.  1.100
18  libswresample   0.  6.100 /  0.  6.100
19  libpostproc    52.  0.100 / 52.  0.100
20[rtsp @ 0000000001D3F540] SDP:
21v=0
22o=- 856459708 856459708 IN IP4 127.0.0.0
23s=QuickTime
24c=IN IP4 0.0.0.0
25t=0 0
26a=range:npt=now-
27a=control:*
28m=audio 0 RTP/AVP 96
29a=3GPP-Adaptation-Support:1
30a=rtpmap:96 mpeg4-generic/44100/1
31a=fmtp:96 profile-level-id=15;mode=AAC-hbr;sizelength=13;indexlength=3;indexdelt
32alength=3;config=1208
33a=control:trackID=1
34m=video 0 RTP/AVP 97
35a=3GPP-Adaptation-Support:1
36a=rtpmap:97 H264/90000
37a=fmtp:97 packetization-mode=1;profile-level-id=4D401F;sprop-parameter-sets=J01A
38H6kYFoJNgDUGAQa2wrXvfAQ=,KN4JyA==
39a=cliprect:0,0,576,720
40a=framesize:97 720-576
41b=AS:1300
42a=control:trackID=2
43
44[rtsp @ 0000000001D3F540] audio codec set to: aac
45[rtsp @ 0000000001D3F540] audio samplerate set to: 44100
46[rtsp @ 0000000001D3F540] audio channels set to: 1
47[rtsp @ 0000000001D3F540] video codec set to: h264
48[NULL @ 0000000001C788B0] RTP Packetization Mode: 1
49[NULL @ 0000000001C788B0] RTP Profile IDC: 4d Profile IOP: 40 Level: 1f
50[NULL @ 0000000001C788B0] Extradata set to 0000000001C78D90 (size: 32)!hello sta
51te=0
52[h264 @ 0000000001C788B0] Missing reference picture
53[h264 @ 0000000001C788B0] decode_slice_header error
54[h264 @ 0000000001C788B0] Missing reference picture
55[h264 @ 0000000001C788B0] decode_slice_header error
56[h264 @ 0000000001C788B0] Missing reference picture
57[h264 @ 0000000001C788B0] decode_slice_header error
58[h264 @ 0000000001C788B0] Missing reference picture
59[h264 @ 0000000001C788B0] decode_slice_header error
60[h264 @ 0000000001C788B0] Missing reference picture
61[h264 @ 0000000001C788B0] decode_slice_header error
62[h264 @ 0000000001C788B0] concealing 1620 DC, 1620 AC, 1620 MV errors
63[rtsp @ 0000000001D3F540] All info found
64[rtsp @ 0000000001D3F540] Estimating duration from bitrate, this may be inaccura
65te
66Input #0, rtsp, from 'rtsp://server/my_stream.sdp':
67  Metadata:
68    title           : QuickTime
69  Duration: N/A, start: 0.000000, bitrate: N/A
70    Stream #0:0, 7, 1/44100: Audio: aac, 44100 Hz, mono, s16
71    Stream #0:1, 22, 1/90000: Video: h264 (Main), yuv420p, 720x576, 1/180000, 30
72 tbr, 90k tbn, 180k tbc
73Output #0, mov, to 'output.mov':
74  Metadata:
75    title           : QuickTime
76    encoder         : Lavf54.1.100
77    Stream #0:0, 0, 1/90000: Video: h264 (avc1 / 0x31637661), yuv420p, 720x576,
781/90000, q=2-31, 90k tbn, 90k tbc
79    Stream #0:1, 0, 1/44100: Audio: aac (mp4a / 0x6134706D), 44100 Hz, mono
80Stream mapping:
81  Stream #0:1 -> #0:0 (copy)
82  Stream #0:0 -> #0:1 (copy)
83Press [q] to stop, [?] for help
84frame=  121 fps=  0 q=-1.0 size=     141kB time=00:00:04.01 bitrate= 287.3kbits/
85frame=  136 fps=127 q=-1.0 size=     212kB time=00:00:04.56 bitrate= 380.3kbits/
86frame=  152 fps= 97 q=-1.0 size=     224kB time=00:00:05.12 bitrate= 357.3kbits/
87frame=  168 fps= 80 q=-1.0 size=     233kB time=00:00:05.59 bitrate= 341.3kbits/
88frame=  182 fps= 70 q=-1.0 size=     244kB time=00:00:06.14 bitrate= 325.0kbits/
89frame=  198 fps= 64 q=-1.0 size=     253kB time=00:00:06.61 bitrate= 314.0kbits/
90frame=  213 fps= 59 q=-1.0 size=     265kB time=00:00:07.16 bitrate= 302.4kbits/
91frame=  228 fps= 56 q=-1.0 size=     274kB time=00:00:07.63 bitrate= 293.9kbits/
92frame=  243 fps= 53 q=-1.0 size=     346kB time=00:00:08.19 bitrate= 346.1kbits/
93frame=  260 fps= 50 q=-1.0 size=     355kB time=00:00:08.65 bitrate= 335.6kbits/
94frame=  275 fps= 48 q=-1.0 size=     366kB time=00:00:09.21 bitrate= 325.8kbits/
95frame=  291 fps= 47 q=-1.0 size=     376kB time=00:00:09.67 bitrate= 318.2kbits/
96frame=  306 fps= 46 q=-1.0 size=     448kB time=00:00:10.23 bitrate= 358.9kbits/
97frame=  321 fps= 44 q=-1.0 size=     460kB time=00:00:10.79 bitrate= 349.0kbits/
98frame=  338 fps= 44 q=-1.0 size=     469kB time=00:00:11.25 bitrate= 341.4kbits/
99frame=  352 fps= 43 q=-1.0 size=     480kB time=00:00:11.80 bitrate= 332.9kbits/
100frame=  369 fps= 42 q=-1.0 size=     489kB time=00:00:12.26 bitrate= 326.4kbits/
101frame=  383 fps= 41 q=-1.0 size=     500kB time=00:00:12.82 bitrate= 319.2kbits/
102frame=  399 fps= 41 q=-1.0 size=     510kB time=00:00:13.38 bitrate= 312.4kbits/
103frame=  415 fps= 40 q=-1.0 size=     519kB time=00:00:13.84 bitrate= 307.3kbits/
104frame=  430 fps= 40 q=-1.0 size=     591kB time=00:00:14.40 bitrate= 336.2kbits/
105frame=  447 fps= 39 q=-1.0 size=     601kB time=00:00:14.86 bitrate= 330.9kbits/
106frame=  461 fps= 39 q=-1.0 size=     613kB time=00:00:15.42 bitrate= 325.4kbits/
107frame=  477 fps= 38 q=-1.0 size=     623kB time=00:00:15.98 bitrate= 319.5kbits/
108frame=  494 fps= 38 q=-1.0 size=     634kB time=00:00:16.54 bitrate= 314.1kbits/
109frame=  510 fps= 38 q=-1.0 size=     643kB time=00:00:17.00 bitrate= 309.9kbits/
110frame=  525 fps= 37 q=-1.0 size=     654kB time=00:00:17.56 bitrate= 305.1kbits/
111frame=  541 fps= 37 q=-1.0 size=     663kB time=00:00:18.02 bitrate= 301.4kbits/
112frame=  557 fps= 37 q=-1.0 size=     734kB time=00:00:18.58 bitrate= 323.8kbits/
113frame=  572 fps= 37 q=-1.0 size=     746kB time=00:00:19.14 bitrate= 319.1kbits/
114frame=  588 fps= 36 q=-1.0 size=     755kB time=00:00:19.61 bitrate= 315.1kbits/
115frame=  603 fps= 36 q=-1.0 size=     827kB time=00:00:20.17 bitrate= 336.0kbits/
116frame=  618 fps= 36 q=-1.0 size=     841kB time=00:00:20.73 bitrate= 332.3kbits/
117frame=  634 fps= 36 q=-1.0 size=     851kB time=00:00:21.19 bitrate= 329.0kbits/
118frame=  649 fps= 36 q=-1.0 size=     864kB time=00:00:21.75 bitrate= 325.3kbits/
119frame=  665 fps= 36 q=-1.0 size=     896kB time=00:00:22.21 bitrate= 330.5kbits/
120frame=  680 fps= 35 q=-1.0 size=     950kB time=00:00:22.77 bitrate= 341.7kbits/
121frame=  696 fps= 35 q=-1.0 size=     966kB time=00:00:23.33 bitrate= 339.1kbits/
122frame=  713 fps= 35 q=-1.0 size=     980kB time=00:00:23.79 bitrate= 337.3kbits/
123frame=  728 fps= 35 q=-1.0 size=    1045kB time=00:00:24.35 bitrate= 351.4kbits/
124frame=  744 fps= 35 q=-1.0 size=    1054kB time=00:00:24.81 bitrate= 347.8kbits/
125frame=  759 fps= 35 q=-1.0 size=    1065kB time=00:00:25.37 bitrate= 343.7kbits/
126frame=  775 fps= 35 q=-1.0 size=    1074kB time=00:00:25.84 bitrate= 340.3kbits/
127frame=  791 fps= 35 q=-1.0 size=    1085kB time=00:00:26.39 bitrate= 336.7kbits/
128frame=  805 fps= 34 q=-1.0 size=    1094kB time=00:00:26.95 bitrate= 332.5kbits/
129frame=  822 fps= 34 q=-1.0 size=    1106kB time=00:00:27.42 bitrate= 330.6kbits/
130frame=  836 fps= 34 q=-1.0 size=    1160kB time=00:00:27.96 bitrate= 339.8kbits/
131frame=  852 fps= 34 q=-1.0 size=    1247kB time=00:00:28.43 bitrate= 359.2kbits/
132frame=  867 fps= 34 q=-1.0 size=    1260kB time=00:00:28.98 bitrate= 356.2kbits/
133frame=  883 fps= 34 q=-1.0 size=    1271kB time=00:00:29.45 bitrate= 353.5kbits/
134frame=  897 fps= 34 q=-1.0 size=    1283kB time=00:00:30.00 bitrate= 350.1kbits/
135frame=  914 fps= 34 q=-1.0 size=    1368kB time=00:00:30.47 bitrate= 367.6kbits/
136frame=  928 fps= 34 q=-1.0 size=    1381kB time=00:00:31.03 bitrate= 364.6kbits/
137frame=  944 fps= 34 q=-1.0 size=    1392kB time=00:00:31.58 bitrate= 361.1kbits/
138frame=  960 fps= 34 q=-1.0 size=    1404kB time=00:00:32.05 bitrate= 359.0kbits/
139frame=  975 fps= 34 q=-1.0 size=    1415kB time=00:00:32.51 bitrate= 356.6kbits/
140frame=  989 fps= 33 q=-1.0 size=    1430kB time=00:00:33.07 bitrate= 354.2kbits/
141frame= 1006 fps= 33 q=-1.0 size=    1440kB time=00:00:33.53 bitrate= 351.6kbits/
142frame= 1021 fps= 33 q=-1.0 size=    1449kB time=00:00:34.00 bitrate= 349.2kbits/
143frame= 1036 fps= 33 q=-1.0 size=    1540kB time=00:00:34.65 bitrate= 363.9kbits/
144frame= 1053 fps= 33 q=-1.0 size=    1550kB time=00:00:35.11 bitrate= 361.7kbits/
145frame= 1067 fps= 33 q=-1.0 size=    1583kB time=00:00:35.68 bitrate= 363.3kbits/
146frame= 1083 fps= 33 q=-1.0 size=    1593kB time=00:00:36.15 bitrate= 360.9kbits/
147frame= 1098 fps= 33 q=-1.0 size=    1604kB time=00:00:36.61 bitrate= 358.9kbits/
148frame= 1113 fps= 33 q=-1.0 size=    1614kB time=00:00:37.17 bitrate= 355.8kbits/
149frame= 1128 fps= 33 q=-1.0 size=    1635kB time=00:00:37.73 bitrate= 355.0kbits/
150frame= 1146 fps= 33 q=-1.0 size=    1678kB time=00:00:38.19 bitrate= 359.8kbits/
151frame= 1162 fps= 33 q=-1.0 size=    1687kB time=00:00:38.75 bitrate= 356.5kbits/
152frame= 1177 fps= 33 q=-1.0 size=    1744kB time=00:00:39.30 bitrate= 363.5kbits/
153frame= 1192 fps= 33 q=-1.0 size=    1865kB time=00:00:39.86 bitrate= 383.2kbits/
154frame= 1209 fps= 33 q=-1.0 size=    2048kB time=00:00:40.33 bitrate= 416.1kbits/
155frame= 1223 fps= 33 q=-1.0 size=    2096kB time=00:00:40.88 bitrate= 420.0kbits/
156frame= 1240 fps= 33 q=-1.0 size=    2120kB time=00:00:41.35 bitrate= 419.9kbits/
157frame= 1254 fps= 33 q=-1.0 size=    2147kB time=00:00:41.90 bitrate= 419.7kbits/
158frame= 1270 fps= 33 q=-1.0 size=    2172kB time=00:00:42.46 bitrate= 418.9kbits/
159frame= 1287 fps= 33 q=-1.0 size=    2247kB time=00:00:42.93 bitrate= 428.7kbits/
160frame= 1303 fps= 33 q=-1.0 size=    2351kB time=00:00:43.48 bitrate= 442.8kbits/
161frame= 1318 fps= 33 q=-1.0 size=    2392kB time=00:00:43.94 bitrate= 445.9kbits/
162frame= 1332 fps= 33 q=-1.0 size=    2513kB time=00:00:44.49 bitrate= 462.5kbits/
163frame= 1349 fps= 33 q=-1.0 size=    2591kB time=00:00:44.96 bitrate= 472.0kbits/
164frame= 1365 fps= 32 q=-1.0 size=    2661kB time=00:00:45.52 bitrate= 478.9kbits/
165frame= 1380 fps= 32 q=-1.0 size=    2737kB time=00:00:46.07 bitrate= 486.6kbits/
166frame= 1396 fps= 32 q=-1.0 size=    2804kB time=00:00:46.54 bitrate= 493.6kbits/
167frame= 1410 fps= 32 q=-1.0 size=    2849kB time=00:00:47.10 bitrate= 495.5kbits/
168frame= 1426 fps= 32 q=-1.0 size=    2871kB time=00:00:47.56 bitrate= 494.5kbits/
169frame= 1441 fps= 32 q=-1.0 size=    2941kB time=00:00:48.02 bitrate= 501.6kbits/
170frame= 1457 fps= 32 q=-1.0 size=    3071kB time=00:00:48.58 bitrate= 517.8kbits/
171frame= 1473 fps= 32 q=-1.0 size=    3164kB time=00:00:49.14 bitrate= 527.4kbits/
172frame= 1488 fps= 32 q=-1.0 size=    3206kB time=00:00:49.60 bitrate= 529.5kbits/
173frame= 1503 fps= 32 q=-1.0 size=    3231kB time=00:00:50.16 bitrate= 527.6kbits/
174frame= 1519 fps= 32 q=-1.0 size=    3304kB time=00:00:50.63 bitrate= 534.6kbits/
175frame= 1534 fps= 32 q=-1.0 size=    3336kB time=00:00:51.18 bitrate= 533.8kbits/
176frame= 1549 fps= 32 q=-1.0 size=    3487kB time=00:00:51.75 bitrate= 551.9kbits/
177frame= 1566 fps= 32 q=-1.0 size=    3610kB time=00:00:52.22 bitrate= 566.3kbits/
178frame= 1581 fps= 32 q=-1.0 size=    3750kB time=00:00:52.77 bitrate= 582.1kbits/
179frame= 1596 fps= 32 q=-1.0 size=    3881kB time=00:00:53.33 bitrate= 596.1kbits/
180frame= 1612 fps= 32 q=-1.0 size=    3968kB time=00:00:53.80 bitrate= 604.2kbits/
181frame= 1627 fps= 32 q=-1.0 size=    4099kB time=00:00:54.35 bitrate= 617.7kbits/
182frame= 1644 fps= 32 q=-1.0 size=    4193kB time=00:00:54.82 bitrate= 626.6kbits/
183frame= 1659 fps= 32 q=-1.0 size=    4283kB time=00:00:55.37 bitrate= 633.6kbits/
184frame= 1675 fps= 32 q=-1.0 size=    4379kB time=00:00:55.84 bitrate= 642.3kbits/
185frame= 1690 fps= 32 q=-1.0 size=    4467kB time=00:00:56.40 bitrate= 648.8kbits/
186frame= 1705 fps= 32 q=-1.0 size=    4575kB time=00:00:56.95 bitrate= 658.0kbits/
187frame= 1721 fps= 32 q=-1.0 size=    4663kB time=00:00:57.42 bitrate= 665.3kbits/
188frame= 1736 fps= 32 q=-1.0 size=    4760kB time=00:00:57.98 bitrate= 672.5kbits/
189frame= 1752 fps= 32 q=-1.0 size=    4867kB time=00:00:58.44 bitrate= 682.2kbits/
190frame= 1767 fps= 32 q=-1.0 size=    4944kB time=00:00:58.90 bitrate= 687.5kbits/
191frame= 1783 fps= 32 q=-1.0 size=    5036kB time=00:00:59.46 bitrate= 693.8kbits/
192frame= 1797 fps= 32 q=-1.0 size=    5136kB time=00:01:00.01 bitrate= 701.0kbits/
193frame= 1813 fps= 32 q=-1.0 size=    5243kB time=00:01:00.47 bitrate= 710.2kbits/
194frame= 1828 fps= 32 q=-1.0 size=    5348kB time=00:01:01.03 bitrate= 717.8kbits/
195frame= 1844 fps= 32 q=-1.0 size=    5438kB time=00:01:01.59 bitrate= 723.2kbits/
196frame= 1861 fps= 32 q=-1.0 size=    5515kB time=00:01:02.05 bitrate= 728.0kbits/
197frame= 1875 fps= 32 q=-1.0 size=    5607kB time=00:01:02.61 bitrate= 733.5kbits/
198frame= 1892 fps= 32 q=-1.0 size=    5686kB time=00:01:03.07 bitrate= 738.4kbits/
199frame= 1906 fps= 32 q=-1.0 size=    5776kB time=00:01:03.63 bitrate= 743.5kbits/
200frame= 1922 fps= 32 q=-1.0 size=    5853kB time=00:01:04.10 bitrate= 748.0kbits/
201frame= 1937 fps= 32 q=-1.0 size=    5959kB time=00:01:04.65 bitrate= 755.0kbits/
202frame= 1953 fps= 32 q=-1.0 size=    6044kB time=00:01:05.12 bitrate= 760.3kbits/
203frame= 1967 fps= 32 q=-1.0 size=    6136kB time=00:01:05.67 bitrate= 765.3kbits/
204frame= 1984 fps= 32 q=-1.0 size=    6216kB time=00:01:06.14 bitrate= 769.9kbits/
205frame= 1998 fps= 32 q=-1.0 size=    6301kB time=00:01:06.70 bitrate= 773.8kbits/
206frame= 2014 fps= 32 q=-1.0 size=    6420kB time=00:01:07.25 bitrate= 782.0kbits/
207frame= 2030 fps= 32 q=-1.0 size=    6495kB time=00:01:07.73 bitrate= 785.6kbits/
208frame= 2045 fps= 32 q=-1.0 size=    6602kB time=00:01:08.29 bitrate= 792.0kbits/
209frame= 2062 fps= 32 q=-1.0 size=    6671kB time=00:01:08.75 bitrate= 794.8kbits/
210frame= 2076 fps= 32 q=-1.0 size=    6770kB time=00:01:09.31 bitrate= 800.1kbits/
211frame= 2092 fps= 32 q=-1.0 size=    6890kB time=00:01:09.86 bitrate= 807.9kbits/
212frame= 2109 fps= 32 q=-1.0 size=    6997kB time=00:01:10.33 bitrate= 815.0kbits/
213frame= 2123 fps= 32 q=-1.0 size=    7100kB time=00:01:10.89 bitrate= 820.5kbits/
214frame= 2140 fps= 32 q=-1.0 size=    7170kB time=00:01:11.35 bitrate= 823.1kbits/
215frame= 2155 fps= 32 q=-1.0 size=    7260kB time=00:01:11.91 bitrate= 827.0kbits/
216frame= 2170 fps= 31 q=-1.0 size=    7346kB time=00:01:12.46 bitrate= 830.3kbits/
217frame= 2186 fps= 32 q=-1.0 size=    7413kB time=00:01:12.93 bitrate= 832.6kbits/
218frame= 2201 fps= 31 q=-1.0 size=    7499kB time=00:01:13.39 bitrate= 836.9kbits/
219frame= 2216 fps= 31 q=-1.0 size=    7592kB time=00:01:13.95 bitrate= 840.9kbits/
220frame= 2232 fps= 31 q=-1.0 size=    7677kB time=00:01:14.42 bitrate= 845.1kbits/
221frame= 2247 fps= 31 q=-1.0 size=    7758kB time=00:01:14.97 bitrate= 847.6kbits/
222frame= 2262 fps= 31 q=-1.0 size=    7836kB time=00:01:15.53 bitrate= 849.8kbits/
223frame= 2278 fps= 31 q=-1.0 size=    7903kB time=00:01:15.98 bitrate= 852.0kbits/
224frame= 2293 fps= 31 q=-1.0 size=    7963kB time=00:01:16.45 bitrate= 853.2kbits/
225frame= 2307 fps= 31 q=-1.0 size=    8044kB time=00:01:17.01 bitrate= 855.7kbits/
226frame= 2324 fps= 31 q=-1.0 size=    8114kB time=00:01:17.47 bitrate= 857.9kbits/
227frame= 2339 fps= 31 q=-1.0 size=    8201kB time=00:01:18.03 bitrate= 860.9kbits/
228frame= 2354 fps= 31 q=-1.0 size=    8318kB time=00:01:18.58 bitrate= 867.1kbits/
229frame= 2371 fps= 31 q=-1.0 size=    8396kB time=00:01:19.05 bitrate= 870.0kbits/
230frame= 2385 fps= 31 q=-1.0 size=    8486kB time=00:01:19.61 bitrate= 873.2kbits/
231frame= 2402 fps= 31 q=-1.0 size=    8555kB time=00:01:20.07 bitrate= 875.2kbits/
232frame= 2416 fps= 31 q=-1.0 size=    8663kB time=00:01:20.63 bitrate= 880.2kbits/
233frame= 2432 fps= 31 q=-1.0 size=    8747kB time=00:01:21.19 bitrate= 882.6kbits/
234frame= 2448 fps= 31 q=-1.0 size=    8820kB time=00:01:21.65 bitrate= 884.9kbits/
235frame= 2463 fps= 31 q=-1.0 size=    8882kB time=00:01:22.11 bitrate= 886.0kbits/
236frame= 2479 fps= 31 q=-1.0 size=    8973kB time=00:01:22.67 bitrate= 889.1kbits/
237frame= 2495 fps= 31 q=-1.0 size=    9047kB time=00:01:23.14 bitrate= 891.4kbits/
238frame= 2510 fps= 31 q=-1.0 size=    9144kB time=00:01:23.68 bitrate= 895.1kbits/
239frame= 2525 fps= 31 q=-1.0 size=    9261kB time=00:01:24.24 bitrate= 900.5kbits/
240frame= 2539 fps= 31 q=-1.0 size=    9348kB time=00:01:24.70 bitrate= 904.0kbits/
241frame= 2556 fps= 31 q=-1.0 size=    9436kB time=00:01:25.17 bitrate= 907.6kbits/
242frame= 2570 fps= 31 q=-1.0 size=    9553kB time=00:01:25.73 bitrate= 912.8kbits/
243frame= 2587 fps= 31 q=-1.0 size=    9638kB time=00:01:26.19 bitrate= 916.0kbits/
244frame= 2602 fps= 31 q=-1.0 size=    9763kB time=00:01:26.75 bitrate= 921.9kbits/
245frame= 2617 fps= 31 q=-1.0 size=    9847kB time=00:01:27.21 bitrate= 924.9kbits/
246frame= 2634 fps= 31 q=-1.0 size=    9952kB time=00:01:27.77 bitrate= 928.9kbits/
247frame= 2648 fps= 31 q=-1.0 size=   10057kB time=00:01:28.33 bitrate= 932.7kbits/
248frame= 2663 fps= 31 q=-1.0 size=   10135kB time=00:01:28.79 bitrate= 935.0kbits/
249frame= 2675 fps= 31 q=-1.0 size=   10271kB time=00:01:29.35 bitrate= 941.7kbits/
250frame= 2687 fps= 31 q=-1.0 size=   10370kB time=00:01:29.81 bitrate= 945.9kbits/
251frame= 2700 fps= 31 q=-1.0 size=   10503kB time=00:01:30.37 bitrate= 952.1kbits/
252frame= 2714 fps= 31 q=-1.0 size=   10663kB time=00:01:30.93 bitrate= 960.6kbits/
253frame= 2728 fps= 31 q=-1.0 size=   10759kB time=00:01:31.39 bitrate= 964.3kbits/
254frame= 2741 fps= 31 q=-1.0 size=   10866kB time=00:01:32.02 bitrate= 967.4kbits/
255frame= 2753 fps= 31 q=-1.0 size=   10959kB time=00:01:32.57 bitrate= 969.8kbits/
256frame= 2764 fps= 31 q=-1.0 size=   11037kB time=00:01:33.04 bitrate= 971.8kbits/
257frame= 2772 fps= 31 q=-1.0 size=   11150kB time=00:01:33.59 bitrate= 975.9kbits/
258frame= 2782 fps= 31 q=-1.0 size=   11245kB time=00:01:34.06 bitrate= 979.3kbits/
259frame= 2792 fps= 31 q=-1.0 size=   11403kB time=00:01:34.62 bitrate= 987.3kbits/
260frame= 2801 fps= 30 q=-1.0 size=   11471kB time=00:01:34.99 bitrate= 989.3kbits/
261frame= 2827 fps= 31 q=-1.0 size=   11617kB time=00:01:35.92 bitrate= 992.1kbits/
262frame= 2843 fps= 31 q=-1.0 size=   11717kB time=00:01:36.47 bitrate= 994.9kbits/
263frame= 2859 fps= 31 q=-1.0 size=   11800kB time=00:01:36.94 bitrate= 997.1kbits/
264frame= 2874 fps= 31 q=-1.0 size=   11894kB time=00:01:37.50 bitrate= 999.3kbits/
265frame= 2889 fps= 31 q=-1.0 size=   11984kB time=00:01:37.96 bitrate=1002.1kbits/
266frame= 2905 fps= 31 q=-1.0 size=   12077kB time=00:01:38.52 bitrate=1004.2kbits/
267frame= 2920 fps= 31 q=-1.0 size=   12187kB time=00:01:38.98 bitrate=1008.5kbits/
268frame= 2936 fps= 31 q=-1.0 size=   12291kB time=00:01:39.54 bitrate=1011.5kbits/
269DTS 8975954, next:99748378 st:1 invalid droping
270[mov @ 0000000004FAF2C0] pts < dts in stream 0
271av_interleaved_write_frame(): Invalid argument