Opened 6 days ago

Last modified 6 days ago

#7601 reopened defect

For containers with FFmpeg’s AAC implementation, ffprobe identifies the channel layout “5.1(side)” as “6 channels”

Reported by: Kdmeizk Owned by:
Priority: normal Component: undetermined
Version: unspecified Keywords:
Cc: Blocked By:
Blocking: Reproduced by developer: no
Analyzed by developer: no

Description

Versions:

  • 4.0.2
  • N-92574-g72b047a7a7

File creation – “EXTENSION” is to replace by a mentioned extension:
ffmpeg -i out_dts_side.dts -c:a aac out_aac_side.EXTENSION

out_dts_side.dts:
https://drive.google.com/file/d/1rZDCGqKV3Moq1c55C0xBQFvqEGl2sfnm/view?usp=sharing


[Non-exhaustive]
Concerned containers

  • 3GP2 (.3g2)
  • 3GP (.3gp)
  • ADTS AAC (.aac)
  • Flash Video (.f4v)
  • Matroska (.mkv)
  • MP4 (.mp4 / .m4a / .m4b / .m4v)
  • BDAV MPEG-TS (.mts / .m2ts)
  • MPEG-TS (.ts)

[Non-exhaustive]
Not concerned containers

Change History (3)

comment:1 follow-up: Changed 6 days ago by cehoyos

  • Resolution set to needs_more_info
  • Status changed from new to closed

This has currently no similarities with a valid ticket. Please test current FFmpeg git head, provide the command line you tested together with the complete, uncut console output and explain (in short sentences, not everyone is a native speaker) what is wrong with the output file.

comment:2 in reply to: ↑ 1 Changed 6 days ago by Kdmeizk

Replying to cehoyos:

what is wrong with the output file.

The subject should be sufficient to understand the problem.

Please test current FFmpeg git head, provide the command line you tested together with the complete, uncut console output

[Non-exhaustive] Concerned containers:

ffmpeg-20181202-72b047a-win64-static\bin\ffmpeg.exe -i out_dts_side.dts -c:a aac out_aac_side.3g2
ffmpeg version N-92574-g72b047a7a7 Copyright (c) 2000-2018 the FFmpeg developers
  built with gcc 8.2.1 (GCC) 20181201
  configuration: --enable-gpl --enable-version3 --enable-sdl2 --enable-fontconfig --enable-gnutls --enable-iconv --enable-libass --enable-libbluray --enable-libfreetype --enable-libmp3lame --enable-libopencore-amrnb --enable-libopencore-amrwb --enable-libopenjpeg --enable-libopus --enable-libshine --enable-libsnappy --enable-libsoxr --enable-libtheora --enable-libtwolame --enable-libvpx --enable-libwavpack --enable-libwebp --enable-libx264 --enable-libx265 --enable-libxml2 --enable-libzimg --enable-lzma --enable-zlib --enable-gmp --enable-libvidstab --enable-libvorbis --enable-libvo-amrwbenc --enable-libmysofa --enable-libspeex --enable-libxvid --enable-libaom --enable-libmfx --enable-amf --enable-ffnvcodec --enable-cuvid --enable-d3d11va --enable-nvenc --enable-nvdec --enable-dxva2 --enable-avisynth --enable-libopenmpt
  libavutil      56. 24.101 / 56. 24.101
  libavcodec     58. 41.100 / 58. 41.100
  libavformat    58. 23.102 / 58. 23.102
  libavdevice    58.  6.101 / 58.  6.101
  libavfilter     7. 46.101 /  7. 46.101
  libswscale      5.  4.100 /  5.  4.100
  libswresample   3.  4.100 /  3.  4.100
  libpostproc    55.  4.100 / 55.  4.100
Input #0, dts, from 'out_dts_side.dts':
  Duration: N/A, start: 0.000000, bitrate: N/A
    Stream #0:0: Audio: dts (DTS-HD MA), 48000 Hz, 5.1(side), s32p (24 bit)
Stream mapping:
  Stream #0:0 -> #0:0 (dts (dca) -> aac (native))
Press [q] to stop, [?] for help
[aac @ 00000000006703c0] Using a PCE to encode channel layout "5.1(side)"
Output #0, 3g2, to 'out_aac_side.3g2':
  Metadata:
    encoder         : Lavf58.23.102
    Stream #0:0: Audio: aac (LC) (mp4a / 0x6134706D), 48000 Hz, 5.1(side), fltp (24 bit), 394 kb/s
    Metadata:
      encoder         : Lavc58.41.100 aac
size=     256kB time=00:00:06.99 bitrate= 299.8kbits/s speed=13.6x    
size=     512kB time=00:00:14.40 bitrate= 291.3kbits/s speed=  14x    
size=     768kB time=00:00:21.61 bitrate= 291.1kbits/s speed=  14x    
size=    1280kB time=00:00:28.60 bitrate= 366.5kbits/s speed=13.9x    
size=    1536kB time=00:00:35.69 bitrate= 352.6kbits/s speed=13.9x    
size=    1792kB time=00:00:42.81 bitrate= 342.9kbits/s speed=13.9x    
size=    1998kB time=00:00:44.05 bitrate= 371.5kbits/s speed=  14x    
video:0kB audio:1989kB subtitle:0kB other streams:0kB global headers:0kB muxing overhead: 0.442005%
[aac @ 00000000006703c0] Qavg: 5587.944

ffmpeg-20181202-72b047a-win64-static\bin\ffprobe.exe out_aac_side.3g2
ffprobe version N-92574-g72b047a7a7 Copyright (c) 2007-2018 the FFmpeg developers
  built with gcc 8.2.1 (GCC) 20181201
  configuration: --enable-gpl --enable-version3 --enable-sdl2 --enable-fontconfig --enable-gnutls --enable-iconv --enable-libass --enable-libbluray --enable-libfreetype --enable-libmp3lame --enable-libopencore-amrnb --enable-libopencore-amrwb --enable-libopenjpeg --enable-libopus --enable-libshine --enable-libsnappy --enable-libsoxr --enable-libtheora --enable-libtwolame --enable-libvpx --enable-libwavpack --enable-libwebp --enable-libx264 --enable-libx265 --enable-libxml2 --enable-libzimg --enable-lzma --enable-zlib --enable-gmp --enable-libvidstab --enable-libvorbis --enable-libvo-amrwbenc --enable-libmysofa --enable-libspeex --enable-libxvid --enable-libaom --enable-libmfx --enable-amf --enable-ffnvcodec --enable-cuvid --enable-d3d11va --enable-nvenc --enable-nvdec --enable-dxva2 --enable-avisynth --enable-libopenmpt
  libavutil      56. 24.101 / 56. 24.101
  libavcodec     58. 41.100 / 58. 41.100
  libavformat    58. 23.102 / 58. 23.102
  libavdevice    58.  6.101 / 58.  6.101
  libavfilter     7. 46.101 /  7. 46.101
  libswscale      5.  4.100 /  5.  4.100
  libswresample   3.  4.100 /  3.  4.100
  libpostproc    55.  4.100 / 55.  4.100
Input #0, mov,mp4,m4a,3gp,3g2,mj2, from 'out_aac_side.3g2':
  Metadata:
    major_brand     : 3g2a
    minor_version   : 65536
    compatible_brands: isomiso23g2a
  Duration: 00:00:44.08, start: 0.000000, bitrate: 371 kb/s
    Stream #0:0(und): Audio: aac (LC) (mp4a / 0x6134706D), 48000 Hz, 6 channels, fltp, 369 kb/s (default)
    Metadata:
      handler_name    : SoundHandler


ffmpeg-20181202-72b047a-win64-static\bin\ffmpeg.exe -i out_dts_side.dts -c:a aac out_aac_side.3gp
ffmpeg version N-92574-g72b047a7a7 Copyright (c) 2000-2018 the FFmpeg developers
  built with gcc 8.2.1 (GCC) 20181201
  configuration: --enable-gpl --enable-version3 --enable-sdl2 --enable-fontconfig --enable-gnutls --enable-iconv --enable-libass --enable-libbluray --enable-libfreetype --enable-libmp3lame --enable-libopencore-amrnb --enable-libopencore-amrwb --enable-libopenjpeg --enable-libopus --enable-libshine --enable-libsnappy --enable-libsoxr --enable-libtheora --enable-libtwolame --enable-libvpx --enable-libwavpack --enable-libwebp --enable-libx264 --enable-libx265 --enable-libxml2 --enable-libzimg --enable-lzma --enable-zlib --enable-gmp --enable-libvidstab --enable-libvorbis --enable-libvo-amrwbenc --enable-libmysofa --enable-libspeex --enable-libxvid --enable-libaom --enable-libmfx --enable-amf --enable-ffnvcodec --enable-cuvid --enable-d3d11va --enable-nvenc --enable-nvdec --enable-dxva2 --enable-avisynth --enable-libopenmpt
  libavutil      56. 24.101 / 56. 24.101
  libavcodec     58. 41.100 / 58. 41.100
  libavformat    58. 23.102 / 58. 23.102
  libavdevice    58.  6.101 / 58.  6.101
  libavfilter     7. 46.101 /  7. 46.101
  libswscale      5.  4.100 /  5.  4.100
  libswresample   3.  4.100 /  3.  4.100
  libpostproc    55.  4.100 / 55.  4.100
Input #0, dts, from 'out_dts_side.dts':
  Duration: N/A, start: 0.000000, bitrate: N/A
    Stream #0:0: Audio: dts (DTS-HD MA), 48000 Hz, 5.1(side), s32p (24 bit)
Stream mapping:
  Stream #0:0 -> #0:0 (dts (dca) -> aac (native))
Press [q] to stop, [?] for help
[aac @ 00000000004e03c0] Using a PCE to encode channel layout "5.1(side)"
Output #0, 3gp, to 'out_aac_side.3gp':
  Metadata:
    encoder         : Lavf58.23.102
    Stream #0:0: Audio: aac (LC) (mp4a / 0x6134706D), 48000 Hz, 5.1(side), fltp (24 bit), 394 kb/s
    Metadata:
      encoder         : Lavc58.41.100 aac
size=     256kB time=00:00:06.95 bitrate= 301.6kbits/s speed=13.5x    
size=     512kB time=00:00:14.37 bitrate= 291.7kbits/s speed=  14x    
size=     768kB time=00:00:21.61 bitrate= 291.1kbits/s speed=  14x    
size=    1280kB time=00:00:28.65 bitrate= 366.0kbits/s speed=13.9x    
size=    1536kB time=00:00:35.75 bitrate= 351.9kbits/s speed=13.9x    
size=    1792kB time=00:00:42.83 bitrate= 342.7kbits/s speed=13.9x    
size=    1998kB time=00:00:44.05 bitrate= 371.5kbits/s speed=  14x    
video:0kB audio:1989kB subtitle:0kB other streams:0kB global headers:0kB muxing overhead: 0.442005%
[aac @ 00000000004e03c0] Qavg: 5587.944

ffmpeg-20181202-72b047a-win64-static\bin\ffprobe.exe out_aac_side.3gp
ffprobe version N-92574-g72b047a7a7 Copyright (c) 2007-2018 the FFmpeg developers
  built with gcc 8.2.1 (GCC) 20181201
  configuration: --enable-gpl --enable-version3 --enable-sdl2 --enable-fontconfig --enable-gnutls --enable-iconv --enable-libass --enable-libbluray --enable-libfreetype --enable-libmp3lame --enable-libopencore-amrnb --enable-libopencore-amrwb --enable-libopenjpeg --enable-libopus --enable-libshine --enable-libsnappy --enable-libsoxr --enable-libtheora --enable-libtwolame --enable-libvpx --enable-libwavpack --enable-libwebp --enable-libx264 --enable-libx265 --enable-libxml2 --enable-libzimg --enable-lzma --enable-zlib --enable-gmp --enable-libvidstab --enable-libvorbis --enable-libvo-amrwbenc --enable-libmysofa --enable-libspeex --enable-libxvid --enable-libaom --enable-libmfx --enable-amf --enable-ffnvcodec --enable-cuvid --enable-d3d11va --enable-nvenc --enable-nvdec --enable-dxva2 --enable-avisynth --enable-libopenmpt
  libavutil      56. 24.101 / 56. 24.101
  libavcodec     58. 41.100 / 58. 41.100
  libavformat    58. 23.102 / 58. 23.102
  libavdevice    58.  6.101 / 58.  6.101
  libavfilter     7. 46.101 /  7. 46.101
  libswscale      5.  4.100 /  5.  4.100
  libswresample   3.  4.100 /  3.  4.100
  libpostproc    55.  4.100 / 55.  4.100
Input #0, mov,mp4,m4a,3gp,3g2,mj2, from 'out_aac_side.3gp':
  Metadata:
    major_brand     : 3gp4
    minor_version   : 512
    compatible_brands: isomiso23gp4
  Duration: 00:00:44.08, start: 0.000000, bitrate: 371 kb/s
    Stream #0:0(und): Audio: aac (LC) (mp4a / 0x6134706D), 48000 Hz, 6 channels, fltp, 369 kb/s (default)
    Metadata:
      handler_name    : SoundHandler


ffmpeg-20181202-72b047a-win64-static\bin\ffmpeg.exe -i out_dts_side.dts -c:a aac out_aac_side.aac
ffmpeg version N-92574-g72b047a7a7 Copyright (c) 2000-2018 the FFmpeg developers
  built with gcc 8.2.1 (GCC) 20181201
  configuration: --enable-gpl --enable-version3 --enable-sdl2 --enable-fontconfig --enable-gnutls --enable-iconv --enable-libass --enable-libbluray --enable-libfreetype --enable-libmp3lame --enable-libopencore-amrnb --enable-libopencore-amrwb --enable-libopenjpeg --enable-libopus --enable-libshine --enable-libsnappy --enable-libsoxr --enable-libtheora --enable-libtwolame --enable-libvpx --enable-libwavpack --enable-libwebp --enable-libx264 --enable-libx265 --enable-libxml2 --enable-libzimg --enable-lzma --enable-zlib --enable-gmp --enable-libvidstab --enable-libvorbis --enable-libvo-amrwbenc --enable-libmysofa --enable-libspeex --enable-libxvid --enable-libaom --enable-libmfx --enable-amf --enable-ffnvcodec --enable-cuvid --enable-d3d11va --enable-nvenc --enable-nvdec --enable-dxva2 --enable-avisynth --enable-libopenmpt
  libavutil      56. 24.101 / 56. 24.101
  libavcodec     58. 41.100 / 58. 41.100
  libavformat    58. 23.102 / 58. 23.102
  libavdevice    58.  6.101 / 58.  6.101
  libavfilter     7. 46.101 /  7. 46.101
  libswscale      5.  4.100 /  5.  4.100
  libswresample   3.  4.100 /  3.  4.100
  libpostproc    55.  4.100 / 55.  4.100
Input #0, dts, from 'out_dts_side.dts':
  Duration: N/A, start: 0.000000, bitrate: N/A
    Stream #0:0: Audio: dts (DTS-HD MA), 48000 Hz, 5.1(side), s32p (24 bit)
Stream mapping:
  Stream #0:0 -> #0:0 (dts (dca) -> aac (native))
Press [q] to stop, [?] for help
[aac @ 00000000005a03c0] Using a PCE to encode channel layout "5.1(side)"
Output #0, adts, to 'out_aac_side.aac':
  Metadata:
    encoder         : Lavf58.23.102
    Stream #0:0: Audio: aac (LC), 48000 Hz, 5.1(side), fltp (24 bit), 394 kb/s
    Metadata:
      encoder         : Lavc58.41.100 aac
size=     255kB time=00:00:06.86 bitrate= 304.1kbits/s speed=13.3x    
size=     512kB time=00:00:14.22 bitrate= 294.8kbits/s speed=13.8x    
size=     768kB time=00:00:21.46 bitrate= 293.2kbits/s speed=13.9x    
size=    1280kB time=00:00:28.52 bitrate= 367.6kbits/s speed=13.9x    
size=    1536kB time=00:00:35.60 bitrate= 353.4kbits/s speed=13.8x    
size=    1792kB time=00:00:42.79 bitrate= 343.0kbits/s speed=13.9x    
size=    2003kB time=00:00:44.05 bitrate= 372.5kbits/s speed=  14x    
video:0kB audio:1989kB subtitle:0kB other streams:0kB global headers:0kB muxing overhead: 0.711175%
[aac @ 00000000005a03c0] Qavg: 5587.944

ffmpeg-20181202-72b047a-win64-static\bin\ffprobe.exe out_aac_side.aac
ffprobe version N-92574-g72b047a7a7 Copyright (c) 2007-2018 the FFmpeg developers
  built with gcc 8.2.1 (GCC) 20181201
  configuration: --enable-gpl --enable-version3 --enable-sdl2 --enable-fontconfig --enable-gnutls --enable-iconv --enable-libass --enable-libbluray --enable-libfreetype --enable-libmp3lame --enable-libopencore-amrnb --enable-libopencore-amrwb --enable-libopenjpeg --enable-libopus --enable-libshine --enable-libsnappy --enable-libsoxr --enable-libtheora --enable-libtwolame --enable-libvpx --enable-libwavpack --enable-libwebp --enable-libx264 --enable-libx265 --enable-libxml2 --enable-libzimg --enable-lzma --enable-zlib --enable-gmp --enable-libvidstab --enable-libvorbis --enable-libvo-amrwbenc --enable-libmysofa --enable-libspeex --enable-libxvid --enable-libaom --enable-libmfx --enable-amf --enable-ffnvcodec --enable-cuvid --enable-d3d11va --enable-nvenc --enable-nvdec --enable-dxva2 --enable-avisynth --enable-libopenmpt
  libavutil      56. 24.101 / 56. 24.101
  libavcodec     58. 41.100 / 58. 41.100
  libavformat    58. 23.102 / 58. 23.102
  libavdevice    58.  6.101 / 58.  6.101
  libavfilter     7. 46.101 /  7. 46.101
  libswscale      5.  4.100 /  5.  4.100
  libswresample   3.  4.100 /  3.  4.100
  libpostproc    55.  4.100 / 55.  4.100
[aac @ 0000000000493c40] Estimating duration from bitrate, this may be inaccurate
Input #0, aac, from 'out_aac_side.aac':
  Duration: 00:28:02.96, bitrate: 9 kb/s
    Stream #0:0: Audio: aac (LC), 48000 Hz, 6 channels, fltp, 9 kb/s


ffmpeg-20181202-72b047a-win64-static\bin\ffmpeg.exe -i out_dts_side.dts -c:a aac out_aac_side.f4v
ffmpeg version N-92574-g72b047a7a7 Copyright (c) 2000-2018 the FFmpeg developers
  built with gcc 8.2.1 (GCC) 20181201
  configuration: --enable-gpl --enable-version3 --enable-sdl2 --enable-fontconfig --enable-gnutls --enable-iconv --enable-libass --enable-libbluray --enable-libfreetype --enable-libmp3lame --enable-libopencore-amrnb --enable-libopencore-amrwb --enable-libopenjpeg --enable-libopus --enable-libshine --enable-libsnappy --enable-libsoxr --enable-libtheora --enable-libtwolame --enable-libvpx --enable-libwavpack --enable-libwebp --enable-libx264 --enable-libx265 --enable-libxml2 --enable-libzimg --enable-lzma --enable-zlib --enable-gmp --enable-libvidstab --enable-libvorbis --enable-libvo-amrwbenc --enable-libmysofa --enable-libspeex --enable-libxvid --enable-libaom --enable-libmfx --enable-amf --enable-ffnvcodec --enable-cuvid --enable-d3d11va --enable-nvenc --enable-nvdec --enable-dxva2 --enable-avisynth --enable-libopenmpt
  libavutil      56. 24.101 / 56. 24.101
  libavcodec     58. 41.100 / 58. 41.100
  libavformat    58. 23.102 / 58. 23.102
  libavdevice    58.  6.101 / 58.  6.101
  libavfilter     7. 46.101 /  7. 46.101
  libswscale      5.  4.100 /  5.  4.100
  libswresample   3.  4.100 /  3.  4.100
  libpostproc    55.  4.100 / 55.  4.100
Input #0, dts, from 'out_dts_side.dts':
  Duration: N/A, start: 0.000000, bitrate: N/A
    Stream #0:0: Audio: dts (DTS-HD MA), 48000 Hz, 5.1(side), s32p (24 bit)
Stream mapping:
  Stream #0:0 -> #0:0 (dts (dca) -> aac (native))
Press [q] to stop, [?] for help
[aac @ 00000000003903c0] Using a PCE to encode channel layout "5.1(side)"
Output #0, f4v, to 'out_aac_side.f4v':
  Metadata:
    encoder         : Lavf58.23.102
    Stream #0:0: Audio: aac (LC) (mp4a / 0x6134706D), 48000 Hz, 5.1(side), fltp (24 bit), 394 kb/s
    Metadata:
      encoder         : Lavc58.41.100 aac
size=       0kB time=00:00:06.80 bitrate=   0.0kbits/s speed=13.2x    
size=     512kB time=00:00:14.22 bitrate= 294.8kbits/s speed=13.8x    
size=     768kB time=00:00:21.48 bitrate= 292.9kbits/s speed=13.9x    
size=    1280kB time=00:00:28.52 bitrate= 367.6kbits/s speed=13.9x    
size=    1536kB time=00:00:35.60 bitrate= 353.4kbits/s speed=13.8x    
size=    1792kB time=00:00:42.64 bitrate= 344.2kbits/s speed=13.8x    
size=    1998kB time=00:00:44.05 bitrate= 371.5kbits/s speed=13.9x    
video:0kB audio:1989kB subtitle:0kB other streams:0kB global headers:0kB muxing overhead: 0.446620%
[aac @ 00000000003903c0] Qavg: 5587.944

ffmpeg-20181202-72b047a-win64-static\bin\ffprobe.exe out_aac_side.f4v
ffprobe version N-92574-g72b047a7a7 Copyright (c) 2007-2018 the FFmpeg developers
  built with gcc 8.2.1 (GCC) 20181201
  configuration: --enable-gpl --enable-version3 --enable-sdl2 --enable-fontconfig --enable-gnutls --enable-iconv --enable-libass --enable-libbluray --enable-libfreetype --enable-libmp3lame --enable-libopencore-amrnb --enable-libopencore-amrwb --enable-libopenjpeg --enable-libopus --enable-libshine --enable-libsnappy --enable-libsoxr --enable-libtheora --enable-libtwolame --enable-libvpx --enable-libwavpack --enable-libwebp --enable-libx264 --enable-libx265 --enable-libxml2 --enable-libzimg --enable-lzma --enable-zlib --enable-gmp --enable-libvidstab --enable-libvorbis --enable-libvo-amrwbenc --enable-libmysofa --enable-libspeex --enable-libxvid --enable-libaom --enable-libmfx --enable-amf --enable-ffnvcodec --enable-cuvid --enable-d3d11va --enable-nvenc --enable-nvdec --enable-dxva2 --enable-avisynth --enable-libopenmpt
  libavutil      56. 24.101 / 56. 24.101
  libavcodec     58. 41.100 / 58. 41.100
  libavformat    58. 23.102 / 58. 23.102
  libavdevice    58.  6.101 / 58.  6.101
  libavfilter     7. 46.101 /  7. 46.101
  libswscale      5.  4.100 /  5.  4.100
  libswresample   3.  4.100 /  3.  4.100
  libpostproc    55.  4.100 / 55.  4.100
Input #0, mov,mp4,m4a,3gp,3g2,mj2, from 'out_aac_side.f4v':
  Metadata:
    major_brand     : f4v 
    minor_version   : 512
    compatible_brands: isomiso2
    encoder         : Lavf58.23.102
  Duration: 00:00:44.08, start: 0.000000, bitrate: 371 kb/s
    Stream #0:0(und): Audio: aac (LC) (mp4a / 0x6134706D), 48000 Hz, 6 channels, fltp, 369 kb/s (default)
    Metadata:
      handler_name    : SoundHandler


ffmpeg-20181202-72b047a-win64-static\bin\ffmpeg.exe -i out_dts_side.dts -c:a aac out_aac_side.mkv
ffmpeg version N-92574-g72b047a7a7 Copyright (c) 2000-2018 the FFmpeg developers
  built with gcc 8.2.1 (GCC) 20181201
  configuration: --enable-gpl --enable-version3 --enable-sdl2 --enable-fontconfig --enable-gnutls --enable-iconv --enable-libass --enable-libbluray --enable-libfreetype --enable-libmp3lame --enable-libopencore-amrnb --enable-libopencore-amrwb --enable-libopenjpeg --enable-libopus --enable-libshine --enable-libsnappy --enable-libsoxr --enable-libtheora --enable-libtwolame --enable-libvpx --enable-libwavpack --enable-libwebp --enable-libx264 --enable-libx265 --enable-libxml2 --enable-libzimg --enable-lzma --enable-zlib --enable-gmp --enable-libvidstab --enable-libvorbis --enable-libvo-amrwbenc --enable-libmysofa --enable-libspeex --enable-libxvid --enable-libaom --enable-libmfx --enable-amf --enable-ffnvcodec --enable-cuvid --enable-d3d11va --enable-nvenc --enable-nvdec --enable-dxva2 --enable-avisynth --enable-libopenmpt
  libavutil      56. 24.101 / 56. 24.101
  libavcodec     58. 41.100 / 58. 41.100
  libavformat    58. 23.102 / 58. 23.102
  libavdevice    58.  6.101 / 58.  6.101
  libavfilter     7. 46.101 /  7. 46.101
  libswscale      5.  4.100 /  5.  4.100
  libswresample   3.  4.100 /  3.  4.100
  libpostproc    55.  4.100 / 55.  4.100
Input #0, dts, from 'out_dts_side.dts':
  Duration: N/A, start: 0.000000, bitrate: N/A
    Stream #0:0: Audio: dts (DTS-HD MA), 48000 Hz, 5.1(side), s32p (24 bit)
Stream mapping:
  Stream #0:0 -> #0:0 (dts (dca) -> aac (native))
Press [q] to stop, [?] for help
[aac @ 0000000000540700] Using a PCE to encode channel layout "5.1(side)"
Output #0, matroska, to 'out_aac_side.mkv':
  Metadata:
    encoder         : Lavf58.23.102
    Stream #0:0: Audio: aac (LC) ([255][0][0][0] / 0x00FF), 48000 Hz, 5.1(side), fltp (24 bit), 394 kb/s
    Metadata:
      encoder         : Lavc58.41.100 aac
size=     162kB time=00:00:06.59 bitrate= 201.9kbits/s speed=12.8x    
size=     406kB time=00:00:13.97 bitrate= 237.9kbits/s speed=13.6x    
size=     891kB time=00:00:21.18 bitrate= 344.6kbits/s speed=13.7x    
size=    1134kB time=00:00:28.18 bitrate= 329.7kbits/s speed=13.7x    
size=    1619kB time=00:00:35.17 bitrate= 377.0kbits/s speed=13.7x    
size=    1861kB time=00:00:42.30 bitrate= 360.5kbits/s speed=13.7x    
size=    2004kB time=00:00:44.05 bitrate= 372.6kbits/s speed=13.8x    
video:0kB audio:1989kB subtitle:0kB other streams:0kB global headers:0kB muxing overhead: 0.747117%
[aac @ 0000000000540700] Qavg: 5587.944

ffmpeg-20181202-72b047a-win64-static\bin\ffprobe.exe out_aac_side.mkv
ffprobe version N-92574-g72b047a7a7 Copyright (c) 2007-2018 the FFmpeg developers
  built with gcc 8.2.1 (GCC) 20181201
  configuration: --enable-gpl --enable-version3 --enable-sdl2 --enable-fontconfig --enable-gnutls --enable-iconv --enable-libass --enable-libbluray --enable-libfreetype --enable-libmp3lame --enable-libopencore-amrnb --enable-libopencore-amrwb --enable-libopenjpeg --enable-libopus --enable-libshine --enable-libsnappy --enable-libsoxr --enable-libtheora --enable-libtwolame --enable-libvpx --enable-libwavpack --enable-libwebp --enable-libx264 --enable-libx265 --enable-libxml2 --enable-libzimg --enable-lzma --enable-zlib --enable-gmp --enable-libvidstab --enable-libvorbis --enable-libvo-amrwbenc --enable-libmysofa --enable-libspeex --enable-libxvid --enable-libaom --enable-libmfx --enable-amf --enable-ffnvcodec --enable-cuvid --enable-d3d11va --enable-nvenc --enable-nvdec --enable-dxva2 --enable-avisynth --enable-libopenmpt
  libavutil      56. 24.101 / 56. 24.101
  libavcodec     58. 41.100 / 58. 41.100
  libavformat    58. 23.102 / 58. 23.102
  libavdevice    58.  6.101 / 58.  6.101
  libavfilter     7. 46.101 /  7. 46.101
  libswscale      5.  4.100 /  5.  4.100
  libswresample   3.  4.100 /  3.  4.100
  libpostproc    55.  4.100 / 55.  4.100
Input #0, matroska,webm, from 'out_aac_side.mkv':
  Metadata:
    ENCODER         : Lavf58.23.102
  Duration: 00:00:44.07, start: 0.000000, bitrate: 372 kb/s
    Stream #0:0: Audio: aac (LC), 48000 Hz, 6 channels, fltp (default)
    Metadata:
      ENCODER         : Lavc58.41.100 aac
      DURATION        : 00:00:44.074000000


ffmpeg-20181202-72b047a-win64-static\bin\ffmpeg.exe -i out_dts_side.dts -c:a aac out_aac_side.mp4
ffmpeg version N-92574-g72b047a7a7 Copyright (c) 2000-2018 the FFmpeg developers
  built with gcc 8.2.1 (GCC) 20181201
  configuration: --enable-gpl --enable-version3 --enable-sdl2 --enable-fontconfig --enable-gnutls --enable-iconv --enable-libass --enable-libbluray --enable-libfreetype --enable-libmp3lame --enable-libopencore-amrnb --enable-libopencore-amrwb --enable-libopenjpeg --enable-libopus --enable-libshine --enable-libsnappy --enable-libsoxr --enable-libtheora --enable-libtwolame --enable-libvpx --enable-libwavpack --enable-libwebp --enable-libx264 --enable-libx265 --enable-libxml2 --enable-libzimg --enable-lzma --enable-zlib --enable-gmp --enable-libvidstab --enable-libvorbis --enable-libvo-amrwbenc --enable-libmysofa --enable-libspeex --enable-libxvid --enable-libaom --enable-libmfx --enable-amf --enable-ffnvcodec --enable-cuvid --enable-d3d11va --enable-nvenc --enable-nvdec --enable-dxva2 --enable-avisynth --enable-libopenmpt
  libavutil      56. 24.101 / 56. 24.101
  libavcodec     58. 41.100 / 58. 41.100
  libavformat    58. 23.102 / 58. 23.102
  libavdevice    58.  6.101 / 58.  6.101
  libavfilter     7. 46.101 /  7. 46.101
  libswscale      5.  4.100 /  5.  4.100
  libswresample   3.  4.100 /  3.  4.100
  libpostproc    55.  4.100 / 55.  4.100
Input #0, dts, from 'out_dts_side.dts':
  Duration: N/A, start: 0.000000, bitrate: N/A
    Stream #0:0: Audio: dts (DTS-HD MA), 48000 Hz, 5.1(side), s32p (24 bit)
Stream mapping:
  Stream #0:0 -> #0:0 (dts (dca) -> aac (native))
Press [q] to stop, [?] for help
[aac @ 00000000004103c0] Using a PCE to encode channel layout "5.1(side)"
Output #0, mp4, to 'out_aac_side.mp4':
  Metadata:
    encoder         : Lavf58.23.102
    Stream #0:0: Audio: aac (LC) (mp4a / 0x6134706D), 48000 Hz, 5.1(side), fltp (24 bit), 394 kb/s
    Metadata:
      encoder         : Lavc58.41.100 aac
size=     256kB time=00:00:07.01 bitrate= 298.8kbits/s speed=13.6x    
size=     512kB time=00:00:14.37 bitrate= 291.7kbits/s speed=  14x    
size=     768kB time=00:00:21.58 bitrate= 291.4kbits/s speed=  14x    
size=    1280kB time=00:00:28.56 bitrate= 367.1kbits/s speed=13.9x    
size=    1536kB time=00:00:35.66 bitrate= 352.8kbits/s speed=13.9x    
size=    1792kB time=00:00:42.81 bitrate= 342.9kbits/s speed=13.9x    
size=    1998kB time=00:00:44.05 bitrate= 371.5kbits/s speed=  14x    
video:0kB audio:1989kB subtitle:0kB other streams:0kB global headers:0kB muxing overhead: 0.446817%
[aac @ 00000000004103c0] Qavg: 5587.944

ffmpeg-20181202-72b047a-win64-static\bin\ffprobe.exe out_aac_side.mp4
ffprobe version N-92574-g72b047a7a7 Copyright (c) 2007-2018 the FFmpeg developers
  built with gcc 8.2.1 (GCC) 20181201
  configuration: --enable-gpl --enable-version3 --enable-sdl2 --enable-fontconfig --enable-gnutls --enable-iconv --enable-libass --enable-libbluray --enable-libfreetype --enable-libmp3lame --enable-libopencore-amrnb --enable-libopencore-amrwb --enable-libopenjpeg --enable-libopus --enable-libshine --enable-libsnappy --enable-libsoxr --enable-libtheora --enable-libtwolame --enable-libvpx --enable-libwavpack --enable-libwebp --enable-libx264 --enable-libx265 --enable-libxml2 --enable-libzimg --enable-lzma --enable-zlib --enable-gmp --enable-libvidstab --enable-libvorbis --enable-libvo-amrwbenc --enable-libmysofa --enable-libspeex --enable-libxvid --enable-libaom --enable-libmfx --enable-amf --enable-ffnvcodec --enable-cuvid --enable-d3d11va --enable-nvenc --enable-nvdec --enable-dxva2 --enable-avisynth --enable-libopenmpt
  libavutil      56. 24.101 / 56. 24.101
  libavcodec     58. 41.100 / 58. 41.100
  libavformat    58. 23.102 / 58. 23.102
  libavdevice    58.  6.101 / 58.  6.101
  libavfilter     7. 46.101 /  7. 46.101
  libswscale      5.  4.100 /  5.  4.100
  libswresample   3.  4.100 /  3.  4.100
  libpostproc    55.  4.100 / 55.  4.100
Input #0, mov,mp4,m4a,3gp,3g2,mj2, from 'out_aac_side.mp4':
  Metadata:
    major_brand     : isom
    minor_version   : 512
    compatible_brands: isomiso2mp41
    encoder         : Lavf58.23.102
  Duration: 00:00:44.08, start: 0.000000, bitrate: 371 kb/s
    Stream #0:0(und): Audio: aac (LC) (mp4a / 0x6134706D), 48000 Hz, 6 channels, fltp, 369 kb/s (default)
    Metadata:
      handler_name    : SoundHandler


ffmpeg-20181202-72b047a-win64-static\bin\ffmpeg.exe -i out_dts_side.dts -c:a aac out_aac_side.m4a
ffmpeg version N-92574-g72b047a7a7 Copyright (c) 2000-2018 the FFmpeg developers
  built with gcc 8.2.1 (GCC) 20181201
  configuration: --enable-gpl --enable-version3 --enable-sdl2 --enable-fontconfig --enable-gnutls --enable-iconv --enable-libass --enable-libbluray --enable-libfreetype --enable-libmp3lame --enable-libopencore-amrnb --enable-libopencore-amrwb --enable-libopenjpeg --enable-libopus --enable-libshine --enable-libsnappy --enable-libsoxr --enable-libtheora --enable-libtwolame --enable-libvpx --enable-libwavpack --enable-libwebp --enable-libx264 --enable-libx265 --enable-libxml2 --enable-libzimg --enable-lzma --enable-zlib --enable-gmp --enable-libvidstab --enable-libvorbis --enable-libvo-amrwbenc --enable-libmysofa --enable-libspeex --enable-libxvid --enable-libaom --enable-libmfx --enable-amf --enable-ffnvcodec --enable-cuvid --enable-d3d11va --enable-nvenc --enable-nvdec --enable-dxva2 --enable-avisynth --enable-libopenmpt
  libavutil      56. 24.101 / 56. 24.101
  libavcodec     58. 41.100 / 58. 41.100
  libavformat    58. 23.102 / 58. 23.102
  libavdevice    58.  6.101 / 58.  6.101
  libavfilter     7. 46.101 /  7. 46.101
  libswscale      5.  4.100 /  5.  4.100
  libswresample   3.  4.100 /  3.  4.100
  libpostproc    55.  4.100 / 55.  4.100
Input #0, dts, from 'out_dts_side.dts':
  Duration: N/A, start: 0.000000, bitrate: N/A
    Stream #0:0: Audio: dts (DTS-HD MA), 48000 Hz, 5.1(side), s32p (24 bit)
Stream mapping:
  Stream #0:0 -> #0:0 (dts (dca) -> aac (native))
Press [q] to stop, [?] for help
[aac @ 00000000005b03c0] Using a PCE to encode channel layout "5.1(side)"
Output #0, ipod, to 'out_aac_side.m4a':
  Metadata:
    encoder         : Lavf58.23.102
    Stream #0:0: Audio: aac (LC) (mp4a / 0x6134706D), 48000 Hz, 5.1(side), fltp (24 bit), 394 kb/s
    Metadata:
      encoder         : Lavc58.41.100 aac
size=       0kB time=00:00:06.89 bitrate=   0.0kbits/s speed=13.4x    
size=     512kB time=00:00:14.29 bitrate= 293.5kbits/s speed=13.9x    
size=     768kB time=00:00:21.52 bitrate= 292.3kbits/s speed=13.9x    
size=    1280kB time=00:00:28.54 bitrate= 367.4kbits/s speed=13.9x    
size=    1536kB time=00:00:35.62 bitrate= 353.2kbits/s speed=13.8x    
size=    1792kB time=00:00:42.81 bitrate= 342.9kbits/s speed=13.9x    
size=    1998kB time=00:00:44.05 bitrate= 371.5kbits/s speed=  14x    
video:0kB audio:1989kB subtitle:0kB other streams:0kB global headers:0kB muxing overhead: 0.446620%
[aac @ 00000000005b03c0] Qavg: 5587.944

ffmpeg-20181202-72b047a-win64-static\bin\ffprobe.exe out_aac_side.m4a
ffprobe version N-92574-g72b047a7a7 Copyright (c) 2007-2018 the FFmpeg developers
  built with gcc 8.2.1 (GCC) 20181201
  configuration: --enable-gpl --enable-version3 --enable-sdl2 --enable-fontconfig --enable-gnutls --enable-iconv --enable-libass --enable-libbluray --enable-libfreetype --enable-libmp3lame --enable-libopencore-amrnb --enable-libopencore-amrwb --enable-libopenjpeg --enable-libopus --enable-libshine --enable-libsnappy --enable-libsoxr --enable-libtheora --enable-libtwolame --enable-libvpx --enable-libwavpack --enable-libwebp --enable-libx264 --enable-libx265 --enable-libxml2 --enable-libzimg --enable-lzma --enable-zlib --enable-gmp --enable-libvidstab --enable-libvorbis --enable-libvo-amrwbenc --enable-libmysofa --enable-libspeex --enable-libxvid --enable-libaom --enable-libmfx --enable-amf --enable-ffnvcodec --enable-cuvid --enable-d3d11va --enable-nvenc --enable-nvdec --enable-dxva2 --enable-avisynth --enable-libopenmpt
  libavutil      56. 24.101 / 56. 24.101
  libavcodec     58. 41.100 / 58. 41.100
  libavformat    58. 23.102 / 58. 23.102
  libavdevice    58.  6.101 / 58.  6.101
  libavfilter     7. 46.101 /  7. 46.101
  libswscale      5.  4.100 /  5.  4.100
  libswresample   3.  4.100 /  3.  4.100
  libpostproc    55.  4.100 / 55.  4.100
Input #0, mov,mp4,m4a,3gp,3g2,mj2, from 'out_aac_side.m4a':
  Metadata:
    major_brand     : M4A 
    minor_version   : 512
    compatible_brands: isomiso2
    encoder         : Lavf58.23.102
  Duration: 00:00:44.08, start: 0.000000, bitrate: 371 kb/s
    Stream #0:0(und): Audio: aac (LC) (mp4a / 0x6134706D), 48000 Hz, 6 channels, fltp, 369 kb/s (default)
    Metadata:
      handler_name    : SoundHandler


ffmpeg-20181202-72b047a-win64-static\bin\ffmpeg.exe -i out_dts_side.dts -c:a aac out_aac_side.m4b
ffmpeg version N-92574-g72b047a7a7 Copyright (c) 2000-2018 the FFmpeg developers
  built with gcc 8.2.1 (GCC) 20181201
  configuration: --enable-gpl --enable-version3 --enable-sdl2 --enable-fontconfig --enable-gnutls --enable-iconv --enable-libass --enable-libbluray --enable-libfreetype --enable-libmp3lame --enable-libopencore-amrnb --enable-libopencore-amrwb --enable-libopenjpeg --enable-libopus --enable-libshine --enable-libsnappy --enable-libsoxr --enable-libtheora --enable-libtwolame --enable-libvpx --enable-libwavpack --enable-libwebp --enable-libx264 --enable-libx265 --enable-libxml2 --enable-libzimg --enable-lzma --enable-zlib --enable-gmp --enable-libvidstab --enable-libvorbis --enable-libvo-amrwbenc --enable-libmysofa --enable-libspeex --enable-libxvid --enable-libaom --enable-libmfx --enable-amf --enable-ffnvcodec --enable-cuvid --enable-d3d11va --enable-nvenc --enable-nvdec --enable-dxva2 --enable-avisynth --enable-libopenmpt
  libavutil      56. 24.101 / 56. 24.101
  libavcodec     58. 41.100 / 58. 41.100
  libavformat    58. 23.102 / 58. 23.102
  libavdevice    58.  6.101 / 58.  6.101
  libavfilter     7. 46.101 /  7. 46.101
  libswscale      5.  4.100 /  5.  4.100
  libswresample   3.  4.100 /  3.  4.100
  libpostproc    55.  4.100 / 55.  4.100
Input #0, dts, from 'out_dts_side.dts':
  Duration: N/A, start: 0.000000, bitrate: N/A
    Stream #0:0: Audio: dts (DTS-HD MA), 48000 Hz, 5.1(side), s32p (24 bit)
Stream mapping:
  Stream #0:0 -> #0:0 (dts (dca) -> aac (native))
Press [q] to stop, [?] for help
[aac @ 00000000001503c0] Using a PCE to encode channel layout "5.1(side)"
Output #0, ipod, to 'out_aac_side.m4b':
  Metadata:
    encoder         : Lavf58.23.102
    Stream #0:0: Audio: aac (LC) (mp4a / 0x6134706D), 48000 Hz, 5.1(side), fltp (24 bit), 394 kb/s
    Metadata:
      encoder         : Lavc58.41.100 aac
size=     256kB time=00:00:06.97 bitrate= 300.7kbits/s speed=13.6x    
size=     512kB time=00:00:14.37 bitrate= 291.7kbits/s speed=  14x    
size=     768kB time=00:00:21.61 bitrate= 291.1kbits/s speed=  14x    
size=    1280kB time=00:00:28.62 bitrate= 366.3kbits/s speed=13.9x    
size=    1536kB time=00:00:35.71 bitrate= 352.4kbits/s speed=13.9x    
size=    1792kB time=00:00:42.83 bitrate= 342.7kbits/s speed=13.9x    
size=    1998kB time=00:00:44.05 bitrate= 371.5kbits/s speed=  14x    
video:0kB audio:1989kB subtitle:0kB other streams:0kB global headers:0kB muxing overhead: 0.446620%
[aac @ 00000000001503c0] Qavg: 5587.944

ffmpeg-20181202-72b047a-win64-static\bin\ffprobe.exe out_aac_side.m4b
ffprobe version N-92574-g72b047a7a7 Copyright (c) 2007-2018 the FFmpeg developers
  built with gcc 8.2.1 (GCC) 20181201
  configuration: --enable-gpl --enable-version3 --enable-sdl2 --enable-fontconfig --enable-gnutls --enable-iconv --enable-libass --enable-libbluray --enable-libfreetype --enable-libmp3lame --enable-libopencore-amrnb --enable-libopencore-amrwb --enable-libopenjpeg --enable-libopus --enable-libshine --enable-libsnappy --enable-libsoxr --enable-libtheora --enable-libtwolame --enable-libvpx --enable-libwavpack --enable-libwebp --enable-libx264 --enable-libx265 --enable-libxml2 --enable-libzimg --enable-lzma --enable-zlib --enable-gmp --enable-libvidstab --enable-libvorbis --enable-libvo-amrwbenc --enable-libmysofa --enable-libspeex --enable-libxvid --enable-libaom --enable-libmfx --enable-amf --enable-ffnvcodec --enable-cuvid --enable-d3d11va --enable-nvenc --enable-nvdec --enable-dxva2 --enable-avisynth --enable-libopenmpt
  libavutil      56. 24.101 / 56. 24.101
  libavcodec     58. 41.100 / 58. 41.100
  libavformat    58. 23.102 / 58. 23.102
  libavdevice    58.  6.101 / 58.  6.101
  libavfilter     7. 46.101 /  7. 46.101
  libswscale      5.  4.100 /  5.  4.100
  libswresample   3.  4.100 /  3.  4.100
  libpostproc    55.  4.100 / 55.  4.100
Input #0, mov,mp4,m4a,3gp,3g2,mj2, from 'out_aac_side.m4b':
  Metadata:
    major_brand     : M4A 
    minor_version   : 512
    compatible_brands: isomiso2
    encoder         : Lavf58.23.102
  Duration: 00:00:44.08, start: 0.000000, bitrate: 371 kb/s
    Stream #0:0(und): Audio: aac (LC) (mp4a / 0x6134706D), 48000 Hz, 6 channels, fltp, 369 kb/s (default)
    Metadata:
      handler_name    : SoundHandler


ffmpeg-20181202-72b047a-win64-static\bin\ffmpeg.exe -i out_dts_side.dts -c:a aac out_aac_side.m4v
ffmpeg version N-92574-g72b047a7a7 Copyright (c) 2000-2018 the FFmpeg developers
  built with gcc 8.2.1 (GCC) 20181201
  configuration: --enable-gpl --enable-version3 --enable-sdl2 --enable-fontconfig --enable-gnutls --enable-iconv --enable-libass --enable-libbluray --enable-libfreetype --enable-libmp3lame --enable-libopencore-amrnb --enable-libopencore-amrwb --enable-libopenjpeg --enable-libopus --enable-libshine --enable-libsnappy --enable-libsoxr --enable-libtheora --enable-libtwolame --enable-libvpx --enable-libwavpack --enable-libwebp --enable-libx264 --enable-libx265 --enable-libxml2 --enable-libzimg --enable-lzma --enable-zlib --enable-gmp --enable-libvidstab --enable-libvorbis --enable-libvo-amrwbenc --enable-libmysofa --enable-libspeex --enable-libxvid --enable-libaom --enable-libmfx --enable-amf --enable-ffnvcodec --enable-cuvid --enable-d3d11va --enable-nvenc --enable-nvdec --enable-dxva2 --enable-avisynth --enable-libopenmpt
  libavutil      56. 24.101 / 56. 24.101
  libavcodec     58. 41.100 / 58. 41.100
  libavformat    58. 23.102 / 58. 23.102
  libavdevice    58.  6.101 / 58.  6.101
  libavfilter     7. 46.101 /  7. 46.101
  libswscale      5.  4.100 /  5.  4.100
  libswresample   3.  4.100 /  3.  4.100
  libpostproc    55.  4.100 / 55.  4.100
Input #0, dts, from 'out_dts_side.dts':
  Duration: N/A, start: 0.000000, bitrate: N/A
    Stream #0:0: Audio: dts (DTS-HD MA), 48000 Hz, 5.1(side), s32p (24 bit)
Stream mapping:
  Stream #0:0 -> #0:0 (dts (dca) -> aac (native))
Press [q] to stop, [?] for help
[aac @ 00000000004a03c0] Using a PCE to encode channel layout "5.1(side)"
Output #0, ipod, to 'out_aac_side.m4v':
  Metadata:
    encoder         : Lavf58.23.102
    Stream #0:0: Audio: aac (LC) (mp4a / 0x6134706D), 48000 Hz, 5.1(side), fltp (24 bit), 394 kb/s
    Metadata:
      encoder         : Lavc58.41.100 aac
size=       0kB time=00:00:06.93 bitrate=   0.0kbits/s speed=13.5x    
size=     512kB time=00:00:14.31 bitrate= 293.0kbits/s speed=13.9x    
size=     768kB time=00:00:21.54 bitrate= 292.0kbits/s speed=  14x    
size=    1280kB time=00:00:28.56 bitrate= 367.1kbits/s speed=13.9x    
size=    1536kB time=00:00:35.62 bitrate= 353.2kbits/s speed=13.8x    
size=    1792kB time=00:00:42.79 bitrate= 343.0kbits/s speed=13.9x    
size=    1998kB time=00:00:44.05 bitrate= 371.5kbits/s speed=  14x    
video:0kB audio:1989kB subtitle:0kB other streams:0kB global headers:0kB muxing overhead: 0.446620%
[aac @ 00000000004a03c0] Qavg: 5587.944

ffmpeg-20181202-72b047a-win64-static\bin\ffprobe.exe out_aac_side.m4v
ffprobe version N-92574-g72b047a7a7 Copyright (c) 2007-2018 the FFmpeg developers
  built with gcc 8.2.1 (GCC) 20181201
  configuration: --enable-gpl --enable-version3 --enable-sdl2 --enable-fontconfig --enable-gnutls --enable-iconv --enable-libass --enable-libbluray --enable-libfreetype --enable-libmp3lame --enable-libopencore-amrnb --enable-libopencore-amrwb --enable-libopenjpeg --enable-libopus --enable-libshine --enable-libsnappy --enable-libsoxr --enable-libtheora --enable-libtwolame --enable-libvpx --enable-libwavpack --enable-libwebp --enable-libx264 --enable-libx265 --enable-libxml2 --enable-libzimg --enable-lzma --enable-zlib --enable-gmp --enable-libvidstab --enable-libvorbis --enable-libvo-amrwbenc --enable-libmysofa --enable-libspeex --enable-libxvid --enable-libaom --enable-libmfx --enable-amf --enable-ffnvcodec --enable-cuvid --enable-d3d11va --enable-nvenc --enable-nvdec --enable-dxva2 --enable-avisynth --enable-libopenmpt
  libavutil      56. 24.101 / 56. 24.101
  libavcodec     58. 41.100 / 58. 41.100
  libavformat    58. 23.102 / 58. 23.102
  libavdevice    58.  6.101 / 58.  6.101
  libavfilter     7. 46.101 /  7. 46.101
  libswscale      5.  4.100 /  5.  4.100
  libswresample   3.  4.100 /  3.  4.100
  libpostproc    55.  4.100 / 55.  4.100
Input #0, mov,mp4,m4a,3gp,3g2,mj2, from 'out_aac_side.m4v':
  Metadata:
    major_brand     : M4A 
    minor_version   : 512
    compatible_brands: isomiso2
    encoder         : Lavf58.23.102
  Duration: 00:00:44.08, start: 0.000000, bitrate: 371 kb/s
    Stream #0:0(und): Audio: aac (LC) (mp4a / 0x6134706D), 48000 Hz, 6 channels, fltp, 369 kb/s (default)
    Metadata:
      handler_name    : SoundHandler


ffmpeg-20181202-72b047a-win64-static\bin\ffmpeg.exe -i out_dts_side.dts -c:a aac out_aac_side.mts
ffmpeg version N-92574-g72b047a7a7 Copyright (c) 2000-2018 the FFmpeg developers
  built with gcc 8.2.1 (GCC) 20181201
  configuration: --enable-gpl --enable-version3 --enable-sdl2 --enable-fontconfig --enable-gnutls --enable-iconv --enable-libass --enable-libbluray --enable-libfreetype --enable-libmp3lame --enable-libopencore-amrnb --enable-libopencore-amrwb --enable-libopenjpeg --enable-libopus --enable-libshine --enable-libsnappy --enable-libsoxr --enable-libtheora --enable-libtwolame --enable-libvpx --enable-libwavpack --enable-libwebp --enable-libx264 --enable-libx265 --enable-libxml2 --enable-libzimg --enable-lzma --enable-zlib --enable-gmp --enable-libvidstab --enable-libvorbis --enable-libvo-amrwbenc --enable-libmysofa --enable-libspeex --enable-libxvid --enable-libaom --enable-libmfx --enable-amf --enable-ffnvcodec --enable-cuvid --enable-d3d11va --enable-nvenc --enable-nvdec --enable-dxva2 --enable-avisynth --enable-libopenmpt
  libavutil      56. 24.101 / 56. 24.101
  libavcodec     58. 41.100 / 58. 41.100
  libavformat    58. 23.102 / 58. 23.102
  libavdevice    58.  6.101 / 58.  6.101
  libavfilter     7. 46.101 /  7. 46.101
  libswscale      5.  4.100 /  5.  4.100
  libswresample   3.  4.100 /  3.  4.100
  libpostproc    55.  4.100 / 55.  4.100
Input #0, dts, from 'out_dts_side.dts':
  Duration: N/A, start: 0.000000, bitrate: N/A
    Stream #0:0: Audio: dts (DTS-HD MA), 48000 Hz, 5.1(side), s32p (24 bit)
Stream mapping:
  Stream #0:0 -> #0:0 (dts (dca) -> aac (native))
Press [q] to stop, [?] for help
[aac @ 00000000005103c0] Using a PCE to encode channel layout "5.1(side)"
[mpegts @ 0000000000541380] frame size not set
Output #0, mpegts, to 'out_aac_side.mts':
  Metadata:
    encoder         : Lavf58.23.102
    Stream #0:0: Audio: aac (LC), 48000 Hz, 5.1(side), fltp (24 bit), 394 kb/s
    Metadata:
      encoder         : Lavc58.41.100 aac
size=     256kB time=00:00:07.04 bitrate= 297.9kbits/s speed=13.7x    
size=     512kB time=00:00:14.48 bitrate= 289.6kbits/s speed=14.1x    
size=    1024kB time=00:00:21.69 bitrate= 386.6kbits/s speed=  14x    
size=    1280kB time=00:00:28.71 bitrate= 365.2kbits/s speed=13.9x    
size=    1792kB time=00:00:35.81 bitrate= 409.8kbits/s speed=13.9x    
size=    2048kB time=00:00:42.85 bitrate= 391.5kbits/s speed=13.9x    
size=    2267kB time=00:00:44.05 bitrate= 421.6kbits/s speed=  14x    
video:0kB audio:1989kB subtitle:0kB other streams:0kB global headers:0kB muxing overhead: 13.983646%
[aac @ 00000000005103c0] Qavg: 5587.944

ffmpeg-20181202-72b047a-win64-static\bin\ffprobe.exe out_aac_side.mts
ffprobe version N-92574-g72b047a7a7 Copyright (c) 2007-2018 the FFmpeg developers
  built with gcc 8.2.1 (GCC) 20181201
  configuration: --enable-gpl --enable-version3 --enable-sdl2 --enable-fontconfig --enable-gnutls --enable-iconv --enable-libass --enable-libbluray --enable-libfreetype --enable-libmp3lame --enable-libopencore-amrnb --enable-libopencore-amrwb --enable-libopenjpeg --enable-libopus --enable-libshine --enable-libsnappy --enable-libsoxr --enable-libtheora --enable-libtwolame --enable-libvpx --enable-libwavpack --enable-libwebp --enable-libx264 --enable-libx265 --enable-libxml2 --enable-libzimg --enable-lzma --enable-zlib --enable-gmp --enable-libvidstab --enable-libvorbis --enable-libvo-amrwbenc --enable-libmysofa --enable-libspeex --enable-libxvid --enable-libaom --enable-libmfx --enable-amf --enable-ffnvcodec --enable-cuvid --enable-d3d11va --enable-nvenc --enable-nvdec --enable-dxva2 --enable-avisynth --enable-libopenmpt
  libavutil      56. 24.101 / 56. 24.101
  libavcodec     58. 41.100 / 58. 41.100
  libavformat    58. 23.102 / 58. 23.102
  libavdevice    58.  6.101 / 58.  6.101
  libavfilter     7. 46.101 /  7. 46.101
  libswscale      5.  4.100 /  5.  4.100
  libswresample   3.  4.100 /  3.  4.100
  libpostproc    55.  4.100 / 55.  4.100
Input #0, mpegts, from 'out_aac_side.mts':
  Duration: 00:00:43.56, start: 1.400000, bitrate: 426 kb/s
  Program 1 
    Metadata:
      service_name    : Service01
      service_provider: FFmpeg
    Stream #0:0[0x100]: Audio: aac (LC) ([15][0][0][0] / 0x000F), 48000 Hz, 6 channels, fltp, 446 kb/s


ffmpeg-20181202-72b047a-win64-static\bin\ffmpeg.exe -i out_dts_side.dts -c:a aac out_aac_side.m2ts
ffmpeg version N-92574-g72b047a7a7 Copyright (c) 2000-2018 the FFmpeg developers
  built with gcc 8.2.1 (GCC) 20181201
  configuration: --enable-gpl --enable-version3 --enable-sdl2 --enable-fontconfig --enable-gnutls --enable-iconv --enable-libass --enable-libbluray --enable-libfreetype --enable-libmp3lame --enable-libopencore-amrnb --enable-libopencore-amrwb --enable-libopenjpeg --enable-libopus --enable-libshine --enable-libsnappy --enable-libsoxr --enable-libtheora --enable-libtwolame --enable-libvpx --enable-libwavpack --enable-libwebp --enable-libx264 --enable-libx265 --enable-libxml2 --enable-libzimg --enable-lzma --enable-zlib --enable-gmp --enable-libvidstab --enable-libvorbis --enable-libvo-amrwbenc --enable-libmysofa --enable-libspeex --enable-libxvid --enable-libaom --enable-libmfx --enable-amf --enable-ffnvcodec --enable-cuvid --enable-d3d11va --enable-nvenc --enable-nvdec --enable-dxva2 --enable-avisynth --enable-libopenmpt
  libavutil      56. 24.101 / 56. 24.101
  libavcodec     58. 41.100 / 58. 41.100
  libavformat    58. 23.102 / 58. 23.102
  libavdevice    58.  6.101 / 58.  6.101
  libavfilter     7. 46.101 /  7. 46.101
  libswscale      5.  4.100 /  5.  4.100
  libswresample   3.  4.100 /  3.  4.100
  libpostproc    55.  4.100 / 55.  4.100
Input #0, dts, from 'out_dts_side.dts':
  Duration: N/A, start: 0.000000, bitrate: N/A
    Stream #0:0: Audio: dts (DTS-HD MA), 48000 Hz, 5.1(side), s32p (24 bit)
Stream mapping:
  Stream #0:0 -> #0:0 (dts (dca) -> aac (native))
Press [q] to stop, [?] for help
[aac @ 00000000006303c0] Using a PCE to encode channel layout "5.1(side)"
[mpegts @ 0000000000661380] frame size not set
Output #0, mpegts, to 'out_aac_side.m2ts':
  Metadata:
    encoder         : Lavf58.23.102
    Stream #0:0: Audio: aac (LC), 48000 Hz, 5.1(side), fltp (24 bit), 394 kb/s
    Metadata:
      encoder         : Lavc58.41.100 aac
size=     256kB time=00:00:06.91 bitrate= 303.4kbits/s speed=13.4x    
size=     512kB time=00:00:14.31 bitrate= 293.0kbits/s speed=13.9x    
size=    1024kB time=00:00:21.54 bitrate= 389.3kbits/s speed=  14x    
size=    1280kB time=00:00:28.54 bitrate= 367.4kbits/s speed=13.9x    
size=    1792kB time=00:00:35.60 bitrate= 412.3kbits/s speed=13.8x    
size=    2304kB time=00:00:42.77 bitrate= 441.3kbits/s speed=13.8x    
size=    2315kB time=00:00:44.05 bitrate= 430.5kbits/s speed=  14x    
video:0kB audio:1989kB subtitle:0kB other streams:0kB global headers:0kB muxing overhead: 16.408831%
[aac @ 00000000006303c0] Qavg: 5587.944

ffmpeg-20181202-72b047a-win64-static\bin\ffprobe.exe out_aac_side.m2ts
ffprobe version N-92574-g72b047a7a7 Copyright (c) 2007-2018 the FFmpeg developers
  built with gcc 8.2.1 (GCC) 20181201
  configuration: --enable-gpl --enable-version3 --enable-sdl2 --enable-fontconfig --enable-gnutls --enable-iconv --enable-libass --enable-libbluray --enable-libfreetype --enable-libmp3lame --enable-libopencore-amrnb --enable-libopencore-amrwb --enable-libopenjpeg --enable-libopus --enable-libshine --enable-libsnappy --enable-libsoxr --enable-libtheora --enable-libtwolame --enable-libvpx --enable-libwavpack --enable-libwebp --enable-libx264 --enable-libx265 --enable-libxml2 --enable-libzimg --enable-lzma --enable-zlib --enable-gmp --enable-libvidstab --enable-libvorbis --enable-libvo-amrwbenc --enable-libmysofa --enable-libspeex --enable-libxvid --enable-libaom --enable-libmfx --enable-amf --enable-ffnvcodec --enable-cuvid --enable-d3d11va --enable-nvenc --enable-nvdec --enable-dxva2 --enable-avisynth --enable-libopenmpt
  libavutil      56. 24.101 / 56. 24.101
  libavcodec     58. 41.100 / 58. 41.100
  libavformat    58. 23.102 / 58. 23.102
  libavdevice    58.  6.101 / 58.  6.101
  libavfilter     7. 46.101 /  7. 46.101
  libswscale      5.  4.100 /  5.  4.100
  libswresample   3.  4.100 /  3.  4.100
  libpostproc    55.  4.100 / 55.  4.100
Input #0, mpegts, from 'out_aac_side.m2ts':
  Duration: 00:00:43.56, start: 1.400000, bitrate: 435 kb/s
  Program 1 
    Metadata:
      service_name    : Service01
      service_provider: FFmpeg
    Stream #0:0[0x100]: Audio: aac (LC) ([15][0][0][0] / 0x000F), 48000 Hz, 6 channels, fltp, 446 kb/s


ffmpeg-20181202-72b047a-win64-static\bin\ffmpeg.exe -i out_dts_side.dts -c:a aac out_aac_side.ts
ffmpeg version N-92574-g72b047a7a7 Copyright (c) 2000-2018 the FFmpeg developers
  built with gcc 8.2.1 (GCC) 20181201
  configuration: --enable-gpl --enable-version3 --enable-sdl2 --enable-fontconfig --enable-gnutls --enable-iconv --enable-libass --enable-libbluray --enable-libfreetype --enable-libmp3lame --enable-libopencore-amrnb --enable-libopencore-amrwb --enable-libopenjpeg --enable-libopus --enable-libshine --enable-libsnappy --enable-libsoxr --enable-libtheora --enable-libtwolame --enable-libvpx --enable-libwavpack --enable-libwebp --enable-libx264 --enable-libx265 --enable-libxml2 --enable-libzimg --enable-lzma --enable-zlib --enable-gmp --enable-libvidstab --enable-libvorbis --enable-libvo-amrwbenc --enable-libmysofa --enable-libspeex --enable-libxvid --enable-libaom --enable-libmfx --enable-amf --enable-ffnvcodec --enable-cuvid --enable-d3d11va --enable-nvenc --enable-nvdec --enable-dxva2 --enable-avisynth --enable-libopenmpt
  libavutil      56. 24.101 / 56. 24.101
  libavcodec     58. 41.100 / 58. 41.100
  libavformat    58. 23.102 / 58. 23.102
  libavdevice    58.  6.101 / 58.  6.101
  libavfilter     7. 46.101 /  7. 46.101
  libswscale      5.  4.100 /  5.  4.100
  libswresample   3.  4.100 /  3.  4.100
  libpostproc    55.  4.100 / 55.  4.100
Input #0, dts, from 'out_dts_side.dts':
  Duration: N/A, start: 0.000000, bitrate: N/A
    Stream #0:0: Audio: dts (DTS-HD MA), 48000 Hz, 5.1(side), s32p (24 bit)
Stream mapping:
  Stream #0:0 -> #0:0 (dts (dca) -> aac (native))
Press [q] to stop, [?] for help
[aac @ 00000000005b03c0] Using a PCE to encode channel layout "5.1(side)"
[mpegts @ 00000000005e1380] frame size not set
Output #0, mpegts, to 'out_aac_side.ts':
  Metadata:
    encoder         : Lavf58.23.102
    Stream #0:0: Audio: aac (LC), 48000 Hz, 5.1(side), fltp (24 bit), 394 kb/s
    Metadata:
      encoder         : Lavc58.41.100 aac
size=     256kB time=00:00:07.01 bitrate= 298.8kbits/s speed=13.6x    
size=     512kB time=00:00:14.42 bitrate= 290.8kbits/s speed=  14x    
size=    1024kB time=00:00:21.52 bitrate= 389.7kbits/s speed=13.9x    
size=    1280kB time=00:00:28.48 bitrate= 368.2kbits/s speed=13.8x    
size=    1792kB time=00:00:35.58 bitrate= 412.5kbits/s speed=13.8x    
size=    2048kB time=00:00:42.79 bitrate= 392.0kbits/s speed=13.9x    
size=    2267kB time=00:00:44.05 bitrate= 421.6kbits/s speed=  14x    
video:0kB audio:1989kB subtitle:0kB other streams:0kB global headers:0kB muxing overhead: 13.983646%
[aac @ 00000000005b03c0] Qavg: 5587.944

ffmpeg-20181202-72b047a-win64-static\bin\ffprobe.exe out_aac_side.ts
ffprobe version N-92574-g72b047a7a7 Copyright (c) 2007-2018 the FFmpeg developers
  built with gcc 8.2.1 (GCC) 20181201
  configuration: --enable-gpl --enable-version3 --enable-sdl2 --enable-fontconfig --enable-gnutls --enable-iconv --enable-libass --enable-libbluray --enable-libfreetype --enable-libmp3lame --enable-libopencore-amrnb --enable-libopencore-amrwb --enable-libopenjpeg --enable-libopus --enable-libshine --enable-libsnappy --enable-libsoxr --enable-libtheora --enable-libtwolame --enable-libvpx --enable-libwavpack --enable-libwebp --enable-libx264 --enable-libx265 --enable-libxml2 --enable-libzimg --enable-lzma --enable-zlib --enable-gmp --enable-libvidstab --enable-libvorbis --enable-libvo-amrwbenc --enable-libmysofa --enable-libspeex --enable-libxvid --enable-libaom --enable-libmfx --enable-amf --enable-ffnvcodec --enable-cuvid --enable-d3d11va --enable-nvenc --enable-nvdec --enable-dxva2 --enable-avisynth --enable-libopenmpt
  libavutil      56. 24.101 / 56. 24.101
  libavcodec     58. 41.100 / 58. 41.100
  libavformat    58. 23.102 / 58. 23.102
  libavdevice    58.  6.101 / 58.  6.101
  libavfilter     7. 46.101 /  7. 46.101
  libswscale      5.  4.100 /  5.  4.100
  libswresample   3.  4.100 /  3.  4.100
  libpostproc    55.  4.100 / 55.  4.100
Input #0, mpegts, from 'out_aac_side.ts':
  Duration: 00:00:43.56, start: 1.400000, bitrate: 426 kb/s
  Program 1 
    Metadata:
      service_name    : Service01
      service_provider: FFmpeg
    Stream #0:0[0x100]: Audio: aac (LC) ([15][0][0][0] / 0x000F), 48000 Hz, 6 channels, fltp, 446 kb/s

[Non-exhaustive] Not concerned containers:

ffmpeg-20181202-72b047a-win64-static\bin\ffmpeg.exe -i out_dts_side.dts -c:a aac out_aac_side.avi
ffmpeg version N-92574-g72b047a7a7 Copyright (c) 2000-2018 the FFmpeg developers
  built with gcc 8.2.1 (GCC) 20181201
  configuration: --enable-gpl --enable-version3 --enable-sdl2 --enable-fontconfig --enable-gnutls --enable-iconv --enable-libass --enable-libbluray --enable-libfreetype --enable-libmp3lame --enable-libopencore-amrnb --enable-libopencore-amrwb --enable-libopenjpeg --enable-libopus --enable-libshine --enable-libsnappy --enable-libsoxr --enable-libtheora --enable-libtwolame --enable-libvpx --enable-libwavpack --enable-libwebp --enable-libx264 --enable-libx265 --enable-libxml2 --enable-libzimg --enable-lzma --enable-zlib --enable-gmp --enable-libvidstab --enable-libvorbis --enable-libvo-amrwbenc --enable-libmysofa --enable-libspeex --enable-libxvid --enable-libaom --enable-libmfx --enable-amf --enable-ffnvcodec --enable-cuvid --enable-d3d11va --enable-nvenc --enable-nvdec --enable-dxva2 --enable-avisynth --enable-libopenmpt
  libavutil      56. 24.101 / 56. 24.101
  libavcodec     58. 41.100 / 58. 41.100
  libavformat    58. 23.102 / 58. 23.102
  libavdevice    58.  6.101 / 58.  6.101
  libavfilter     7. 46.101 /  7. 46.101
  libswscale      5.  4.100 /  5.  4.100
  libswresample   3.  4.100 /  3.  4.100
  libpostproc    55.  4.100 / 55.  4.100
Input #0, dts, from 'out_dts_side.dts':
  Duration: N/A, start: 0.000000, bitrate: N/A
    Stream #0:0: Audio: dts (DTS-HD MA), 48000 Hz, 5.1(side), s32p (24 bit)
Stream mapping:
  Stream #0:0 -> #0:0 (dts (dca) -> aac (native))
Press [q] to stop, [?] for help
[aac @ 0000000000490140] Using a PCE to encode channel layout "5.1(side)"
Output #0, avi, to 'out_aac_side.avi':
  Metadata:
    ISFT            : Lavf58.23.102
    Stream #0:0: Audio: aac (LC) ([255][0][0][0] / 0x00FF), 48000 Hz, 5.1(side), fltp (24 bit), 394 kb/s
    Metadata:
      encoder         : Lavc58.41.100 aac
size=     262kB time=00:00:06.93 bitrate= 309.1kbits/s speed=13.5x    
size=     518kB time=00:00:14.35 bitrate= 295.3kbits/s speed=13.9x    
size=     774kB time=00:00:21.61 bitrate= 293.2kbits/s speed=  14x    
size=    1286kB time=00:00:28.60 bitrate= 368.1kbits/s speed=13.9x    
size=    1542kB time=00:00:35.69 bitrate= 353.8kbits/s speed=13.9x    
size=    1798kB time=00:00:42.81 bitrate= 343.9kbits/s speed=13.9x    
size=    2044kB time=00:00:44.05 bitrate= 380.1kbits/s speed=  14x    
video:0kB audio:1989kB subtitle:0kB other streams:0kB global headers:0kB muxing overhead: 2.769135%
[aac @ 0000000000490140] Qavg: 5587.944

ffmpeg-20181202-72b047a-win64-static\bin\ffprobe.exe out_aac_side.avi
ffprobe version N-92574-g72b047a7a7 Copyright (c) 2007-2018 the FFmpeg developers
  built with gcc 8.2.1 (GCC) 20181201
  configuration: --enable-gpl --enable-version3 --enable-sdl2 --enable-fontconfig --enable-gnutls --enable-iconv --enable-libass --enable-libbluray --enable-libfreetype --enable-libmp3lame --enable-libopencore-amrnb --enable-libopencore-amrwb --enable-libopenjpeg --enable-libopus --enable-libshine --enable-libsnappy --enable-libsoxr --enable-libtheora --enable-libtwolame --enable-libvpx --enable-libwavpack --enable-libwebp --enable-libx264 --enable-libx265 --enable-libxml2 --enable-libzimg --enable-lzma --enable-zlib --enable-gmp --enable-libvidstab --enable-libvorbis --enable-libvo-amrwbenc --enable-libmysofa --enable-libspeex --enable-libxvid --enable-libaom --enable-libmfx --enable-amf --enable-ffnvcodec --enable-cuvid --enable-d3d11va --enable-nvenc --enable-nvdec --enable-dxva2 --enable-avisynth --enable-libopenmpt
  libavutil      56. 24.101 / 56. 24.101
  libavcodec     58. 41.100 / 58. 41.100
  libavformat    58. 23.102 / 58. 23.102
  libavdevice    58.  6.101 / 58.  6.101
  libavfilter     7. 46.101 /  7. 46.101
  libswscale      5.  4.100 /  5.  4.100
  libswresample   3.  4.100 /  3.  4.100
  libpostproc    55.  4.100 / 55.  4.100
Input #0, avi, from 'out_aac_side.avi':
  Metadata:
    encoder         : Lavf58.23.102
  Duration: 00:00:44.07, start: 0.000000, bitrate: 379 kb/s
    Stream #0:0: Audio: aac (LC) ([255][0][0][0] / 0x00FF), 48000 Hz, 5.1(side), fltp, 394 kb/s


ffmpeg-20181202-72b047a-win64-static\bin\ffmpeg.exe -i out_dts_side.dts -c:a aac out_aac_side.mov
ffmpeg version N-92574-g72b047a7a7 Copyright (c) 2000-2018 the FFmpeg developers
  built with gcc 8.2.1 (GCC) 20181201
  configuration: --enable-gpl --enable-version3 --enable-sdl2 --enable-fontconfig --enable-gnutls --enable-iconv --enable-libass --enable-libbluray --enable-libfreetype --enable-libmp3lame --enable-libopencore-amrnb --enable-libopencore-amrwb --enable-libopenjpeg --enable-libopus --enable-libshine --enable-libsnappy --enable-libsoxr --enable-libtheora --enable-libtwolame --enable-libvpx --enable-libwavpack --enable-libwebp --enable-libx264 --enable-libx265 --enable-libxml2 --enable-libzimg --enable-lzma --enable-zlib --enable-gmp --enable-libvidstab --enable-libvorbis --enable-libvo-amrwbenc --enable-libmysofa --enable-libspeex --enable-libxvid --enable-libaom --enable-libmfx --enable-amf --enable-ffnvcodec --enable-cuvid --enable-d3d11va --enable-nvenc --enable-nvdec --enable-dxva2 --enable-avisynth --enable-libopenmpt
  libavutil      56. 24.101 / 56. 24.101
  libavcodec     58. 41.100 / 58. 41.100
  libavformat    58. 23.102 / 58. 23.102
  libavdevice    58.  6.101 / 58.  6.101
  libavfilter     7. 46.101 /  7. 46.101
  libswscale      5.  4.100 /  5.  4.100
  libswresample   3.  4.100 /  3.  4.100
  libpostproc    55.  4.100 / 55.  4.100
Input #0, dts, from 'out_dts_side.dts':
  Duration: N/A, start: 0.000000, bitrate: N/A
    Stream #0:0: Audio: dts (DTS-HD MA), 48000 Hz, 5.1(side), s32p (24 bit)
Stream mapping:
  Stream #0:0 -> #0:0 (dts (dca) -> aac (native))
Press [q] to stop, [?] for help
[aac @ 00000000005303c0] Using a PCE to encode channel layout "5.1(side)"
Output #0, mov, to 'out_aac_side.mov':
  Metadata:
    encoder         : Lavf58.23.102
    Stream #0:0: Audio: aac (LC) (mp4a / 0x6134706D), 48000 Hz, 5.1(side), fltp (24 bit), 394 kb/s
    Metadata:
      encoder         : Lavc58.41.100 aac
size=       0kB time=00:00:06.86 bitrate=   0.0kbits/s speed=13.3x    
size=     512kB time=00:00:14.20 bitrate= 295.2kbits/s speed=13.8x    
size=     768kB time=00:00:21.44 bitrate= 293.5kbits/s speed=13.9x    
size=    1280kB time=00:00:28.39 bitrate= 369.3kbits/s speed=13.8x    
size=    1536kB time=00:00:35.47 bitrate= 354.7kbits/s speed=13.8x    
size=    1792kB time=00:00:41.64 bitrate= 352.5kbits/s speed=13.5x    
size=    1998kB time=00:00:44.05 bitrate= 371.5kbits/s speed=13.6x    
video:0kB audio:1989kB subtitle:0kB other streams:0kB global headers:0kB muxing overhead: 0.449321%
[aac @ 00000000005303c0] Qavg: 5587.944

ffmpeg-20181202-72b047a-win64-static\bin\ffprobe.exe out_aac_side.mov
ffprobe version N-92574-g72b047a7a7 Copyright (c) 2007-2018 the FFmpeg developers
  built with gcc 8.2.1 (GCC) 20181201
  configuration: --enable-gpl --enable-version3 --enable-sdl2 --enable-fontconfig --enable-gnutls --enable-iconv --enable-libass --enable-libbluray --enable-libfreetype --enable-libmp3lame --enable-libopencore-amrnb --enable-libopencore-amrwb --enable-libopenjpeg --enable-libopus --enable-libshine --enable-libsnappy --enable-libsoxr --enable-libtheora --enable-libtwolame --enable-libvpx --enable-libwavpack --enable-libwebp --enable-libx264 --enable-libx265 --enable-libxml2 --enable-libzimg --enable-lzma --enable-zlib --enable-gmp --enable-libvidstab --enable-libvorbis --enable-libvo-amrwbenc --enable-libmysofa --enable-libspeex --enable-libxvid --enable-libaom --enable-libmfx --enable-amf --enable-ffnvcodec --enable-cuvid --enable-d3d11va --enable-nvenc --enable-nvdec --enable-dxva2 --enable-avisynth --enable-libopenmpt
  libavutil      56. 24.101 / 56. 24.101
  libavcodec     58. 41.100 / 58. 41.100
  libavformat    58. 23.102 / 58. 23.102
  libavdevice    58.  6.101 / 58.  6.101
  libavfilter     7. 46.101 /  7. 46.101
  libswscale      5.  4.100 /  5.  4.100
  libswresample   3.  4.100 /  3.  4.100
  libpostproc    55.  4.100 / 55.  4.100
Input #0, mov,mp4,m4a,3gp,3g2,mj2, from 'out_aac_side.mov':
  Metadata:
    major_brand     : qt  
    minor_version   : 512
    compatible_brands: qt  
    encoder         : Lavf58.23.102
  Duration: 00:00:44.08, start: 0.000000, bitrate: 371 kb/s
    Stream #0:0(eng): Audio: aac (LC) (mp4a / 0x6134706D), 48000 Hz, 5.1(side), fltp, 369 kb/s (default)
    Metadata:
      handler_name    : SoundHandler

comment:3 Changed 6 days ago by Kdmeizk

  • Resolution needs_more_info deleted
  • Status changed from closed to reopened
Note: See TracTickets for help on using tickets.