Opened 5 months ago

Closed 5 months ago

Last modified 5 months ago

#7551 closed defect (invalid)

eac3_core doesn't seem work as expected?

Reported by: Sami32 Owned by:
Priority: normal Component: undetermined
Version: git-master Keywords:
Cc: Blocked By:
Blocking: Reproduced by developer: no
Analyzed by developer: no

Description

Summary of the bug:
It doesn't seem to have any effect as i still get the EAC3 audio stream in the output.

How to reproduce:
% ffmpeg.exe -copyts -i "[DragsterPS] Switched S01E05 [720p] [Multi-Audio] [Multi-Subs] [7C81A7FF].mkv" -map 0:V -map 0:a:2 -map 0:s:0 -map_chapters -1 -c:v copy -bsf:a eac3_core -fflags +bitexact -c:a copy -c:s copy -f matroska ffmpegvideo_64_1542472662390_copyts.mkv

Sample used:
https://nyaa.si/view/1062197

ffmpeg.exe -copyts -i "[DragsterPS] Switched S01E05 [720p] [Multi-Audio] [Multi-Subs] [7C81A7FF].mkv" -map 0:V -map 0:a:2 -map 0:s:0 -map_chapters -1 -c:v copy -bsf:a eac3_core -fflags +bitexact -c:a copy -c:s copy -f matroska ffmpegvideo_64_1542472662390_copyts.mkv
ffmpeg version N-92458-gfc94e9704e Copyright (c) 2000-2018 the FFmpeg developers
  built with gcc 8.2.1 (GCC) 20181017
  configuration: --enable-gpl --enable-version3 --enable-sdl2 --enable-fontconfig --enable-gnutls --enable-iconv --enable-libass --enable-libbluray --enable-libfreetype --enable-libmp3lame --enable-libopencore-amrnb --enable-libopencore-amrwb --enable-libopenjpeg --enable-libopus --enable-libshine --enable-libsnappy --enable-libsoxr --enable-libtheora --enable-libtwolame --enable-libvpx --enable-libwavpack --enable-libwebp --enable-libx264 --enable-libx265 --enable-libxml2 --enable-libzimg --enable-lzma --enable-zlib --enable-gmp --enable-libvidstab --enable-libvorbis --enable-libvo-amrwbenc --enable-libmysofa --enable-libspeex --enable-libxvid --enable-libaom --enable-libmfx --enable-amf --enable-ffnvcodec --enable-cuvid --enable-d3d11va --enable-nvenc --enable-nvdec --enable-dxva2 --enable-avisynth
  libavutil      56. 23.101 / 56. 23.101
  libavcodec     58. 39.100 / 58. 39.100
  libavformat    58. 22.100 / 58. 22.100
  libavdevice    58.  6.100 / 58.  6.100
  libavfilter     7. 44.100 /  7. 44.100
  libswscale      5.  4.100 /  5.  4.100
  libswresample   3.  4.100 /  3.  4.100
  libpostproc    55.  4.100 / 55.  4.100
Splitting the commandline.
Reading option '-y' ... matched as option 'y' (overwrite output files) with argument '1'.
Reading option '-report' ... matched as option 'report' (generate a report) with argument '1'.
Reading option '-loglevel' ... matched as option 'loglevel' (set logging level) with argument '99'.
Reading option '-copyts' ... matched as option 'copyts' (copy timestamps) with argument '1'.
Reading option '-i' ... matched as input url with argument '[DragsterPS] Switched S01E05 [720p] [Multi-Audio] [Multi-Subs] [7C81A7FF].mkv'.
Reading option '-map' ... matched as option 'map' (set input stream mapping) with argument '0:V'.
Reading option '-map' ... matched as option 'map' (set input stream mapping) with argument '0:a:2'.
Reading option '-map' ... matched as option 'map' (set input stream mapping) with argument '0:s:0'.
Reading option '-map_chapters' ... matched as option 'map_chapters' (set chapters mapping) with argument '-1'.
Reading option '-c:v' ... matched as option 'c' (codec name) with argument 'copy'.
Reading option '-bsf:a' ... matched as option 'bsf' (A comma-separated list of bitstream filters) with argument 'eac3_core'.
Reading option '-fflags' ... matched as AVOption 'fflags' with argument '+bitexact'.
Reading option '-c:a' ... matched as option 'c' (codec name) with argument 'copy'.
Reading option '-c:s' ... matched as option 'c' (codec name) with argument 'copy'.
Reading option '-f' ... matched as option 'f' (force format) with argument 'matroska'.
Reading option 'ffmpegvideo_64_1542472662390_copyts.mkv' ... matched as output url.
Finished splitting the commandline.
Parsing a group of options: global .
Applying option y (overwrite output files) with argument 1.
Applying option report (generate a report) with argument 1.
Applying option loglevel (set logging level) with argument 99.
Applying option copyts (copy timestamps) with argument 1.
Successfully parsed a group of options.
Parsing a group of options: input url [DragsterPS] Switched S01E05 [720p] [Multi-Audio] [Multi-Subs] [7C81A7FF].mkv.
Successfully parsed a group of options.
Opening an input file: [DragsterPS] Switched S01E05 [720p] [Multi-Audio] [Multi-Subs] [7C81A7FF].mkv.
[NULL @ 03c8f800] Opening '[DragsterPS] Switched S01E05 [720p] [Multi-Audio] [Multi-Subs] [7C81A7FF].mkv' for reading
[file @ 04e67e40] Setting default whitelist 'file,crypto'
[matroska,webm @ 03c8f800] Format matroska,webm probed with size=2048 and score=100
st:0 removing common factor 1000000 from timebase
st:1 removing common factor 1000000 from timebase
st:2 removing common factor 1000000 from timebase
st:3 removing common factor 1000000 from timebase
st:4 removing common factor 1000000 from timebase
st:5 removing common factor 1000000 from timebase
st:6 removing common factor 1000000 from timebase
st:7 removing common factor 1000000 from timebase
st:8 removing common factor 1000000 from timebase
st:9 removing common factor 1000000 from timebase
st:10 removing common factor 1000000 from timebase
st:11 removing common factor 1000000 from timebase
st:12 removing common factor 1000000 from timebase
st:13 removing common factor 1000000 from timebase
st:14 removing common factor 1000000 from timebase
st:15 removing common factor 1000000 from timebase
st:16 removing common factor 1000000 from timebase
st:17 removing common factor 1000000 from timebase
st:18 removing common factor 1000000 from timebase
st:19 removing common factor 1000000 from timebase
st:20 removing common factor 1000000 from timebase
st:21 removing common factor 1000000 from timebase
st:22 removing common factor 1000000 from timebase
st:23 removing common factor 1000000 from timebase
st:24 removing common factor 1000000 from timebase
st:25 removing common factor 1000000 from timebase
st:26 removing common factor 1000000 from timebase
st:27 removing common factor 1000000 from timebase
st:28 removing common factor 1000000 from timebase
st:29 removing common factor 1000000 from timebase
[matroska,webm @ 03c8f800] Before avformat_find_stream_info() pos: 8255 bytes read:43991 seeks:2 nb_streams:30
[h264 @ 04eaef80] nal_unit_type: 7(SPS), nal_ref_idc: 3
[h264 @ 04eaef80] nal_unit_type: 8(PPS), nal_ref_idc: 3
[h264 @ 04eaef80] nal_unit_type: 7(SPS), nal_ref_idc: 3
[h264 @ 04eaef80] nal_unit_type: 8(PPS), nal_ref_idc: 3
[h264 @ 04eaef80] nal_unit_type: 6(SEI), nal_ref_idc: 0
[h264 @ 04eaef80] nal_unit_type: 6(SEI), nal_ref_idc: 0
[h264 @ 04eaef80] nal_unit_type: 6(SEI), nal_ref_idc: 0
[h264 @ 04eaef80] nal_unit_type: 5(IDR), nal_ref_idc: 3
[h264 @ 04eaef80] Format yuv420p chosen by get_format().
[h264 @ 04eaef80] Reinit context to 1280x720, pix_fmt: yuv420p
[h264 @ 04eaef80] no picture 
[matroska,webm @ 03c8f800] All info found
[matroska,webm @ 03c8f800] After avformat_find_stream_info() pos: 25834 bytes read:76759 seeks:2 frames:31
Guessed Channel Layout for Input Stream #0.1 : stereo
Guessed Channel Layout for Input Stream #0.2 : stereo
Guessed Channel Layout for Input Stream #0.3 : stereo
Guessed Channel Layout for Input Stream #0.4 : stereo
Input #0, matroska,webm, from '[DragsterPS] Switched S01E05 [720p] [Multi-Audio] [Multi-Subs] [7C81A7FF].mkv':
  Metadata:
    encoder         : libebml v1.3.6 + libmatroska v1.4.9
    creation_time   : 2018-08-01T14:33:07.000000Z
  Duration: 00:35:46.34, start: 0.000000, bitrate: 1872 kb/s
    Stream #0:0, 3, 1/1000: Video: h264 (Main), 1 reference frame, yuv420p(progressive, left), 1280x720 [SAR 1:1 DAR 16:9], 0/1, 23.98 fps, 23.98 tbr, 1k tbn, 47.95 tbc (default)
    Metadata:
      BPS-eng         : 1355529
      DURATION-eng    : 00:35:46.228000000
      NUMBER_OF_FRAMES-eng: 51458
      NUMBER_OF_BYTES-eng: 363659412
      _STATISTICS_WRITING_APP-eng: mkvmerge v25.0.0 ('Prog Noir') 32-bit
      _STATISTICS_WRITING_DATE_UTC-eng: 2018-08-01 14:33:07
      _STATISTICS_TAGS-eng: BPS DURATION NUMBER_OF_FRAMES NUMBER_OF_BYTES
    Stream #0:1(chi), 7, 1/1000: Audio: eac3, 48000 Hz, stereo, fltp
    Metadata:
      title           : Mandarin
      BPS-eng         : 128000
      DURATION-eng    : 00:35:46.336000000
      NUMBER_OF_FRAMES-eng: 67073
      NUMBER_OF_BYTES-eng: 34341376
      _STATISTICS_WRITING_APP-eng: mkvmerge v25.0.0 ('Prog Noir') 32-bit
      _STATISTICS_WRITING_DATE_UTC-eng: 2018-08-01 14:33:07
      _STATISTICS_TAGS-eng: BPS DURATION NUMBER_OF_FRAMES NUMBER_OF_BYTES
    Stream #0:2(chi), 7, 1/1000: Audio: eac3, 48000 Hz, stereo, fltp
    Metadata:
      title           : Cantonese
      BPS-eng         : 128000
      DURATION-eng    : 00:35:46.336000000
      NUMBER_OF_FRAMES-eng: 67073
      NUMBER_OF_BYTES-eng: 34341376
      _STATISTICS_WRITING_APP-eng: mkvmerge v25.0.0 ('Prog Noir') 32-bit
      _STATISTICS_WRITING_DATE_UTC-eng: 2018-08-01 14:33:07
      _STATISTICS_TAGS-eng: BPS DURATION NUMBER_OF_FRAMES NUMBER_OF_BYTES
    Stream #0:3(jpn), 7, 1/1000: Audio: eac3, 48000 Hz, stereo, fltp
    Metadata:
      title           : Japanese
      BPS-eng         : 128000
      DURATION-eng    : 00:35:46.336000000
      NUMBER_OF_FRAMES-eng: 67073
      NUMBER_OF_BYTES-eng: 34341376
      _STATISTICS_WRITING_APP-eng: mkvmerge v25.0.0 ('Prog Noir') 32-bit
      _STATISTICS_WRITING_DATE_UTC-eng: 2018-08-01 14:33:07
      _STATISTICS_TAGS-eng: BPS DURATION NUMBER_OF_FRAMES NUMBER_OF_BYTES
    Stream #0:4(jpn), 7, 1/1000: Audio: eac3, 48000 Hz, stereo, fltp
    Metadata:
      title           : Japanese (Audio Description)
      BPS-eng         : 128000
      DURATION-eng    : 00:35:46.336000000
      NUMBER_OF_FRAMES-eng: 67073
      NUMBER_OF_BYTES-eng: 34341376
      _STATISTICS_WRITING_APP-eng: mkvmerge v25.0.0 ('Prog Noir') 32-bit
      _STATISTICS_WRITING_DATE_UTC-eng: 2018-08-01 14:33:07
      _STATISTICS_TAGS-eng: BPS DURATION NUMBER_OF_FRAMES NUMBER_OF_BYTES
    Stream #0:5(eng), 0, 1/1000: Subtitle: subrip
    Metadata:
      title           : English [Full]
      BPS-eng         : 36
      DURATION-eng    : 00:35:04.352000000
      NUMBER_OF_FRAMES-eng: 395
      NUMBER_OF_BYTES-eng: 9532
      _STATISTICS_WRITING_APP-eng: mkvmerge v25.0.0 ('Prog Noir') 32-bit
      _STATISTICS_WRITING_DATE_UTC-eng: 2018-08-01 14:33:07
      _STATISTICS_TAGS-eng: BPS DURATION NUMBER_OF_FRAMES NUMBER_OF_BYTES
    Stream #0:6(spa), 0, 1/1000: Subtitle: subrip
    Metadata:
      title           : Castilian [Full]
      BPS-eng         : 32
      DURATION-eng    : 00:35:29.794000000
      NUMBER_OF_FRAMES-eng: 380
      NUMBER_OF_BYTES-eng: 8562
      _STATISTICS_WRITING_APP-eng: mkvmerge v25.0.0 ('Prog Noir') 32-bit
      _STATISTICS_WRITING_DATE_UTC-eng: 2018-08-01 14:33:07
      _STATISTICS_TAGS-eng: BPS DURATION NUMBER_OF_FRAMES NUMBER_OF_BYTES
    Stream #0:7(spa), 0, 1/1000: Subtitle: subrip
    Metadata:
      title           : Spanish [Full]
      BPS-eng         : 34
      DURATION-eng    : 00:33:36.223000000
      NUMBER_OF_FRAMES-eng: 399
      NUMBER_OF_BYTES-eng: 8781
      _STATISTICS_WRITING_APP-eng: mkvmerge v25.0.0 ('Prog Noir') 32-bit
      _STATISTICS_WRITING_DATE_UTC-eng: 2018-08-01 14:33:07
      _STATISTICS_TAGS-eng: BPS DURATION NUMBER_OF_FRAMES NUMBER_OF_BYTES
    Stream #0:8(fre), 0, 1/1000: Subtitle: subrip
    Metadata:
      title           : French [Full]
      BPS-eng         : 34
      DURATION-eng    : 00:35:04.352000000
      NUMBER_OF_FRAMES-eng: 400
      NUMBER_OF_BYTES-eng: 9011
      _STATISTICS_WRITING_APP-eng: mkvmerge v25.0.0 ('Prog Noir') 32-bit
      _STATISTICS_WRITING_DATE_UTC-eng: 2018-08-01 14:33:07
      _STATISTICS_TAGS-eng: BPS DURATION NUMBER_OF_FRAMES NUMBER_OF_BYTES
    Stream #0:9(ger), 0, 1/1000: Subtitle: subrip
    Metadata:
      title           : German [Full]
      BPS-eng         : 40
      DURATION-eng    : 00:35:04.352000000
      NUMBER_OF_FRAMES-eng: 401
      NUMBER_OF_BYTES-eng: 10587
      _STATISTICS_WRITING_APP-eng: mkvmerge v25.0.0 ('Prog Noir') 32-bit
      _STATISTICS_WRITING_DATE_UTC-eng: 2018-08-01 14:33:07
      _STATISTICS_TAGS-eng: BPS DURATION NUMBER_OF_FRAMES NUMBER_OF_BYTES
    Stream #0:10(ita), 0, 1/1000: Subtitle: subrip
    Metadata:
      title           : Italian [Full]
      BPS-eng         : 35
      DURATION-eng    : 00:35:29.794000000
      NUMBER_OF_FRAMES-eng: 400
      NUMBER_OF_BYTES-eng: 9318
      _STATISTICS_WRITING_APP-eng: mkvmerge v25.0.0 ('Prog Noir') 32-bit
      _STATISTICS_WRITING_DATE_UTC-eng: 2018-08-01 14:33:07
      _STATISTICS_TAGS-eng: BPS DURATION NUMBER_OF_FRAMES NUMBER_OF_BYTES
    Stream #0:11(por), 0, 1/1000: Subtitle: subrip
    Metadata:
      title           : Portuguese [Full]
      BPS-eng         : 37
      DURATION-eng    : 00:35:29.836000000
      NUMBER_OF_FRAMES-eng: 401
      NUMBER_OF_BYTES-eng: 9906
      _STATISTICS_WRITING_APP-eng: mkvmerge v25.0.0 ('Prog Noir') 32-bit
      _STATISTICS_WRITING_DATE_UTC-eng: 2018-08-01 14:33:07
      _STATISTICS_TAGS-eng: BPS DURATION NUMBER_OF_FRAMES NUMBER_OF_BYTES
    Stream #0:12(por), 0, 1/1000: Subtitle: subrip
    Metadata:
      title           : Brazilian Portuguese [Full]
      BPS-eng         : 32
      DURATION-eng    : 00:35:04.352000000
      NUMBER_OF_FRAMES-eng: 399
      NUMBER_OF_BYTES-eng: 8476
      _STATISTICS_WRITING_APP-eng: mkvmerge v25.0.0 ('Prog Noir') 32-bit
      _STATISTICS_WRITING_DATE_UTC-eng: 2018-08-01 14:33:07
      _STATISTICS_TAGS-eng: BPS DURATION NUMBER_OF_FRAMES NUMBER_OF_BYTES
    Stream #0:13(pol), 0, 1/1000: Subtitle: subrip
    Metadata:
      title           : Polish [Full]
      BPS-eng         : 35
      DURATION-eng    : 00:35:04.352000000
      NUMBER_OF_FRAMES-eng: 397
      NUMBER_OF_BYTES-eng: 9385
      _STATISTICS_WRITING_APP-eng: mkvmerge v25.0.0 ('Prog Noir') 32-bit
      _STATISTICS_WRITING_DATE_UTC-eng: 2018-08-01 14:33:07
      _STATISTICS_TAGS-eng: BPS DURATION NUMBER_OF_FRAMES NUMBER_OF_BYTES
    Stream #0:14(tur), 0, 1/1000: Subtitle: subrip
    Metadata:
      title           : Turkish [Full]
      BPS-eng         : 37
      DURATION-eng    : 00:33:37.641000000
      NUMBER_OF_FRAMES-eng: 400
      NUMBER_OF_BYTES-eng: 9352
      _STATISTICS_WRITING_APP-eng: mkvmerge v25.0.0 ('Prog Noir') 32-bit
      _STATISTICS_WRITING_DATE_UTC-eng: 2018-08-01 14:33:07
      _STATISTICS_TAGS-eng: BPS DURATION NUMBER_OF_FRAMES NUMBER_OF_BYTES
    Stream #0:15(swe), 0, 1/1000: Subtitle: subrip
    Metadata:
      title           : Swedish [Full]
      BPS-eng         : 32
      DURATION-eng    : 00:35:29.794000000
      NUMBER_OF_FRAMES-eng: 349
      NUMBER_OF_BYTES-eng: 8648
      _STATISTICS_WRITING_APP-eng: mkvmerge v25.0.0 ('Prog Noir') 32-bit
      _STATISTICS_WRITING_DATE_UTC-eng: 2018-08-01 14:33:07
      _STATISTICS_TAGS-eng: BPS DURATION NUMBER_OF_FRAMES NUMBER_OF_BYTES
    Stream #0:16(dan), 0, 1/1000: Subtitle: subrip
    Metadata:
      title           : Danish [Full]
      BPS-eng         : 36
      DURATION-eng    : 00:35:29.794000000
      NUMBER_OF_FRAMES-eng: 393
      NUMBER_OF_BYTES-eng: 9845
      _STATISTICS_WRITING_APP-eng: mkvmerge v25.0.0 ('Prog Noir') 32-bit
      _STATISTICS_WRITING_DATE_UTC-eng: 2018-08-01 14:33:07
      _STATISTICS_TAGS-eng: BPS DURATION NUMBER_OF_FRAMES NUMBER_OF_BYTES
    Stream #0:17(fin), 0, 1/1000: Subtitle: subrip
    Metadata:
      title           : Finnish [Full]
      BPS-eng         : 30
      DURATION-eng    : 00:35:04.352000000
      NUMBER_OF_FRAMES-eng: 382
      NUMBER_OF_BYTES-eng: 8094
      _STATISTICS_WRITING_APP-eng: mkvmerge v25.0.0 ('Prog Noir') 32-bit
      _STATISTICS_WRITING_DATE_UTC-eng: 2018-08-01 14:33:07
      _STATISTICS_TAGS-eng: BPS DURATION NUMBER_OF_FRAMES NUMBER_OF_BYTES
    Stream #0:18(dut), 0, 1/1000: Subtitle: subrip
    Metadata:
      title           : Dutch [Full]
      BPS-eng         : 30
      DURATION-eng    : 00:35:04.352000000
      NUMBER_OF_FRAMES-eng: 389
      NUMBER_OF_BYTES-eng: 7934
      _STATISTICS_WRITING_APP-eng: mkvmerge v25.0.0 ('Prog Noir') 32-bit
      _STATISTICS_WRITING_DATE_UTC-eng: 2018-08-01 14:33:07
      _STATISTICS_TAGS-eng: BPS DURATION NUMBER_OF_FRAMES NUMBER_OF_BYTES
    Stream #0:19(nor), 0, 1/1000: Subtitle: subrip
    Metadata:
      title           : Norwegian [Full]
      BPS-eng         : 38
      DURATION-eng    : 00:35:04.352000000
      NUMBER_OF_FRAMES-eng: 400
      NUMBER_OF_BYTES-eng: 10214
      _STATISTICS_WRITING_APP-eng: mkvmerge v25.0.0 ('Prog Noir') 32-bit
      _STATISTICS_WRITING_DATE_UTC-eng: 2018-08-01 14:33:07
      _STATISTICS_TAGS-eng: BPS DURATION NUMBER_OF_FRAMES NUMBER_OF_BYTES
    Stream #0:20(gre), 0, 1/1000: Subtitle: subrip
    Metadata:
      title           : Greek [Full]
      BPS-eng         : 62
      DURATION-eng    : 00:35:04.352000000
      NUMBER_OF_FRAMES-eng: 398
      NUMBER_OF_BYTES-eng: 16317
      _STATISTICS_WRITING_APP-eng: mkvmerge v25.0.0 ('Prog Noir') 32-bit
      _STATISTICS_WRITING_DATE_UTC-eng: 2018-08-01 14:33:07
      _STATISTICS_TAGS-eng: BPS DURATION NUMBER_OF_FRAMES NUMBER_OF_BYTES
    Stream #0:21(heb), 0, 1/1000: Subtitle: subrip
    Metadata:
      title           : Hebrew [Full]
      BPS-eng         : 58
      DURATION-eng    : 00:35:04.352000000
      NUMBER_OF_FRAMES-eng: 400
      NUMBER_OF_BYTES-eng: 15436
      _STATISTICS_WRITING_APP-eng: mkvmerge v25.0.0 ('Prog Noir') 32-bit
      _STATISTICS_WRITING_DATE_UTC-eng: 2018-08-01 14:33:07
      _STATISTICS_TAGS-eng: BPS DURATION NUMBER_OF_FRAMES NUMBER_OF_BYTES
    Stream #0:22(ara), 0, 1/1000: Subtitle: subrip
    Metadata:
      title           : Arabic [Full]
      BPS-eng         : 61
      DURATION-eng    : 00:35:04.352000000
      NUMBER_OF_FRAMES-eng: 400
      NUMBER_OF_BYTES-eng: 16274
      _STATISTICS_WRITING_APP-eng: mkvmerge v25.0.0 ('Prog Noir') 32-bit
      _STATISTICS_WRITING_DATE_UTC-eng: 2018-08-01 14:33:07
      _STATISTICS_TAGS-eng: BPS DURATION NUMBER_OF_FRAMES NUMBER_OF_BYTES
    Stream #0:23(rum), 0, 1/1000: Subtitle: subrip
    Metadata:
      title           : Romanian [Full]
      BPS-eng         : 35
      DURATION-eng    : 00:35:04.352000000
      NUMBER_OF_FRAMES-eng: 399
      NUMBER_OF_BYTES-eng: 9433
      _STATISTICS_WRITING_APP-eng: mkvmerge v25.0.0 ('Prog Noir') 32-bit
      _STATISTICS_WRITING_DATE_UTC-eng: 2018-08-01 14:33:07
      _STATISTICS_TAGS-eng: BPS DURATION NUMBER_OF_FRAMES NUMBER_OF_BYTES
    Stream #0:24(tha), 0, 1/1000: Subtitle: subrip
    Metadata:
      title           : Thai [Full]
      BPS-eng         : 107
      DURATION-eng    : 00:35:29.836000000
      NUMBER_OF_FRAMES-eng: 400
      NUMBER_OF_BYTES-eng: 28663
      _STATISTICS_WRITING_APP-eng: mkvmerge v25.0.0 ('Prog Noir') 32-bit
      _STATISTICS_WRITING_DATE_UTC-eng: 2018-08-01 14:33:07
      _STATISTICS_TAGS-eng: BPS DURATION NUMBER_OF_FRAMES NUMBER_OF_BYTES
    Stream #0:25(kor), 0, 1/1000: Subtitle: subrip
    Metadata:
      title           : Korean [Full]
      BPS-eng         : 40
      DURATION-eng    : 00:35:04.352000000
      NUMBER_OF_FRAMES-eng: 400
      NUMBER_OF_BYTES-eng: 10646
      _STATISTICS_WRITING_APP-eng: mkvmerge v25.0.0 ('Prog Noir') 32-bit
      _STATISTICS_WRITING_DATE_UTC-eng: 2018-08-01 14:33:07
      _STATISTICS_TAGS-eng: BPS DURATION NUMBER_OF_FRAMES NUMBER_OF_BYTES
    Stream #0:26(chi), 0, 1/1000: Subtitle: subrip (forced)
    Metadata:
      title           : Chinese (Simplified) [Forced]
      BPS-eng         : 1
      DURATION-eng    : 00:26:49.441000000
      NUMBER_OF_FRAMES-eng: 8
      NUMBER_OF_BYTES-eng: 212
      _STATISTICS_WRITING_APP-eng: mkvmerge v25.0.0 ('Prog Noir') 32-bit
      _STATISTICS_WRITING_DATE_UTC-eng: 2018-08-01 14:33:07
      _STATISTICS_TAGS-eng: BPS DURATION NUMBER_OF_FRAMES NUMBER_OF_BYTES
    Stream #0:27(chi), 0, 1/1000: Subtitle: subrip
    Metadata:
      title           : Chinese (Simplified) [Full]
      BPS-eng         : 32
      DURATION-eng    : 00:35:04.352000000
      NUMBER_OF_FRAMES-eng: 400
      NUMBER_OF_BYTES-eng: 8636
      _STATISTICS_WRITING_APP-eng: mkvmerge v25.0.0 ('Prog Noir') 32-bit
      _STATISTICS_WRITING_DATE_UTC-eng: 2018-08-01 14:33:07
      _STATISTICS_TAGS-eng: BPS DURATION NUMBER_OF_FRAMES NUMBER_OF_BYTES
    Stream #0:28(chi), 0, 1/1000: Subtitle: subrip
    Metadata:
      title           : Chinese (Traditional) [Full]
      BPS-eng         : 31
      DURATION-eng    : 00:35:29.794000000
      NUMBER_OF_FRAMES-eng: 404
      NUMBER_OF_BYTES-eng: 8369
      _STATISTICS_WRITING_APP-eng: mkvmerge v25.0.0 ('Prog Noir') 32-bit
      _STATISTICS_WRITING_DATE_UTC-eng: 2018-08-01 14:33:07
      _STATISTICS_TAGS-eng: BPS DURATION NUMBER_OF_FRAMES NUMBER_OF_BYTES
    Stream #0:29(jpn), 0, 1/1000: Subtitle: subrip
    Metadata:
      title           : Japanese [SDH]
      BPS-eng         : 56
      DURATION-eng    : 00:34:58.931000000
      NUMBER_OF_FRAMES-eng: 400
      NUMBER_OF_BYTES-eng: 14843
      _STATISTICS_WRITING_APP-eng: mkvmerge v25.0.0 ('Prog Noir') 32-bit
      _STATISTICS_WRITING_DATE_UTC-eng: 2018-08-01 14:33:07
      _STATISTICS_TAGS-eng: BPS DURATION NUMBER_OF_FRAMES NUMBER_OF_BYTES
Successfully opened the file.
Parsing a group of options: output url ffmpegvideo_64_1542472662390_copyts.mkv.
Applying option map (set input stream mapping) with argument 0:V.
Applying option map (set input stream mapping) with argument 0:a:2.
Applying option map (set input stream mapping) with argument 0:s:0.
Applying option map_chapters (set chapters mapping) with argument -1.
Applying option c:v (codec name) with argument copy.
Applying option bsf:a (A comma-separated list of bitstream filters) with argument eac3_core.
Applying option c:a (codec name) with argument copy.
Applying option c:s (codec name) with argument copy.
Applying option f (force format) with argument matroska.
Successfully parsed a group of options.
Opening an output file: ffmpegvideo_64_1542472662390_copyts.mkv.
[file @ 04ebda00] Setting default whitelist 'file,crypto'
Successfully opened the file.
[matroska @ 04ef63c0] get_metadata_duration returned: 0
Output #0, matroska, to 'ffmpegvideo_64_1542472662390_copyts.mkv':
    Stream #0:0, 0, 1/1000: Video: h264 (Main), 1 reference frame (H264 / 0x34363248), yuv420p(progressive, left), 1280x720 (0x0) [SAR 1:1 DAR 16:9], 0/1, q=2-31, 23.98 fps, 23.98 tbr, 1k tbn, 1k tbc (default)
    Metadata:
      BPS-eng         : 1355529
      DURATION-eng    : 00:35:46.228000000
      NUMBER_OF_FRAMES-eng: 51458
      NUMBER_OF_BYTES-eng: 363659412
      _STATISTICS_WRITING_APP-eng: mkvmerge v25.0.0 ('Prog Noir') 32-bit
      _STATISTICS_WRITING_DATE_UTC-eng: 2018-08-01 14:33:07
      _STATISTICS_TAGS-eng: BPS DURATION NUMBER_OF_FRAMES NUMBER_OF_BYTES
    Stream #0:1(jpn), 0, 1/1000: Audio: eac3 ([0] [0][0] / 0x2000), 48000 Hz, stereo, fltp
    Metadata:
      title           : Japanese
      BPS-eng         : 128000
      DURATION-eng    : 00:35:46.336000000
      NUMBER_OF_FRAMES-eng: 67073
      NUMBER_OF_BYTES-eng: 34341376
      _STATISTICS_WRITING_APP-eng: mkvmerge v25.0.0 ('Prog Noir') 32-bit
      _STATISTICS_WRITING_DATE_UTC-eng: 2018-08-01 14:33:07
      _STATISTICS_TAGS-eng: BPS DURATION NUMBER_OF_FRAMES NUMBER_OF_BYTES
    Stream #0:2(eng), 0, 1/1000: Subtitle: subrip
    Metadata:
      title           : English [Full]
      BPS-eng         : 36
      DURATION-eng    : 00:35:04.352000000
      NUMBER_OF_FRAMES-eng: 395
      NUMBER_OF_BYTES-eng: 9532
      _STATISTICS_WRITING_APP-eng: mkvmerge v25.0.0 ('Prog Noir') 32-bit
      _STATISTICS_WRITING_DATE_UTC-eng: 2018-08-01 14:33:07
      _STATISTICS_TAGS-eng: BPS DURATION NUMBER_OF_FRAMES NUMBER_OF_BYTES
Stream mapping:
  Stream #0:0 -> #0:0 (copy)
  Stream #0:3 -> #0:1 (copy)
  Stream #0:5 -> #0:2 (copy)
Press [q] to stop, [?] for help
cur_dts is invalid (this is harmless if it occurs once at the start per stream)
cur_dts is invalid (this is harmless if it occurs once at the start per stream)
cur_dts is invalid (this is harmless if it occurs once at the start per stream)
cur_dts is invalid (this is harmless if it occurs once at the start per stream)
cur_dts is invalid (this is harmless if it occurs once at the start per stream)
cur_dts is invalid (this is harmless if it occurs once at the start per stream)
cur_dts is invalid (this is harmless if it occurs once at the start per stream)
cur_dts is invalid (this is harmless if it occurs once at the start per stream)
cur_dts is invalid (this is harmless if it occurs once at the start per stream)
cur_dts is invalid (this is harmless if it occurs once at the start per stream)
cur_dts is invalid (this is harmless if it occurs once at the start per stream)
cur_dts is invalid (this is harmless if it occurs once at the start per stream)
cur_dts is invalid (this is harmless if it occurs once at the start per stream)
cur_dts is invalid (this is harmless if it occurs once at the start per stream)
cur_dts is invalid (this is harmless if it occurs once at the start per stream)
cur_dts is invalid (this is harmless if it occurs once at the start per stream)
cur_dts is invalid (this is harmless if it occurs once at the start per stream)
cur_dts is invalid (this is harmless if it occurs once at the start per stream)
cur_dts is invalid (this is harmless if it occurs once at the start per stream)
cur_dts is invalid (this is harmless if it occurs once at the start per stream)
cur_dts is invalid (this is harmless if it occurs once at the start per stream)
cur_dts is invalid (this is harmless if it occurs once at the start per stream)
cur_dts is invalid (this is harmless if it occurs once at the start per stream)
cur_dts is invalid (this is harmless if it occurs once at the start per stream)
cur_dts is invalid (this is harmless if it occurs once at the start per stream)
cur_dts is invalid (this is harmless if it occurs once at the start per stream)
cur_dts is invalid (this is harmless if it occurs once at the start per stream)
cur_dts is invalid (this is harmless if it occurs once at the start per stream)
cur_dts is invalid (this is harmless if it occurs once at the start per stream)
cur_dts is invalid (this is harmless if it occurs once at the start per stream)
cur_dts is invalid (this is harmless if it occurs once at the start per stream)
cur_dts is invalid (this is harmless if it occurs once at the start per stream)
cur_dts is invalid (this is harmless if it occurs once at the start per stream)
cur_dts is invalid (this is harmless if it occurs once at the start per stream)
cur_dts is invalid (this is harmless if it occurs once at the start per stream)
cur_dts is invalid (this is harmless if it occurs once at the start per stream)
cur_dts is invalid (this is harmless if it occurs once at the start per stream)
cur_dts is invalid (this is harmless if it occurs once at the start per stream)
cur_dts is invalid (this is harmless if it occurs once at the start per stream)
cur_dts is invalid (this is harmless if it occurs once at the start per stream)
cur_dts is invalid (this is harmless if it occurs once at the start per stream)
cur_dts is invalid (this is harmless if it occurs once at the start per stream)
cur_dts is invalid (this is harmless if it occurs once at the start per stream)
cur_dts is invalid (this is harmless if it occurs once at the start per stream)
cur_dts is invalid (this is harmless if it occurs once at the start per stream)
cur_dts is invalid (this is harmless if it occurs once at the start per stream)
cur_dts is invalid (this is harmless if it occurs once at the start per stream)
cur_dts is invalid (this is harmless if it occurs once at the start per stream)
cur_dts is invalid (this is harmless if it occurs once at the start per stream)
cur_dts is invalid (this is harmless if it occurs once at the start per stream)
cur_dts is invalid (this is harmless if it occurs once at the start per stream)
cur_dts is invalid (this is harmless if it occurs once at the start per stream)
cur_dts is invalid (this is harmless if it occurs once at the start per stream)
cur_dts is invalid (this is harmless if it occurs once at the start per stream)
cur_dts is invalid (this is harmless if it occurs once at the start per stream)
cur_dts is invalid (this is harmless if it occurs once at the start per stream)
cur_dts is invalid (this is harmless if it occurs once at the start per stream)
cur_dts is invalid (this is harmless if it occurs once at the start per stream)
cur_dts is invalid (this is harmless if it occurs once at the start per stream)
cur_dts is invalid (this is harmless if it occurs once at the start per stream)
cur_dts is invalid (this is harmless if it occurs once at the start per stream)
cur_dts is invalid (this is harmless if it occurs once at the start per stream)
cur_dts is invalid (this is harmless if it occurs once at the start per stream)
cur_dts is invalid (this is harmless if it occurs once at the start per stream)
cur_dts is invalid (this is harmless if it occurs once at the start per stream)
cur_dts is invalid (this is harmless if it occurs once at the start per stream)
cur_dts is invalid (this is harmless if it occurs once at the start per stream)
cur_dts is invalid (this is harmless if it occurs once at the start per stream)
cur_dts is invalid (this is harmless if it occurs once at the start per stream)
cur_dts is invalid (this is harmless if it occurs once at the start per stream)
cur_dts is invalid (this is harmless if it occurs once at the start per stream)
cur_dts is invalid (this is harmless if it occurs once at the start per stream)
cur_dts is invalid (this is harmless if it occurs once at the start per stream)
cur_dts is invalid (this is harmless if it occurs once at the start per stream)
cur_dts is invalid (this is harmless if it occurs once at the start per stream)
cur_dts is invalid (this is harmless if it occurs once at the start per stream)
cur_dts is invalid (this is harmless if it occurs once at the start per stream)
cur_dts is invalid (this is harmless if it occurs once at the start per stream)
cur_dts is invalid (this is harmless if it occurs once at the start per stream)
cur_dts is invalid (this is harmless if it occurs once at the start per stream)
cur_dts is invalid (this is harmless if it occurs once at the start per stream)
cur_dts is invalid (this is harmless if it occurs once at the start per stream)
cur_dts is invalid (this is harmless if it occurs once at the start per stream)
cur_dts is invalid (this is harmless if it occurs once at the start per stream)
cur_dts is invalid (this is harmless if it occurs once at the start per stream)
cur_dts is invalid (this is harmless if it occurs once at the start per stream)
cur_dts is invalid (this is harmless if it occurs once at the start per stream)
cur_dts is invalid (this is harmless if it occurs once at the start per stream)
cur_dts is invalid (this is harmless if it occurs once at the start per stream)
cur_dts is invalid (this is harmless if it occurs once at the start per stream)
cur_dts is invalid (this is harmless if it occurs once at the start per stream)
cur_dts is invalid (this is harmless if it occurs once at the start per stream)
cur_dts is invalid (this is harmless if it occurs once at the start per stream)
cur_dts is invalid (this is harmless if it occurs once at the start per stream)
cur_dts is invalid (this is harmless if it occurs once at the start per stream)
cur_dts is invalid (this is harmless if it occurs once at the start per stream)
...

Change History (4)

comment:1 Changed 5 months ago by Sami32

  • Version changed from unspecified to git-master

comment:2 Changed 5 months ago by cehoyos

  • Resolution set to invalid
  • Status changed from new to closed
  • Version changed from git-master to unspecified

Your console output doesn't indicate extra channels.

comment:3 Changed 5 months ago by Sami32

  • Version changed from unspecified to git-master

Can it be related that this EAC3 been weirdly set to low specifications like 2 channels and a bitrate of 128k?

comment:4 Changed 5 months ago by richardpl

Yes, there is nothing to remove, as there is only 2 channels. eac3_core removes extra channels from 7.1 setup into 5.1 for example.

Note: See TracTickets for help on using tickets.