Opened 3 weeks ago

Last modified 3 weeks ago

#7236 new defect

HLS stream input hangs

Reported by: BasiC007 Owned by:
Priority: important Component: undetermined
Version: git-master Keywords: hls mov regression
Cc: Blocked By:
Blocking: Reproduced by developer: no
Analyzed by developer: no

Description

Summary of the bug:
When using ffplay to play one of the Apple official HLS "bip bop" streams, the stream jams and eventually hangs. This wasn't a problem in 3.4.2 and is now a problem in both 4.0 and master.

How to reproduce:

% ffplay -i https://tungsten.aaplimg.com/VOD/bipbop_adv_example_hevc/master.m3u8
ffmpeg version 4.0 / master
built on May 28th 2018

Change History (10)

comment:1 Changed 3 weeks ago by cehoyos

Is the issue you see only reproducible with ffplay or also with ffmpeg?

comment:2 Changed 3 weeks ago by BasiC007

I tried doing
% ffmpeg -i https://tungsten.aaplimg.com/VOD/bipbop_adv_example_hevc/master.m3u8 -acodec copy -vcodec copy out.mp4

In this case the simple fact that the command ends after ~16 seconds seems odd as the live stream shouldn't end. The resulting file also hangs after 9 seconds over the 16 declared seconds the file should last.

comment:3 Changed 3 weeks ago by BasiC007

Note that the stream I've provided to repro is an fMP4 stream, but I also see the issue with TS HLS streams (https://devstreaming-cdn.apple.com/videos/streaming/examples/img_bipbop_adv_example_ts/master.m3u8).

comment:4 Changed 3 weeks ago by BasiC007

I have just rebuilt the 4.0 branch with a replaced libavformat/hls.c file to use the one from 3.4.2 and confirmed that I do not see the issue using ffmpeg.exe

comment:5 Changed 3 weeks ago by cehoyos

Please test current FFmpeg git head, the only version supported here.

comment:6 Changed 3 weeks ago by BasiC007

I tried the current git head with a FFMPEG 3.4.2 libavformat/hls.c file and the same ffmpeg command. The input itself doesn't stop running, but the resulting file has hanging video and A/V desync.

Last edited 3 weeks ago by BasiC007 (previous) (diff)

comment:7 Changed 3 weeks ago by cehoyos

  • Keywords mov regression added; apple removed
  • Priority changed from normal to important

Testing with ffplay, this looks like a regression since 4a9d32baca3af0d1831f9556a922c7ab5b426b10

comment:8 Changed 3 weeks ago by BasiC007

On my end, I tested 4a9d32baca3af0d1831f9556a922c7ab5b426b10 and the previous commit (2b320318273b74df6e1b712fb33544d6a1b26be1) using ffmpeg and found that in both cases the stream hangs after 6 seconds of playing back. The output file doesn't play under VLC.

comment:9 Changed 3 weeks ago by cehoyos

$ ffmpeg -i https://tungsten.aaplimg.com/VOD/bipbop_adv_example_hevc/master.m3u8 -qscale 2 out.avi
ffmpeg version N-88048-g2b32031 Copyright (c) 2000-2017 the FFmpeg developers
  built with gcc 4.7 (SUSE Linux)
  configuration: --enable-gpl --enable-gnutls
  libavutil      56.  0.100 / 56.  0.100
  libavcodec     58.  0.100 / 58.  0.100
  libavformat    58.  0.100 / 58.  0.100
  libavdevice    58.  0.100 / 58.  0.100
  libavfilter     7.  0.100 /  7.  0.100
  libswscale      5.  0.100 /  5.  0.100
  libswresample   3.  0.100 /  3.  0.100
  libpostproc    55.  0.100 / 55.  0.100
[hls,applehttp @ 0x2493600] Opening 'https://tungsten.aaplimg.com/VOD/bipbop_adv_example_hevc/a1/prog_index.m3u8' for reading
[hls,applehttp @ 0x2493600] Opening 'https://tungsten.aaplimg.com/VOD/bipbop_adv_example_hevc/a2/prog_index.m3u8' for reading
[hls,applehttp @ 0x2493600] Opening 'https://tungsten.aaplimg.com/VOD/bipbop_adv_example_hevc/a3/prog_index.m3u8' for reading
[hls,applehttp @ 0x2493600] Opening 'https://tungsten.aaplimg.com/VOD/bipbop_adv_example_hevc/v5/prog_index.m3u8' for reading
[hls,applehttp @ 0x2493600] Opening 'https://tungsten.aaplimg.com/VOD/bipbop_adv_example_hevc/v9/prog_index.m3u8' for reading
[hls,applehttp @ 0x2493600] Opening 'https://tungsten.aaplimg.com/VOD/bipbop_adv_example_hevc/v8/prog_index.m3u8' for reading
[hls,applehttp @ 0x2493600] Opening 'https://tungsten.aaplimg.com/VOD/bipbop_adv_example_hevc/v7/prog_index.m3u8' for reading
[hls,applehttp @ 0x2493600] Opening 'https://tungsten.aaplimg.com/VOD/bipbop_adv_example_hevc/v6/prog_index.m3u8' for reading
[hls,applehttp @ 0x2493600] Opening 'https://tungsten.aaplimg.com/VOD/bipbop_adv_example_hevc/v4/prog_index.m3u8' for reading
[hls,applehttp @ 0x2493600] Opening 'https://tungsten.aaplimg.com/VOD/bipbop_adv_example_hevc/v3/prog_index.m3u8' for reading
[hls,applehttp @ 0x2493600] Opening 'https://tungsten.aaplimg.com/VOD/bipbop_adv_example_hevc/v2/prog_index.m3u8' for reading
[hls,applehttp @ 0x2493600] Opening 'https://tungsten.aaplimg.com/VOD/bipbop_adv_example_hevc/v1/prog_index.m3u8' for reading
[hls,applehttp @ 0x2493600] Opening 'https://tungsten.aaplimg.com/VOD/bipbop_adv_example_hevc/v5/prog_index.m3u8' for reading
[hls,applehttp @ 0x2493600] Opening 'https://tungsten.aaplimg.com/VOD/bipbop_adv_example_hevc/v9/prog_index.m3u8' for reading
[hls,applehttp @ 0x2493600] Opening 'https://tungsten.aaplimg.com/VOD/bipbop_adv_example_hevc/v8/prog_index.m3u8' for reading
[hls,applehttp @ 0x2493600] Opening 'https://tungsten.aaplimg.com/VOD/bipbop_adv_example_hevc/v7/prog_index.m3u8' for reading
[hls,applehttp @ 0x2493600] Opening 'https://tungsten.aaplimg.com/VOD/bipbop_adv_example_hevc/v6/prog_index.m3u8' for reading
[hls,applehttp @ 0x2493600] Opening 'https://tungsten.aaplimg.com/VOD/bipbop_adv_example_hevc/v4/prog_index.m3u8' for reading
[hls,applehttp @ 0x2493600] Opening 'https://tungsten.aaplimg.com/VOD/bipbop_adv_example_hevc/v3/prog_index.m3u8' for reading
[hls,applehttp @ 0x2493600] Opening 'https://tungsten.aaplimg.com/VOD/bipbop_adv_example_hevc/v2/prog_index.m3u8' for reading
[hls,applehttp @ 0x2493600] Opening 'https://tungsten.aaplimg.com/VOD/bipbop_adv_example_hevc/v1/prog_index.m3u8' for reading
[hls,applehttp @ 0x2493600] Opening 'https://tungsten.aaplimg.com/VOD/bipbop_adv_example_hevc/v5/prog_index.m3u8' for reading
[hls,applehttp @ 0x2493600] Opening 'https://tungsten.aaplimg.com/VOD/bipbop_adv_example_hevc/v9/prog_index.m3u8' for reading
[hls,applehttp @ 0x2493600] Opening 'https://tungsten.aaplimg.com/VOD/bipbop_adv_example_hevc/v8/prog_index.m3u8' for reading
[hls,applehttp @ 0x2493600] Opening 'https://tungsten.aaplimg.com/VOD/bipbop_adv_example_hevc/v7/prog_index.m3u8' for reading
[hls,applehttp @ 0x2493600] Opening 'https://tungsten.aaplimg.com/VOD/bipbop_adv_example_hevc/v6/prog_index.m3u8' for reading
[hls,applehttp @ 0x2493600] Opening 'https://tungsten.aaplimg.com/VOD/bipbop_adv_example_hevc/v4/prog_index.m3u8' for reading
[hls,applehttp @ 0x2493600] Opening 'https://tungsten.aaplimg.com/VOD/bipbop_adv_example_hevc/v3/prog_index.m3u8' for reading
[hls,applehttp @ 0x2493600] Opening 'https://tungsten.aaplimg.com/VOD/bipbop_adv_example_hevc/v2/prog_index.m3u8' for reading
[hls,applehttp @ 0x2493600] Opening 'https://tungsten.aaplimg.com/VOD/bipbop_adv_example_hevc/v1/prog_index.m3u8' for reading
[hls,applehttp @ 0x2493600] Opening 'https://tungsten.aaplimg.com/VOD/bipbop_adv_example_hevc/v14/prog_index.m3u8' for reading
[hls,applehttp @ 0x2493600] Opening 'https://tungsten.aaplimg.com/VOD/bipbop_adv_example_hevc/v18/prog_index.m3u8' for reading
[hls,applehttp @ 0x2493600] Opening 'https://tungsten.aaplimg.com/VOD/bipbop_adv_example_hevc/v17/prog_index.m3u8' for reading
[hls,applehttp @ 0x2493600] Opening 'https://tungsten.aaplimg.com/VOD/bipbop_adv_example_hevc/v16/prog_index.m3u8' for reading
[hls,applehttp @ 0x2493600] Opening 'https://tungsten.aaplimg.com/VOD/bipbop_adv_example_hevc/v15/prog_index.m3u8' for reading
[hls,applehttp @ 0x2493600] Opening 'https://tungsten.aaplimg.com/VOD/bipbop_adv_example_hevc/v13/prog_index.m3u8' for reading
[hls,applehttp @ 0x2493600] Opening 'https://tungsten.aaplimg.com/VOD/bipbop_adv_example_hevc/v12/prog_index.m3u8' for reading
[hls,applehttp @ 0x2493600] Opening 'https://tungsten.aaplimg.com/VOD/bipbop_adv_example_hevc/v11/prog_index.m3u8' for reading
[hls,applehttp @ 0x2493600] Opening 'https://tungsten.aaplimg.com/VOD/bipbop_adv_example_hevc/v10/prog_index.m3u8' for reading
[hls,applehttp @ 0x2493600] Opening 'https://tungsten.aaplimg.com/VOD/bipbop_adv_example_hevc/v14/prog_index.m3u8' for reading
[hls,applehttp @ 0x2493600] Opening 'https://tungsten.aaplimg.com/VOD/bipbop_adv_example_hevc/v18/prog_index.m3u8' for reading
[hls,applehttp @ 0x2493600] Opening 'https://tungsten.aaplimg.com/VOD/bipbop_adv_example_hevc/v17/prog_index.m3u8' for reading
[hls,applehttp @ 0x2493600] Opening 'https://tungsten.aaplimg.com/VOD/bipbop_adv_example_hevc/v16/prog_index.m3u8' for reading
[hls,applehttp @ 0x2493600] Opening 'https://tungsten.aaplimg.com/VOD/bipbop_adv_example_hevc/v15/prog_index.m3u8' for reading
[hls,applehttp @ 0x2493600] Opening 'https://tungsten.aaplimg.com/VOD/bipbop_adv_example_hevc/v13/prog_index.m3u8' for reading
[hls,applehttp @ 0x2493600] Opening 'https://tungsten.aaplimg.com/VOD/bipbop_adv_example_hevc/v12/prog_index.m3u8' for reading
[hls,applehttp @ 0x2493600] Opening 'https://tungsten.aaplimg.com/VOD/bipbop_adv_example_hevc/v11/prog_index.m3u8' for reading
[hls,applehttp @ 0x2493600] Opening 'https://tungsten.aaplimg.com/VOD/bipbop_adv_example_hevc/v10/prog_index.m3u8' for reading
[hls,applehttp @ 0x2493600] Opening 'https://tungsten.aaplimg.com/VOD/bipbop_adv_example_hevc/v14/prog_index.m3u8' for reading
[hls,applehttp @ 0x2493600] Opening 'https://tungsten.aaplimg.com/VOD/bipbop_adv_example_hevc/v18/prog_index.m3u8' for reading
[hls,applehttp @ 0x2493600] Opening 'https://tungsten.aaplimg.com/VOD/bipbop_adv_example_hevc/v17/prog_index.m3u8' for reading
[hls,applehttp @ 0x2493600] Opening 'https://tungsten.aaplimg.com/VOD/bipbop_adv_example_hevc/v16/prog_index.m3u8' for reading
[hls,applehttp @ 0x2493600] Opening 'https://tungsten.aaplimg.com/VOD/bipbop_adv_example_hevc/v15/prog_index.m3u8' for reading
[hls,applehttp @ 0x2493600] Opening 'https://tungsten.aaplimg.com/VOD/bipbop_adv_example_hevc/v13/prog_index.m3u8' for reading
[hls,applehttp @ 0x2493600] Opening 'https://tungsten.aaplimg.com/VOD/bipbop_adv_example_hevc/v12/prog_index.m3u8' for reading
[hls,applehttp @ 0x2493600] Opening 'https://tungsten.aaplimg.com/VOD/bipbop_adv_example_hevc/v11/prog_index.m3u8' for reading
[hls,applehttp @ 0x2493600] Opening 'https://tungsten.aaplimg.com/VOD/bipbop_adv_example_hevc/v10/prog_index.m3u8' for reading
[hls,applehttp @ 0x2493600] Opening 'https://tungsten.aaplimg.com/VOD/bipbop_adv_example_hevc/a1/main.mp4' for reading
    Last message repeated 1 times
[hls,applehttp @ 0x2493600] Opening 'https://tungsten.aaplimg.com/VOD/bipbop_adv_example_hevc/a2/main.mp4' for reading
    Last message repeated 1 times
[hls,applehttp @ 0x2493600] Opening 'https://tungsten.aaplimg.com/VOD/bipbop_adv_example_hevc/a3/main.mp4' for reading
    Last message repeated 1 times
[hls,applehttp @ 0x2493600] Opening 'https://tungsten.aaplimg.com/VOD/bipbop_adv_example_hevc/v5/main.mp4' for reading
    Last message repeated 1 times
[hls,applehttp @ 0x2493600] Opening 'https://tungsten.aaplimg.com/VOD/bipbop_adv_example_hevc/v9/main.mp4' for reading
    Last message repeated 1 times
[hls,applehttp @ 0x2493600] Opening 'https://tungsten.aaplimg.com/VOD/bipbop_adv_example_hevc/v8/main.mp4' for reading
    Last message repeated 1 times
[hls,applehttp @ 0x2493600] Opening 'https://tungsten.aaplimg.com/VOD/bipbop_adv_example_hevc/v7/main.mp4' for reading
    Last message repeated 1 times
[hls,applehttp @ 0x2493600] Opening 'https://tungsten.aaplimg.com/VOD/bipbop_adv_example_hevc/v6/main.mp4' for reading
    Last message repeated 1 times
[hls,applehttp @ 0x2493600] Opening 'https://tungsten.aaplimg.com/VOD/bipbop_adv_example_hevc/v4/main.mp4' for reading
    Last message repeated 1 times
[hls,applehttp @ 0x2493600] Opening 'https://tungsten.aaplimg.com/VOD/bipbop_adv_example_hevc/v3/main.mp4' for reading
    Last message repeated 1 times
[hls,applehttp @ 0x2493600] Opening 'https://tungsten.aaplimg.com/VOD/bipbop_adv_example_hevc/v2/main.mp4' for reading
    Last message repeated 1 times
[hls,applehttp @ 0x2493600] Opening 'https://tungsten.aaplimg.com/VOD/bipbop_adv_example_hevc/v1/main.mp4' for reading
    Last message repeated 1 times
[hls,applehttp @ 0x2493600] Opening 'https://tungsten.aaplimg.com/VOD/bipbop_adv_example_hevc/v5/main.mp4' for reading
    Last message repeated 1 times
[hls,applehttp @ 0x2493600] Opening 'https://tungsten.aaplimg.com/VOD/bipbop_adv_example_hevc/v9/main.mp4' for reading
    Last message repeated 1 times
[hls,applehttp @ 0x2493600] Opening 'https://tungsten.aaplimg.com/VOD/bipbop_adv_example_hevc/v8/main.mp4' for reading
    Last message repeated 1 times
[hls,applehttp @ 0x2493600] Opening 'https://tungsten.aaplimg.com/VOD/bipbop_adv_example_hevc/v7/main.mp4' for reading
    Last message repeated 1 times
[hls,applehttp @ 0x2493600] Opening 'https://tungsten.aaplimg.com/VOD/bipbop_adv_example_hevc/v6/main.mp4' for reading
    Last message repeated 1 times
[hls,applehttp @ 0x2493600] Opening 'https://tungsten.aaplimg.com/VOD/bipbop_adv_example_hevc/v4/main.mp4' for reading
    Last message repeated 1 times
[hls,applehttp @ 0x2493600] Opening 'https://tungsten.aaplimg.com/VOD/bipbop_adv_example_hevc/v3/main.mp4' for reading
    Last message repeated 1 times
[hls,applehttp @ 0x2493600] Opening 'https://tungsten.aaplimg.com/VOD/bipbop_adv_example_hevc/v2/main.mp4' for reading
    Last message repeated 1 times
[hls,applehttp @ 0x2493600] Opening 'https://tungsten.aaplimg.com/VOD/bipbop_adv_example_hevc/v1/main.mp4' for reading
    Last message repeated 1 times
[hls,applehttp @ 0x2493600] Opening 'https://tungsten.aaplimg.com/VOD/bipbop_adv_example_hevc/v5/main.mp4' for reading
    Last message repeated 1 times
[hls,applehttp @ 0x2493600] Opening 'https://tungsten.aaplimg.com/VOD/bipbop_adv_example_hevc/v9/main.mp4' for reading
    Last message repeated 1 times
[hls,applehttp @ 0x2493600] Opening 'https://tungsten.aaplimg.com/VOD/bipbop_adv_example_hevc/v8/main.mp4' for reading
    Last message repeated 1 times
[hls,applehttp @ 0x2493600] Opening 'https://tungsten.aaplimg.com/VOD/bipbop_adv_example_hevc/v7/main.mp4' for reading
    Last message repeated 1 times
[hls,applehttp @ 0x2493600] Opening 'https://tungsten.aaplimg.com/VOD/bipbop_adv_example_hevc/v6/main.mp4' for reading
    Last message repeated 1 times
[hls,applehttp @ 0x2493600] Opening 'https://tungsten.aaplimg.com/VOD/bipbop_adv_example_hevc/v4/main.mp4' for reading
    Last message repeated 1 times
[hls,applehttp @ 0x2493600] Opening 'https://tungsten.aaplimg.com/VOD/bipbop_adv_example_hevc/v3/main.mp4' for reading
    Last message repeated 1 times
[hls,applehttp @ 0x2493600] Opening 'https://tungsten.aaplimg.com/VOD/bipbop_adv_example_hevc/v2/main.mp4' for reading
    Last message repeated 1 times
[hls,applehttp @ 0x2493600] Opening 'https://tungsten.aaplimg.com/VOD/bipbop_adv_example_hevc/v1/main.mp4' for reading
    Last message repeated 1 times
[hls,applehttp @ 0x2493600] Opening 'https://tungsten.aaplimg.com/VOD/bipbop_adv_example_hevc/v14/main.mp4' for reading
    Last message repeated 1 times
[hls,applehttp @ 0x2493600] Opening 'https://tungsten.aaplimg.com/VOD/bipbop_adv_example_hevc/v18/main.mp4' for reading
    Last message repeated 1 times
[hls,applehttp @ 0x2493600] Opening 'https://tungsten.aaplimg.com/VOD/bipbop_adv_example_hevc/v17/main.mp4' for reading
    Last message repeated 1 times
[hls,applehttp @ 0x2493600] Opening 'https://tungsten.aaplimg.com/VOD/bipbop_adv_example_hevc/v16/main.mp4' for reading
    Last message repeated 1 times
[hls,applehttp @ 0x2493600] Opening 'https://tungsten.aaplimg.com/VOD/bipbop_adv_example_hevc/v15/main.mp4' for reading
    Last message repeated 1 times
[hls,applehttp @ 0x2493600] Opening 'https://tungsten.aaplimg.com/VOD/bipbop_adv_example_hevc/v13/main.mp4' for reading
    Last message repeated 1 times
[hls,applehttp @ 0x2493600] Opening 'https://tungsten.aaplimg.com/VOD/bipbop_adv_example_hevc/v12/main.mp4' for reading
    Last message repeated 1 times
[hls,applehttp @ 0x2493600] Opening 'https://tungsten.aaplimg.com/VOD/bipbop_adv_example_hevc/v11/main.mp4' for reading
    Last message repeated 1 times
[hls,applehttp @ 0x2493600] Opening 'https://tungsten.aaplimg.com/VOD/bipbop_adv_example_hevc/v10/main.mp4' for reading
    Last message repeated 1 times
[hls,applehttp @ 0x2493600] Opening 'https://tungsten.aaplimg.com/VOD/bipbop_adv_example_hevc/v14/main.mp4' for reading
    Last message repeated 1 times
[hls,applehttp @ 0x2493600] Opening 'https://tungsten.aaplimg.com/VOD/bipbop_adv_example_hevc/v18/main.mp4' for reading
    Last message repeated 1 times
[hls,applehttp @ 0x2493600] Opening 'https://tungsten.aaplimg.com/VOD/bipbop_adv_example_hevc/v17/main.mp4' for reading
    Last message repeated 1 times
[hls,applehttp @ 0x2493600] Opening 'https://tungsten.aaplimg.com/VOD/bipbop_adv_example_hevc/v16/main.mp4' for reading
    Last message repeated 1 times
[hls,applehttp @ 0x2493600] Opening 'https://tungsten.aaplimg.com/VOD/bipbop_adv_example_hevc/v15/main.mp4' for reading
    Last message repeated 1 times
[hls,applehttp @ 0x2493600] Opening 'https://tungsten.aaplimg.com/VOD/bipbop_adv_example_hevc/v13/main.mp4' for reading
    Last message repeated 1 times
[hls,applehttp @ 0x2493600] Opening 'https://tungsten.aaplimg.com/VOD/bipbop_adv_example_hevc/v12/main.mp4' for reading
    Last message repeated 1 times
[hls,applehttp @ 0x2493600] Opening 'https://tungsten.aaplimg.com/VOD/bipbop_adv_example_hevc/v11/main.mp4' for reading
    Last message repeated 1 times
[hls,applehttp @ 0x2493600] Opening 'https://tungsten.aaplimg.com/VOD/bipbop_adv_example_hevc/v10/main.mp4' for reading
    Last message repeated 1 times
[hls,applehttp @ 0x2493600] Opening 'https://tungsten.aaplimg.com/VOD/bipbop_adv_example_hevc/v14/main.mp4' for reading
    Last message repeated 1 times
[hls,applehttp @ 0x2493600] Opening 'https://tungsten.aaplimg.com/VOD/bipbop_adv_example_hevc/v18/main.mp4' for reading
    Last message repeated 1 times
[hls,applehttp @ 0x2493600] Opening 'https://tungsten.aaplimg.com/VOD/bipbop_adv_example_hevc/v17/main.mp4' for reading
    Last message repeated 1 times
[hls,applehttp @ 0x2493600] Opening 'https://tungsten.aaplimg.com/VOD/bipbop_adv_example_hevc/v16/main.mp4' for reading
    Last message repeated 1 times
[hls,applehttp @ 0x2493600] Opening 'https://tungsten.aaplimg.com/VOD/bipbop_adv_example_hevc/v15/main.mp4' for reading
    Last message repeated 1 times
[hls,applehttp @ 0x2493600] Opening 'https://tungsten.aaplimg.com/VOD/bipbop_adv_example_hevc/v13/main.mp4' for reading
    Last message repeated 1 times
[hls,applehttp @ 0x2493600] Opening 'https://tungsten.aaplimg.com/VOD/bipbop_adv_example_hevc/v12/main.mp4' for reading
    Last message repeated 1 times
[hls,applehttp @ 0x2493600] Opening 'https://tungsten.aaplimg.com/VOD/bipbop_adv_example_hevc/v11/main.mp4' for reading
    Last message repeated 1 times
[hls,applehttp @ 0x2493600] Opening 'https://tungsten.aaplimg.com/VOD/bipbop_adv_example_hevc/v10/main.mp4' for reading
    Last message repeated 1 times
Input #0, hls,applehttp, from 'https://tungsten.aaplimg.com/VOD/bipbop_adv_example_hevc/master.m3u8':
  Duration: 00:10:00.00, start: 9.956000, bitrate: 0 kb/s
  Program 0
    Metadata:
      variant_bitrate : 2523597
    Stream #0:0(en-US): Audio: aac (LC) (mp4a / 0x6134706D), 48000 Hz, stereo, fltp, 71 kb/s (default)
    Metadata:
      comment         : English
    Stream #0:3: Video: h264 (High) (avc1 / 0x31637661), yuv420p(tv, bt709, progressive), 960x540 [SAR 1:1 DAR 16:9], 17 kb/s, 60 fps, 60 tbr, 6k tbn, 12k tbc
    Metadata:
      variant_bitrate : 2523597
    Stream #0:4: Subtitle: eia_608 (c608 / 0x38303663), 0 kb/s
    Metadata:
      variant_bitrate : 2523597
  Program 1
    Metadata:
      variant_bitrate : 9873268
    Stream #0:0(en-US): Audio: aac (LC) (mp4a / 0x6134706D), 48000 Hz, stereo, fltp, 71 kb/s (default)
    Metadata:
      comment         : English
    Stream #0:5: Video: h264 (High) (avc1 / 0x31637661), yuv420p(tv, bt709, progressive), 1920x1080 [SAR 1:1 DAR 16:9], 28 kb/s, 60 fps, 60 tbr, 6k tbn, 12k tbc
    Metadata:
      variant_bitrate : 9873268
    Stream #0:6: Subtitle: eia_608 (c608 / 0x38303663), 0 kb/s
    Metadata:
      variant_bitrate : 9873268
  Program 2
    Metadata:
      variant_bitrate : 7318337
    Stream #0:0(en-US): Audio: aac (LC) (mp4a / 0x6134706D), 48000 Hz, stereo, fltp, 71 kb/s (default)
    Metadata:
      comment         : English
    Stream #0:7: Video: h264 (High) (avc1 / 0x31637661), yuv420p(tv, bt709, progressive), 1920x1080 [SAR 1:1 DAR 16:9], 26 kb/s, 60 fps, 60 tbr, 6k tbn, 12k tbc
    Metadata:
      variant_bitrate : 7318337
    Stream #0:8: Subtitle: eia_608 (c608 / 0x38303663), 0 kb/s
    Metadata:
      variant_bitrate : 7318337
  Program 3
    Metadata:
      variant_bitrate : 5421720
    Stream #0:0(en-US): Audio: aac (LC) (mp4a / 0x6134706D), 48000 Hz, stereo, fltp, 71 kb/s (default)
    Metadata:
      comment         : English
    Stream #0:9: Video: h264 (High) (avc1 / 0x31637661), yuv420p(tv, bt709, progressive), 1920x1080 [SAR 1:1 DAR 16:9], 25 kb/s, 60 fps, 60 tbr, 6k tbn, 12k tbc
    Metadata:
      variant_bitrate : 5421720
    Stream #0:10: Subtitle: eia_608 (c608 / 0x38303663), 0 kb/s
    Metadata:
      variant_bitrate : 5421720
  Program 4
    Metadata:
      variant_bitrate : 3611257
    Stream #0:0(en-US): Audio: aac (LC) (mp4a / 0x6134706D), 48000 Hz, stereo, fltp, 71 kb/s (default)
    Metadata:
      comment         : English
    Stream #0:11: Video: h264 (High) (avc1 / 0x31637661), yuv420p(tv, bt709, progressive), 1280x720 [SAR 1:1 DAR 16:9], 23 kb/s, 60 fps, 60 tbr, 6k tbn, 12k tbc
    Metadata:
      variant_bitrate : 3611257
    Stream #0:12: Subtitle: eia_608 (c608 / 0x38303663), 0 kb/s
    Metadata:
      variant_bitrate : 3611257
  Program 5
    Metadata:
      variant_bitrate : 1475903
    Stream #0:0(en-US): Audio: aac (LC) (mp4a / 0x6134706D), 48000 Hz, stereo, fltp, 71 kb/s (default)
    Metadata:
      comment         : English
    Stream #0:13: Video: h264 (High) (avc1 / 0x31637661), yuv420p(tv, bt709, progressive), 768x432 [SAR 1:1 DAR 16:9], 14 kb/s, 30 fps, 30 tbr, 6k tbn, 12k tbc
    Metadata:
      variant_bitrate : 1475903
    Stream #0:14: Subtitle: eia_608 (c608 / 0x38303663), 0 kb/s
    Metadata:
      variant_bitrate : 1475903
  Program 6
    Metadata:
      variant_bitrate : 1017705
    Stream #0:0(en-US): Audio: aac (LC) (mp4a / 0x6134706D), 48000 Hz, stereo, fltp, 71 kb/s (default)
    Metadata:
      comment         : English
    Stream #0:15: Video: h264 (High) (avc1 / 0x31637661), yuv420p(tv, bt709, progressive), 640x360 [SAR 1:1 DAR 16:9], 12 kb/s, 30 fps, 30 tbr, 6k tbn, 12k tbc
    Metadata:
      variant_bitrate : 1017705
    Stream #0:16: Subtitle: eia_608 (c608 / 0x38303663), 0 kb/s
    Metadata:
      variant_bitrate : 1017705
  Program 7
    Metadata:
      variant_bitrate : 582820
    Stream #0:0(en-US): Audio: aac (LC) (mp4a / 0x6134706D), 48000 Hz, stereo, fltp, 71 kb/s (default)
    Metadata:
      comment         : English
    Stream #0:17: Video: h264 (High) (avc1 / 0x31637661), yuv420p(tv, bt709, progressive), 480x270 [SAR 1:1 DAR 16:9], 6 kb/s, 30 fps, 30 tbr, 6k tbn, 12k tbc
    Metadata:
      variant_bitrate : 582820
    Stream #0:18: Subtitle: eia_608 (c608 / 0x38303663), 0 kb/s
    Metadata:
      variant_bitrate : 582820
  Program 8
    Metadata:
      variant_bitrate : 339404
    Stream #0:0(en-US): Audio: aac (LC) (mp4a / 0x6134706D), 48000 Hz, stereo, fltp, 71 kb/s (default)
    Metadata:
      comment         : English
    Stream #0:19: Video: h264 (High) (avc1 / 0x31637661), yuv420p(tv, bt709, progressive), 416x234 [SAR 1:1 DAR 16:9], 3 kb/s, 30 fps, 30 tbr, 6k tbn, 12k tbc
    Metadata:
      variant_bitrate : 339404
    Stream #0:20: Subtitle: eia_608 (c608 / 0x38303663), 0 kb/s
    Metadata:
      variant_bitrate : 339404
  Program 9
    Metadata:
      variant_bitrate : 2746096
    Stream #0:1(en-US): Audio: ac3 (ac-3 / 0x332D6361), 48000 Hz, 5.1(side), fltp, 170 kb/s (default)
    Metadata:
      comment         : English
    Stream #0:21: Video: h264 (High) (avc1 / 0x31637661), yuv420p(tv, bt709, progressive), 960x540 [SAR 1:1 DAR 16:9], 17 kb/s, 60 fps, 60 tbr, 6k tbn, 12k tbc
    Metadata:
      variant_bitrate : 2746096
    Stream #0:22: Subtitle: eia_608 (c608 / 0x38303663), 0 kb/s
    Metadata:
      variant_bitrate : 2746096
  Program 10
    Metadata:
      variant_bitrate : 10095767
    Stream #0:1(en-US): Audio: ac3 (ac-3 / 0x332D6361), 48000 Hz, 5.1(side), fltp, 170 kb/s (default)
    Metadata:
      comment         : English
    Stream #0:23: Video: h264 (High) (avc1 / 0x31637661), yuv420p(tv, bt709, progressive), 1920x1080 [SAR 1:1 DAR 16:9], 28 kb/s, 60 fps, 60 tbr, 6k tbn, 12k tbc
    Metadata:
      variant_bitrate : 10095767
    Stream #0:24: Subtitle: eia_608 (c608 / 0x38303663), 0 kb/s
    Metadata:
      variant_bitrate : 10095767
  Program 11
    Metadata:
      variant_bitrate : 7540836
    Stream #0:1(en-US): Audio: ac3 (ac-3 / 0x332D6361), 48000 Hz, 5.1(side), fltp, 170 kb/s (default)
    Metadata:
      comment         : English
    Stream #0:25: Video: h264 (High) (avc1 / 0x31637661), yuv420p(tv, bt709, progressive), 1920x1080 [SAR 1:1 DAR 16:9], 26 kb/s, 60 fps, 60 tbr, 6k tbn, 12k tbc
    Metadata:
      variant_bitrate : 7540836
    Stream #0:26: Subtitle: eia_608 (c608 / 0x38303663), 0 kb/s
    Metadata:
      variant_bitrate : 7540836
  Program 12
    Metadata:
      variant_bitrate : 5644219
    Stream #0:1(en-US): Audio: ac3 (ac-3 / 0x332D6361), 48000 Hz, 5.1(side), fltp, 170 kb/s (default)
    Metadata:
      comment         : English
    Stream #0:27: Video: h264 (High) (avc1 / 0x31637661), yuv420p(tv, bt709, progressive), 1920x1080 [SAR 1:1 DAR 16:9], 25 kb/s, 60 fps, 60 tbr, 6k tbn, 12k tbc
    Metadata:
      variant_bitrate : 5644219
    Stream #0:28: Subtitle: eia_608 (c608 / 0x38303663), 0 kb/s
    Metadata:
      variant_bitrate : 5644219
  Program 13
    Metadata:
      variant_bitrate : 3833756
    Stream #0:1(en-US): Audio: ac3 (ac-3 / 0x332D6361), 48000 Hz, 5.1(side), fltp, 170 kb/s (default)
    Metadata:
      comment         : English
    Stream #0:29: Video: h264 (High) (avc1 / 0x31637661), yuv420p(tv, bt709, progressive), 1280x720 [SAR 1:1 DAR 16:9], 23 kb/s, 60 fps, 60 tbr, 6k tbn, 12k tbc
    Metadata:
      variant_bitrate : 3833756
    Stream #0:30: Subtitle: eia_608 (c608 / 0x38303663), 0 kb/s
    Metadata:
      variant_bitrate : 3833756
  Program 14
    Metadata:
      variant_bitrate : 1698402
    Stream #0:1(en-US): Audio: ac3 (ac-3 / 0x332D6361), 48000 Hz, 5.1(side), fltp, 170 kb/s (default)
    Metadata:
      comment         : English
    Stream #0:31: Video: h264 (High) (avc1 / 0x31637661), yuv420p(tv, bt709, progressive), 768x432 [SAR 1:1 DAR 16:9], 14 kb/s, 30 fps, 30 tbr, 6k tbn, 12k tbc
    Metadata:
      variant_bitrate : 1698402
    Stream #0:32: Subtitle: eia_608 (c608 / 0x38303663), 0 kb/s
    Metadata:
      variant_bitrate : 1698402
  Program 15
    Metadata:
      variant_bitrate : 1240204
    Stream #0:1(en-US): Audio: ac3 (ac-3 / 0x332D6361), 48000 Hz, 5.1(side), fltp, 170 kb/s (default)
    Metadata:
      comment         : English
    Stream #0:33: Video: h264 (High) (avc1 / 0x31637661), yuv420p(tv, bt709, progressive), 640x360 [SAR 1:1 DAR 16:9], 12 kb/s, 30 fps, 30 tbr, 6k tbn, 12k tbc
    Metadata:
      variant_bitrate : 1240204
    Stream #0:34: Subtitle: eia_608 (c608 / 0x38303663), 0 kb/s
    Metadata:
      variant_bitrate : 1240204
  Program 16
    Metadata:
      variant_bitrate : 805319
    Stream #0:1(en-US): Audio: ac3 (ac-3 / 0x332D6361), 48000 Hz, 5.1(side), fltp, 170 kb/s (default)
    Metadata:
      comment         : English
    Stream #0:35: Video: h264 (High) (avc1 / 0x31637661), yuv420p(tv, bt709, progressive), 480x270 [SAR 1:1 DAR 16:9], 6 kb/s, 30 fps, 30 tbr, 6k tbn, 12k tbc
    Metadata:
      variant_bitrate : 805319
    Stream #0:36: Subtitle: eia_608 (c608 / 0x38303663), 0 kb/s
    Metadata:
      variant_bitrate : 805319
  Program 17
    Metadata:
      variant_bitrate : 561903
    Stream #0:1(en-US): Audio: ac3 (ac-3 / 0x332D6361), 48000 Hz, 5.1(side), fltp, 170 kb/s (default)
    Metadata:
      comment         : English
    Stream #0:37: Video: h264 (High) (avc1 / 0x31637661), yuv420p(tv, bt709, progressive), 416x234 [SAR 1:1 DAR 16:9], 3 kb/s, 30 fps, 30 tbr, 6k tbn, 12k tbc
    Metadata:
      variant_bitrate : 561903
    Stream #0:38: Subtitle: eia_608 (c608 / 0x38303663), 0 kb/s
    Metadata:
      variant_bitrate : 561903
  Program 18
    Metadata:
      variant_bitrate : 2554096
    Stream #0:2(en-US): Audio: eac3 (ec-3 / 0x332D6365), 48000 Hz, 5.1(side), fltp, 85 kb/s (default)
    Metadata:
      comment         : English
    Stream #0:39: Video: h264 (High) (avc1 / 0x31637661), yuv420p(tv, bt709, progressive), 960x540 [SAR 1:1 DAR 16:9], 17 kb/s, 60 fps, 60 tbr, 6k tbn, 12k tbc
    Metadata:
      variant_bitrate : 2554096
    Stream #0:40: Subtitle: eia_608 (c608 / 0x38303663), 0 kb/s
    Metadata:
      variant_bitrate : 2554096
  Program 19
    Metadata:
      variant_bitrate : 9903767
    Stream #0:2(en-US): Audio: eac3 (ec-3 / 0x332D6365), 48000 Hz, 5.1(side), fltp, 85 kb/s (default)
    Metadata:
      comment         : English
    Stream #0:41: Video: h264 (High) (avc1 / 0x31637661), yuv420p(tv, bt709, progressive), 1920x1080 [SAR 1:1 DAR 16:9], 28 kb/s, 60 fps, 60 tbr, 6k tbn, 12k tbc
    Metadata:
      variant_bitrate : 9903767
    Stream #0:42: Subtitle: eia_608 (c608 / 0x38303663), 0 kb/s
    Metadata:
      variant_bitrate : 9903767
  Program 20
    Metadata:
      variant_bitrate : 7348836
    Stream #0:2(en-US): Audio: eac3 (ec-3 / 0x332D6365), 48000 Hz, 5.1(side), fltp, 85 kb/s (default)
    Metadata:
      comment         : English
    Stream #0:43: Video: h264 (High) (avc1 / 0x31637661), yuv420p(tv, bt709, progressive), 1920x1080 [SAR 1:1 DAR 16:9], 26 kb/s, 60 fps, 60 tbr, 6k tbn, 12k tbc
    Metadata:
      variant_bitrate : 7348836
    Stream #0:44: Subtitle: eia_608 (c608 / 0x38303663), 0 kb/s
    Metadata:
      variant_bitrate : 7348836
  Program 21
    Metadata:
      variant_bitrate : 5452219
    Stream #0:2(en-US): Audio: eac3 (ec-3 / 0x332D6365), 48000 Hz, 5.1(side), fltp, 85 kb/s (default)
    Metadata:
      comment         : English
    Stream #0:45: Video: h264 (High) (avc1 / 0x31637661), yuv420p(tv, bt709, progressive), 1920x1080 [SAR 1:1 DAR 16:9], 25 kb/s, 60 fps, 60 tbr, 6k tbn, 12k tbc
    Metadata:
      variant_bitrate : 5452219
    Stream #0:46: Subtitle: eia_608 (c608 / 0x38303663), 0 kb/s
    Metadata:
      variant_bitrate : 5452219
  Program 22
    Metadata:
      variant_bitrate : 3641756
    Stream #0:2(en-US): Audio: eac3 (ec-3 / 0x332D6365), 48000 Hz, 5.1(side), fltp, 85 kb/s (default)
    Metadata:
      comment         : English
    Stream #0:47: Video: h264 (High) (avc1 / 0x31637661), yuv420p(tv, bt709, progressive), 1280x720 [SAR 1:1 DAR 16:9], 23 kb/s, 60 fps, 60 tbr, 6k tbn, 12k tbc
    Metadata:
      variant_bitrate : 3641756
    Stream #0:48: Subtitle: eia_608 (c608 / 0x38303663), 0 kb/s
    Metadata:
      variant_bitrate : 3641756
  Program 23
    Metadata:
      variant_bitrate : 1506402
    Stream #0:2(en-US): Audio: eac3 (ec-3 / 0x332D6365), 48000 Hz, 5.1(side), fltp, 85 kb/s (default)
    Metadata:
      comment         : English
    Stream #0:49: Video: h264 (High) (avc1 / 0x31637661), yuv420p(tv, bt709, progressive), 768x432 [SAR 1:1 DAR 16:9], 14 kb/s, 30 fps, 30 tbr, 6k tbn, 12k tbc
    Metadata:
      variant_bitrate : 1506402
    Stream #0:50: Subtitle: eia_608 (c608 / 0x38303663), 0 kb/s
    Metadata:
      variant_bitrate : 1506402
  Program 24
    Metadata:
      variant_bitrate : 1048204
    Stream #0:2(en-US): Audio: eac3 (ec-3 / 0x332D6365), 48000 Hz, 5.1(side), fltp, 85 kb/s (default)
    Metadata:
      comment         : English
    Stream #0:51: Video: h264 (High) (avc1 / 0x31637661), yuv420p(tv, bt709, progressive), 640x360 [SAR 1:1 DAR 16:9], 12 kb/s, 30 fps, 30 tbr, 6k tbn, 12k tbc
    Metadata:
      variant_bitrate : 1048204
    Stream #0:52: Subtitle: eia_608 (c608 / 0x38303663), 0 kb/s
    Metadata:
      variant_bitrate : 1048204
  Program 25
    Metadata:
      variant_bitrate : 613319
    Stream #0:2(en-US): Audio: eac3 (ec-3 / 0x332D6365), 48000 Hz, 5.1(side), fltp, 85 kb/s (default)
    Metadata:
      comment         : English
    Stream #0:53: Video: h264 (High) (avc1 / 0x31637661), yuv420p(tv, bt709, progressive), 480x270 [SAR 1:1 DAR 16:9], 6 kb/s, 30 fps, 30 tbr, 6k tbn, 12k tbc
    Metadata:
      variant_bitrate : 613319
    Stream #0:54: Subtitle: eia_608 (c608 / 0x38303663), 0 kb/s
    Metadata:
      variant_bitrate : 613319
  Program 26
    Metadata:
      variant_bitrate : 369903
    Stream #0:2(en-US): Audio: eac3 (ec-3 / 0x332D6365), 48000 Hz, 5.1(side), fltp, 85 kb/s (default)
    Metadata:
      comment         : English
    Stream #0:55: Video: h264 (High) (avc1 / 0x31637661), yuv420p(tv, bt709, progressive), 416x234 [SAR 1:1 DAR 16:9], 3 kb/s, 30 fps, 30 tbr, 6k tbn, 12k tbc
    Metadata:
      variant_bitrate : 369903
    Stream #0:56: Subtitle: eia_608 (c608 / 0x38303663), 0 kb/s
    Metadata:
      variant_bitrate : 369903
  Program 27
    Metadata:
      variant_bitrate : 2164328
    Stream #0:0(en-US): Audio: aac (LC) (mp4a / 0x6134706D), 48000 Hz, stereo, fltp, 71 kb/s (default)
    Metadata:
      comment         : English
    Stream #0:57: Video: hevc (Main 10) (hvc1 / 0x31637668), yuv420p10le(tv, bt709, progressive), 960x540 [SAR 1:1 DAR 16:9], 361 kb/s, 60 fps, 60 tbr, 6k tbn, 6k tbc
    Metadata:
      variant_bitrate : 2164328
    Stream #0:58: Subtitle: eia_608 (c608 / 0x38303663), 0 kb/s
    Metadata:
      variant_bitrate : 2164328
  Program 28
    Metadata:
      variant_bitrate : 6664228
    Stream #0:0(en-US): Audio: aac (LC) (mp4a / 0x6134706D), 48000 Hz, stereo, fltp, 71 kb/s (default)
    Metadata:
      comment         : English
    Stream #0:59: Video: hevc (Main 10) (hvc1 / 0x31637668), yuv420p10le(tv, bt709, progressive), 1920x1080 [SAR 1:1 DAR 16:9], 1298 kb/s, 60 fps, 60 tbr, 6k tbn, 6k tbc
    Metadata:
      variant_bitrate : 6664228
    Stream #0:60: Subtitle: eia_608 (c608 / 0x38303663), 0 kb/s
    Metadata:
      variant_bitrate : 6664228
  Program 29
    Metadata:
      variant_bitrate : 5427899
    Stream #0:0(en-US): Audio: aac (LC) (mp4a / 0x6134706D), 48000 Hz, stereo, fltp, 71 kb/s (default)
    Metadata:
      comment         : English
    Stream #0:61: Video: hevc (Main 10) (hvc1 / 0x31637668), yuv420p10le(tv, bt709, progressive), 1920x1080 [SAR 1:1 DAR 16:9], 887 kb/s, 60 fps, 60 tbr, 6k tbn, 6k tbc
    Metadata:
      variant_bitrate : 5427899
    Stream #0:62: Subtitle: eia_608 (c608 / 0x38303663), 0 kb/s
    Metadata:
      variant_bitrate : 5427899
  Program 30
    Metadata:
      variant_bitrate : 4079770
    Stream #0:0(en-US): Audio: aac (LC) (mp4a / 0x6134706D), 48000 Hz, stereo, fltp, 71 kb/s (default)
    Metadata:
      comment         : English
    Stream #0:63: Video: hevc (Main 10) (hvc1 / 0x31637668), yuv420p10le(tv, bt709, progressive), 1920x1080 [SAR 1:1 DAR 16:9], 610 kb/s, 60 fps, 60 tbr, 6k tbn, 6k tbc
    Metadata:
      variant_bitrate : 4079770
    Stream #0:64: Subtitle: eia_608 (c608 / 0x38303663), 0 kb/s
    Metadata:
      variant_bitrate : 4079770
  Program 31
    Metadata:
      variant_bitrate : 2764701
    Stream #0:0(en-US): Audio: aac (LC) (mp4a / 0x6134706D), 48000 Hz, stereo, fltp, 71 kb/s (default)
    Metadata:
      comment         : English
    Stream #0:65: Video: hevc (Main 10) (hvc1 / 0x31637668), yuv420p10le(tv, bt709, progressive), 1280x720 [SAR 1:1 DAR 16:9], 508 kb/s, 60 fps, 60 tbr, 6k tbn, 6k tbc
    Metadata:
      variant_bitrate : 2764701
    Stream #0:66: Subtitle: eia_608 (c608 / 0x38303663), 0 kb/s
    Metadata:
      variant_bitrate : 2764701
  Program 32
    Metadata:
      variant_bitrate : 1226255
    Stream #0:0(en-US): Audio: aac (LC) (mp4a / 0x6134706D), 48000 Hz, stereo, fltp, 71 kb/s (default)
    Metadata:
      comment         : English
    Stream #0:67: Video: hevc (Main 10) (hvc1 / 0x31637668), yuv420p10le(tv, bt709, progressive), 768x432 [SAR 1:1 DAR 16:9], 170 kb/s, 30 fps, 30 tbr, 6k tbn, 6k tbc
    Metadata:
      variant_bitrate : 1226255
    Stream #0:68: Subtitle: eia_608 (c608 / 0x38303663), 0 kb/s
    Metadata:
      variant_bitrate : 1226255
  Program 33
    Metadata:
      variant_bitrate : 901770
    Stream #0:0(en-US): Audio: aac (LC) (mp4a / 0x6134706D), 48000 Hz, stereo, fltp, 71 kb/s (default)
    Metadata:
      comment         : English
    Stream #0:69: Video: hevc (Main 10) (hvc1 / 0x31637668), yuv420p10le(tv, bt709, progressive), 640x360 [SAR 1:1 DAR 16:9], 126 kb/s, 30 fps, 30 tbr, 6k tbn, 6k tbc
    Metadata:
      variant_bitrate : 901770
    Stream #0:70: Subtitle: eia_608 (c608 / 0x38303663), 0 kb/s
    Metadata:
      variant_bitrate : 901770
  Program 34
    Metadata:
      variant_bitrate : 548927
    Stream #0:0(en-US): Audio: aac (LC) (mp4a / 0x6134706D), 48000 Hz, stereo, fltp, 71 kb/s (default)
    Metadata:
      comment         : English
    Stream #0:71: Video: hevc (Main 10) (hvc1 / 0x31637668), yuv420p10le(tv, bt709, progressive), 480x270 [SAR 1:1 DAR 16:9], 69 kb/s, 30 fps, 30 tbr, 6k tbn, 6k tbc
    Metadata:
      variant_bitrate : 548927
    Stream #0:72: Subtitle: eia_608 (c608 / 0x38303663), 0 kb/s
    Metadata:
      variant_bitrate : 548927
  Program 35
    Metadata:
      variant_bitrate : 340713
    Stream #0:0(en-US): Audio: aac (LC) (mp4a / 0x6134706D), 48000 Hz, stereo, fltp, 71 kb/s (default)
    Metadata:
      comment         : English
    Stream #0:73: Video: hevc (Main 10) (hvc1 / 0x31637668), yuv420p10le(tv, bt709, progressive), 416x234 [SAR 1:1 DAR 16:9], 27 kb/s, 30 fps, 30 tbr, 6k tbn, 6k tbc
    Metadata:
      variant_bitrate : 340713
    Stream #0:74: Subtitle: eia_608 (c608 / 0x38303663), 0 kb/s
    Metadata:
      variant_bitrate : 340713
  Program 36
    Metadata:
      variant_bitrate : 2386827
    Stream #0:1(en-US): Audio: ac3 (ac-3 / 0x332D6361), 48000 Hz, 5.1(side), fltp, 170 kb/s (default)
    Metadata:
      comment         : English
    Stream #0:75: Video: hevc (Main 10) (hvc1 / 0x31637668), yuv420p10le(tv, bt709, progressive), 960x540 [SAR 1:1 DAR 16:9], 361 kb/s, 60 fps, 60 tbr, 6k tbn, 6k tbc
    Metadata:
      variant_bitrate : 2386827
    Stream #0:76: Subtitle: eia_608 (c608 / 0x38303663), 0 kb/s
    Metadata:
      variant_bitrate : 2386827
  Program 37
    Metadata:
      variant_bitrate : 6886727
    Stream #0:1(en-US): Audio: ac3 (ac-3 / 0x332D6361), 48000 Hz, 5.1(side), fltp, 170 kb/s (default)
    Metadata:
      comment         : English
    Stream #0:77: Video: hevc (Main 10) (hvc1 / 0x31637668), yuv420p10le(tv, bt709, progressive), 1920x1080 [SAR 1:1 DAR 16:9], 1298 kb/s, 60 fps, 60 tbr, 6k tbn, 6k tbc
    Metadata:
      variant_bitrate : 6886727
    Stream #0:78: Subtitle: eia_608 (c608 / 0x38303663), 0 kb/s
    Metadata:
      variant_bitrate : 6886727
  Program 38
    Metadata:
      variant_bitrate : 5650398
    Stream #0:1(en-US): Audio: ac3 (ac-3 / 0x332D6361), 48000 Hz, 5.1(side), fltp, 170 kb/s (default)
    Metadata:
      comment         : English
    Stream #0:79: Video: hevc (Main 10) (hvc1 / 0x31637668), yuv420p10le(tv, bt709, progressive), 1920x1080 [SAR 1:1 DAR 16:9], 887 kb/s, 60 fps, 60 tbr, 6k tbn, 6k tbc
    Metadata:
      variant_bitrate : 5650398
    Stream #0:80: Subtitle: eia_608 (c608 / 0x38303663), 0 kb/s
    Metadata:
      variant_bitrate : 5650398
  Program 39
    Metadata:
      variant_bitrate : 4302269
    Stream #0:1(en-US): Audio: ac3 (ac-3 / 0x332D6361), 48000 Hz, 5.1(side), fltp, 170 kb/s (default)
    Metadata:
      comment         : English
    Stream #0:81: Video: hevc (Main 10) (hvc1 / 0x31637668), yuv420p10le(tv, bt709, progressive), 1920x1080 [SAR 1:1 DAR 16:9], 610 kb/s, 60 fps, 60 tbr, 6k tbn, 6k tbc
    Metadata:
      variant_bitrate : 4302269
    Stream #0:82: Subtitle: eia_608 (c608 / 0x38303663), 0 kb/s
    Metadata:
      variant_bitrate : 4302269
  Program 40
    Metadata:
      variant_bitrate : 2987200
    Stream #0:1(en-US): Audio: ac3 (ac-3 / 0x332D6361), 48000 Hz, 5.1(side), fltp, 170 kb/s (default)
    Metadata:
      comment         : English
    Stream #0:83: Video: hevc (Main 10) (hvc1 / 0x31637668), yuv420p10le(tv, bt709, progressive), 1280x720 [SAR 1:1 DAR 16:9], 508 kb/s, 60 fps, 60 tbr, 6k tbn, 6k tbc
    Metadata:
      variant_bitrate : 2987200
    Stream #0:84: Subtitle: eia_608 (c608 / 0x38303663), 0 kb/s
    Metadata:
      variant_bitrate : 2987200
  Program 41
    Metadata:
      variant_bitrate : 1448754
    Stream #0:1(en-US): Audio: ac3 (ac-3 / 0x332D6361), 48000 Hz, 5.1(side), fltp, 170 kb/s (default)
    Metadata:
      comment         : English
    Stream #0:85: Video: hevc (Main 10) (hvc1 / 0x31637668), yuv420p10le(tv, bt709, progressive), 768x432 [SAR 1:1 DAR 16:9], 170 kb/s, 30 fps, 30 tbr, 6k tbn, 6k tbc
    Metadata:
      variant_bitrate : 1448754
    Stream #0:86: Subtitle: eia_608 (c608 / 0x38303663), 0 kb/s
    Metadata:
      variant_bitrate : 1448754
  Program 42
    Metadata:
      variant_bitrate : 1124269
    Stream #0:1(en-US): Audio: ac3 (ac-3 / 0x332D6361), 48000 Hz, 5.1(side), fltp, 170 kb/s (default)
    Metadata:
      comment         : English
    Stream #0:87: Video: hevc (Main 10) (hvc1 / 0x31637668), yuv420p10le(tv, bt709, progressive), 640x360 [SAR 1:1 DAR 16:9], 126 kb/s, 30 fps, 30 tbr, 6k tbn, 6k tbc
    Metadata:
      variant_bitrate : 1124269
    Stream #0:88: Subtitle: eia_608 (c608 / 0x38303663), 0 kb/s
    Metadata:
      variant_bitrate : 1124269
  Program 43
    Metadata:
      variant_bitrate : 771426
    Stream #0:1(en-US): Audio: ac3 (ac-3 / 0x332D6361), 48000 Hz, 5.1(side), fltp, 170 kb/s (default)
    Metadata:
      comment         : English
    Stream #0:89: Video: hevc (Main 10) (hvc1 / 0x31637668), yuv420p10le(tv, bt709, progressive), 480x270 [SAR 1:1 DAR 16:9], 69 kb/s, 30 fps, 30 tbr, 6k tbn, 6k tbc
    Metadata:
      variant_bitrate : 771426
    Stream #0:90: Subtitle: eia_608 (c608 / 0x38303663), 0 kb/s
    Metadata:
      variant_bitrate : 771426
  Program 44
    Metadata:
      variant_bitrate : 563212
    Stream #0:1(en-US): Audio: ac3 (ac-3 / 0x332D6361), 48000 Hz, 5.1(side), fltp, 170 kb/s (default)
    Metadata:
      comment         : English
    Stream #0:91: Video: hevc (Main 10) (hvc1 / 0x31637668), yuv420p10le(tv, bt709, progressive), 416x234 [SAR 1:1 DAR 16:9], 27 kb/s, 30 fps, 30 tbr, 6k tbn, 6k tbc
    Metadata:
      variant_bitrate : 563212
    Stream #0:92: Subtitle: eia_608 (c608 / 0x38303663), 0 kb/s
    Metadata:
      variant_bitrate : 563212
  Program 45
    Metadata:
      variant_bitrate : 2194827
    Stream #0:2(en-US): Audio: eac3 (ec-3 / 0x332D6365), 48000 Hz, 5.1(side), fltp, 85 kb/s (default)
    Metadata:
      comment         : English
    Stream #0:93: Video: hevc (Main 10) (hvc1 / 0x31637668), yuv420p10le(tv, bt709, progressive), 960x540 [SAR 1:1 DAR 16:9], 361 kb/s, 60 fps, 60 tbr, 6k tbn, 6k tbc
    Metadata:
      variant_bitrate : 2194827
    Stream #0:94: Subtitle: eia_608 (c608 / 0x38303663), 0 kb/s
    Metadata:
      variant_bitrate : 2194827
  Program 46
    Metadata:
      variant_bitrate : 6694727
    Stream #0:2(en-US): Audio: eac3 (ec-3 / 0x332D6365), 48000 Hz, 5.1(side), fltp, 85 kb/s (default)
    Metadata:
      comment         : English
    Stream #0:95: Video: hevc (Main 10) (hvc1 / 0x31637668), yuv420p10le(tv, bt709, progressive), 1920x1080 [SAR 1:1 DAR 16:9], 1298 kb/s, 60 fps, 60 tbr, 6k tbn, 6k tbc
    Metadata:
      variant_bitrate : 6694727
    Stream #0:96: Subtitle: eia_608 (c608 / 0x38303663), 0 kb/s
    Metadata:
      variant_bitrate : 6694727
  Program 47
    Metadata:
      variant_bitrate : 5458398
    Stream #0:2(en-US): Audio: eac3 (ec-3 / 0x332D6365), 48000 Hz, 5.1(side), fltp, 85 kb/s (default)
    Metadata:
      comment         : English
    Stream #0:97: Video: hevc (Main 10) (hvc1 / 0x31637668), yuv420p10le(tv, bt709, progressive), 1920x1080 [SAR 1:1 DAR 16:9], 887 kb/s, 60 fps, 60 tbr, 6k tbn, 6k tbc
    Metadata:
      variant_bitrate : 5458398
    Stream #0:98: Subtitle: eia_608 (c608 / 0x38303663), 0 kb/s
    Metadata:
      variant_bitrate : 5458398
  Program 48
    Metadata:
      variant_bitrate : 4110269
    Stream #0:2(en-US): Audio: eac3 (ec-3 / 0x332D6365), 48000 Hz, 5.1(side), fltp, 85 kb/s (default)
    Metadata:
      comment         : English
    Stream #0:99: Video: hevc (Main 10) (hvc1 / 0x31637668), yuv420p10le(tv, bt709, progressive), 1920x1080 [SAR 1:1 DAR 16:9], 610 kb/s, 60 fps, 60 tbr, 6k tbn, 6k tbc
    Metadata:
      variant_bitrate : 4110269
    Stream #0:100: Subtitle: eia_608 (c608 / 0x38303663), 0 kb/s
    Metadata:
      variant_bitrate : 4110269
  Program 49
    Metadata:
      variant_bitrate : 2795200
    Stream #0:2(en-US): Audio: eac3 (ec-3 / 0x332D6365), 48000 Hz, 5.1(side), fltp, 85 kb/s (default)
    Metadata:
      comment         : English
    Stream #0:101: Video: hevc (Main 10) (hvc1 / 0x31637668), yuv420p10le(tv, bt709, progressive), 1280x720 [SAR 1:1 DAR 16:9], 508 kb/s, 60 fps, 60 tbr, 6k tbn, 6k tbc
    Metadata:
      variant_bitrate : 2795200
    Stream #0:102: Subtitle: eia_608 (c608 / 0x38303663), 0 kb/s
    Metadata:
      variant_bitrate : 2795200
  Program 50
    Metadata:
      variant_bitrate : 1256754
    Stream #0:2(en-US): Audio: eac3 (ec-3 / 0x332D6365), 48000 Hz, 5.1(side), fltp, 85 kb/s (default)
    Metadata:
      comment         : English
    Stream #0:103: Video: hevc (Main 10) (hvc1 / 0x31637668), yuv420p10le(tv, bt709, progressive), 768x432 [SAR 1:1 DAR 16:9], 170 kb/s, 30 fps, 30 tbr, 6k tbn, 6k tbc
    Metadata:
      variant_bitrate : 1256754
    Stream #0:104: Subtitle: eia_608 (c608 / 0x38303663), 0 kb/s
    Metadata:
      variant_bitrate : 1256754
  Program 51
    Metadata:
      variant_bitrate : 932269
    Stream #0:2(en-US): Audio: eac3 (ec-3 / 0x332D6365), 48000 Hz, 5.1(side), fltp, 85 kb/s (default)
    Metadata:
      comment         : English
    Stream #0:105: Video: hevc (Main 10) (hvc1 / 0x31637668), yuv420p10le(tv, bt709, progressive), 640x360 [SAR 1:1 DAR 16:9], 126 kb/s, 30 fps, 30 tbr, 6k tbn, 6k tbc
    Metadata:
      variant_bitrate : 932269
    Stream #0:106: Subtitle: eia_608 (c608 / 0x38303663), 0 kb/s
    Metadata:
      variant_bitrate : 932269
  Program 52
    Metadata:
      variant_bitrate : 579426
    Stream #0:2(en-US): Audio: eac3 (ec-3 / 0x332D6365), 48000 Hz, 5.1(side), fltp, 85 kb/s (default)
    Metadata:
      comment         : English
    Stream #0:107: Video: hevc (Main 10) (hvc1 / 0x31637668), yuv420p10le(tv, bt709, progressive), 480x270 [SAR 1:1 DAR 16:9], 69 kb/s, 30 fps, 30 tbr, 6k tbn, 6k tbc
    Metadata:
      variant_bitrate : 579426
    Stream #0:108: Subtitle: eia_608 (c608 / 0x38303663), 0 kb/s
    Metadata:
      variant_bitrate : 579426
  Program 53
    Metadata:
      variant_bitrate : 371212
    Stream #0:2(en-US): Audio: eac3 (ec-3 / 0x332D6365), 48000 Hz, 5.1(side), fltp, 85 kb/s (default)
    Metadata:
      comment         : English
    Stream #0:109: Video: hevc (Main 10) (hvc1 / 0x31637668), yuv420p10le(tv, bt709, progressive), 416x234 [SAR 1:1 DAR 16:9], 27 kb/s, 30 fps, 30 tbr, 6k tbn, 6k tbc
    Metadata:
      variant_bitrate : 371212
    Stream #0:110: Subtitle: eia_608 (c608 / 0x38303663), 0 kb/s
    Metadata:
      variant_bitrate : 371212
Please use -q:a or -q:v, -qscale is ambiguous
Stream mapping:
  Stream #0:5 -> #0:0 (h264 (native) -> mpeg4 (native))
  Stream #0:1 -> #0:1 (ac3 (native) -> ac3 (native))
Press [q] to stop, [?] for help
Output #0, avi, to 'out.avi':
  Metadata:
    ISFT            : Lavf58.0.100
    Stream #0:0: Video: mpeg4 (FMP4 / 0x34504D46), yuv420p, 1920x1080 [SAR 1:1 DAR 16:9], q=2-31, 200 kb/s, 60 fps, 60 tbn, 60 tbc
    Metadata:
      variant_bitrate : 9873268
      encoder         : Lavc58.0.100 mpeg4
    Side data:
      cpb: bitrate max/min/avg: 0/0/200000 buffer size: 0 vbv_delay: -1
    Stream #0:1(en-US): Audio: ac3 ([0] [0][0] / 0x2000), 48000 Hz, 5.1(side), fltp, 448 kb/s (default)
    Metadata:
      comment         : English
      encoder         : Lavc58.0.100 ac3
[h264 @ 0x4130140] Increasing reorder buffer to 1
[hls,applehttp @ 0x2493600] No longer receiving playlist 8 
[hls,applehttp @ 0x2493600] No longer receiving playlist 9
[hls,applehttp @ 0x2493600] No longer receiving playlist 10
[hls,applehttp @ 0x2493600] No longer receiving playlist 11
[hls,applehttp @ 0x2493600] No longer receiving playlist 17
[hls,applehttp @ 0x2493600] No longer receiving playlist 18
[hls,applehttp @ 0x2493600] No longer receiving playlist 19
[hls,applehttp @ 0x2493600] No longer receiving playlist 20
[hls,applehttp @ 0x2493600] No longer receiving playlist 26
[hls,applehttp @ 0x2493600] No longer receiving playlist 27
[hls,applehttp @ 0x2493600] No longer receiving playlist 28
[hls,applehttp @ 0x2493600] No longer receiving playlist 29
[hls,applehttp @ 0x2493600] No longer receiving playlist 35
[hls,applehttp @ 0x2493600] No longer receiving playlist 36
[hls,applehttp @ 0x2493600] No longer receiving playlist 37
[hls,applehttp @ 0x2493600] No longer receiving playlist 38
[hls,applehttp @ 0x2493600] No longer receiving playlist 44
[hls,applehttp @ 0x2493600] No longer receiving playlist 45
[hls,applehttp @ 0x2493600] No longer receiving playlist 46
[hls,applehttp @ 0x2493600] No longer receiving playlist 47
[hls,applehttp @ 0x2493600] No longer receiving playlist 53
[hls,applehttp @ 0x2493600] No longer receiving playlist 54
[hls,applehttp @ 0x2493600] No longer receiving playlist 55
[hls,applehttp @ 0x2493600] No longer receiving playlist 56
[hls,applehttp @ 0x2493600] No longer receiving playlist 30
[hls,applehttp @ 0x2493600] No longer receiving playlist 31
[hls,applehttp @ 0x2493600] No longer receiving playlist 32
[hls,applehttp @ 0x2493600] No longer receiving playlist 33
[hls,applehttp @ 0x2493600] No longer receiving playlist 34
[hls,applehttp @ 0x2493600] No longer receiving playlist 39
[hls,applehttp @ 0x2493600] No longer receiving playlist 40
[hls,applehttp @ 0x2493600] No longer receiving playlist 41
[hls,applehttp @ 0x2493600] No longer receiving playlist 42
[hls,applehttp @ 0x2493600] No longer receiving playlist 43
[hls,applehttp @ 0x2493600] No longer receiving playlist 48
[hls,applehttp @ 0x2493600] No longer receiving playlist 49
[hls,applehttp @ 0x2493600] No longer receiving playlist 50
[hls,applehttp @ 0x2493600] No longer receiving playlist 51
[hls,applehttp @ 0x2493600] No longer receiving playlist 52
[hls,applehttp @ 0x2493600] No longer receiving playlist 0
[hls,applehttp @ 0x2493600] No longer receiving playlist 2
[hls,applehttp @ 0x2493600] No longer receiving playlist 3
[hls,applehttp @ 0x2493600] Opening 'https://tungsten.aaplimg.com/VOD/bipbop_adv_example_hevc/v9/main.mp4' for reading
[hls,applehttp @ 0x2493600] No longer receiving playlist 5
[hls,applehttp @ 0x2493600] No longer receiving playlist 6
[hls,applehttp @ 0x2493600] No longer receiving playlist 7
[hls,applehttp @ 0x2493600] No longer receiving playlist 12
[hls,applehttp @ 0x2493600] No longer receiving playlist 13
[hls,applehttp @ 0x2493600] No longer receiving playlist 14
[hls,applehttp @ 0x2493600] No longer receiving playlist 15
[hls,applehttp @ 0x2493600] No longer receiving playlist 16
[hls,applehttp @ 0x2493600] No longer receiving playlist 21
[hls,applehttp @ 0x2493600] No longer receiving playlist 22
[hls,applehttp @ 0x2493600] No longer receiving playlist 23
[hls,applehttp @ 0x2493600] No longer receiving playlist 24
[hls,applehttp @ 0x2493600] No longer receiving playlist 25
[hls,applehttp @ 0x2493600] Opening 'https://tungsten.aaplimg.com/VOD/bipbop_adv_example_hevc/a2/main.mp4' for reading
[hls,applehttp @ 0x2493600] Opening 'https://tungsten.aaplimg.com/VOD/bipbop_adv_example_hevc/v9/main.mp4' for reading
[hls,applehttp @ 0x2493600] Opening 'https://tungsten.aaplimg.com/VOD/bipbop_adv_example_hevc/a2/main.mp4' for reading
[hls,applehttp @ 0x2493600] Opening 'https://tungsten.aaplimg.com/VOD/bipbop_adv_example_hevc/v9/main.mp4' for reading
[hls,applehttp @ 0x2493600] Opening 'https://tungsten.aaplimg.com/VOD/bipbop_adv_example_hevc/a2/main.mp4' for reading
[hls,applehttp @ 0x2493600] Opening 'https://tungsten.aaplimg.com/VOD/bipbop_adv_example_hevc/v9/main.mp4' for reading
[hls,applehttp @ 0x2493600] Opening 'https://tungsten.aaplimg.com/VOD/bipbop_adv_example_hevc/a2/main.mp4' for reading
[hls,applehttp @ 0x2493600] Opening 'https://tungsten.aaplimg.com/VOD/bipbop_adv_example_hevc/v9/main.mp4' for reading
[hls,applehttp @ 0x2493600] Opening 'https://tungsten.aaplimg.com/VOD/bipbop_adv_example_hevc/a2/main.mp4' for reading
[hls,applehttp @ 0x2493600] Opening 'https://tungsten.aaplimg.com/VOD/bipbop_adv_example_hevc/v9/main.mp4' for reading
[hls,applehttp @ 0x2493600] Opening 'https://tungsten.aaplimg.com/VOD/bipbop_adv_example_hevc/a2/main.mp4' for reading
[hls,applehttp @ 0x2493600] Opening 'https://tungsten.aaplimg.com/VOD/bipbop_adv_example_hevc/v9/main.mp4' for reading
[hls,applehttp @ 0x2493600] Opening 'https://tungsten.aaplimg.com/VOD/bipbop_adv_example_hevc/a2/main.mp4' for reading
[hls,applehttp @ 0x2493600] Opening 'https://tungsten.aaplimg.com/VOD/bipbop_adv_example_hevc/v9/main.mp4' for reading
[hls,applehttp @ 0x2493600] Opening 'https://tungsten.aaplimg.com/VOD/bipbop_adv_example_hevc/a2/main.mp4' for reading
[hls,applehttp @ 0x2493600] Opening 'https://tungsten.aaplimg.com/VOD/bipbop_adv_example_hevc/v9/main.mp4' for reading
[hls,applehttp @ 0x2493600] Opening 'https://tungsten.aaplimg.com/VOD/bipbop_adv_example_hevc/a2/main.mp4' for reading
[hls,applehttp @ 0x2493600] Opening 'https://tungsten.aaplimg.com/VOD/bipbop_adv_example_hevc/v9/main.mp4' for reading
[hls,applehttp @ 0x2493600] Opening 'https://tungsten.aaplimg.com/VOD/bipbop_adv_example_hevc/a2/main.mp4' for reading
[hls,applehttp @ 0x2493600] Opening 'https://tungsten.aaplimg.com/VOD/bipbop_adv_example_hevc/v9/main.mp4' for reading
[hls,applehttp @ 0x2493600] Opening 'https://tungsten.aaplimg.com/VOD/bipbop_adv_example_hevc/a2/main.mp4' for reading
[hls,applehttp @ 0x2493600] Opening 'https://tungsten.aaplimg.com/VOD/bipbop_adv_example_hevc/v9/main.mp4' for reading
[hls,applehttp @ 0x2493600] Opening 'https://tungsten.aaplimg.com/VOD/bipbop_adv_example_hevc/a2/main.mp4' for reading
[hls,applehttp @ 0x2493600] Opening 'https://tungsten.aaplimg.com/VOD/bipbop_adv_example_hevc/v9/main.mp4' for reading
[hls,applehttp @ 0x2493600] Opening 'https://tungsten.aaplimg.com/VOD/bipbop_adv_example_hevc/a2/main.mp4' for reading
[hls,applehttp @ 0x2493600] Opening 'https://tungsten.aaplimg.com/VOD/bipbop_adv_example_hevc/v9/main.mp4' for reading
[hls,applehttp @ 0x2493600] Opening 'https://tungsten.aaplimg.com/VOD/bipbop_adv_example_hevc/a2/main.mp4' for reading
[hls,applehttp @ 0x2493600] Opening 'https://tungsten.aaplimg.com/VOD/bipbop_adv_example_hevc/v9/main.mp4' for reading
[hls,applehttp @ 0x2493600] Opening 'https://tungsten.aaplimg.com/VOD/bipbop_adv_example_hevc/a2/main.mp4' for reading
[hls,applehttp @ 0x2493600] Opening 'https://tungsten.aaplimg.com/VOD/bipbop_adv_example_hevc/v9/main.mp4' for reading
[hls,applehttp @ 0x2493600] Opening 'https://tungsten.aaplimg.com/VOD/bipbop_adv_example_hevc/a2/main.mp4' for reading
[hls,applehttp @ 0x2493600] Opening 'https://tungsten.aaplimg.com/VOD/bipbop_adv_example_hevc/v9/main.mp4' for reading
[hls,applehttp @ 0x2493600] Opening 'https://tungsten.aaplimg.com/VOD/bipbop_adv_example_hevc/a2/main.mp4' for reading
[hls,applehttp @ 0x2493600] Opening 'https://tungsten.aaplimg.com/VOD/bipbop_adv_example_hevc/v9/main.mp4' for reading
[hls,applehttp @ 0x2493600] Opening 'https://tungsten.aaplimg.com/VOD/bipbop_adv_example_hevc/a2/main.mp4' for reading
[hls,applehttp @ 0x2493600] Opening 'https://tungsten.aaplimg.com/VOD/bipbop_adv_example_hevc/v9/main.mp4' for reading
[hls,applehttp @ 0x2493600] Opening 'https://tungsten.aaplimg.com/VOD/bipbop_adv_example_hevc/a2/main.mp4' for reading
[hls,applehttp @ 0x2493600] Opening 'https://tungsten.aaplimg.com/VOD/bipbop_adv_example_hevc/v9/main.mp4' for reading
[hls,applehttp @ 0x2493600] Opening 'https://tungsten.aaplimg.com/VOD/bipbop_adv_example_hevc/a2/main.mp4' for reading
[hls,applehttp @ 0x2493600] Opening 'https://tungsten.aaplimg.com/VOD/bipbop_adv_example_hevc/v9/main.mp4' for reading
[hls,applehttp @ 0x2493600] Opening 'https://tungsten.aaplimg.com/VOD/bipbop_adv_example_hevc/a2/main.mp4' for reading
[hls,applehttp @ 0x2493600] Opening 'https://tungsten.aaplimg.com/VOD/bipbop_adv_example_hevc/v9/main.mp4' for reading
[hls,applehttp @ 0x2493600] Opening 'https://tungsten.aaplimg.com/VOD/bipbop_adv_example_hevc/a2/main.mp4' for reading
[hls,applehttp @ 0x2493600] Opening 'https://tungsten.aaplimg.com/VOD/bipbop_adv_example_hevc/v9/main.mp4' for reading
[hls,applehttp @ 0x2493600] Opening 'https://tungsten.aaplimg.com/VOD/bipbop_adv_example_hevc/a2/main.mp4' for reading
[hls,applehttp @ 0x2493600] Opening 'https://tungsten.aaplimg.com/VOD/bipbop_adv_example_hevc/v9/main.mp4' for reading
[hls,applehttp @ 0x2493600] Opening 'https://tungsten.aaplimg.com/VOD/bipbop_adv_example_hevc/a2/main.mp4' for reading
[hls,applehttp @ 0x2493600] Opening 'https://tungsten.aaplimg.com/VOD/bipbop_adv_example_hevc/v9/main.mp4' for reading
[hls,applehttp @ 0x2493600] Opening 'https://tungsten.aaplimg.com/VOD/bipbop_adv_example_hevc/a2/main.mp4' for reading
[hls,applehttp @ 0x2493600] Opening 'https://tungsten.aaplimg.com/VOD/bipbop_adv_example_hevc/v9/main.mp4' for reading
[hls,applehttp @ 0x2493600] Opening 'https://tungsten.aaplimg.com/VOD/bipbop_adv_example_hevc/a2/main.mp4' for reading
[hls,applehttp @ 0x2493600] Opening 'https://tungsten.aaplimg.com/VOD/bipbop_adv_example_hevc/v9/main.mp4' for reading
[hls,applehttp @ 0x2493600] Opening 'https://tungsten.aaplimg.com/VOD/bipbop_adv_example_hevc/a2/main.mp4' for reading
[hls,applehttp @ 0x2493600] Opening 'https://tungsten.aaplimg.com/VOD/bipbop_adv_example_hevc/v9/main.mp4' for reading
[hls,applehttp @ 0x2493600] Opening 'https://tungsten.aaplimg.com/VOD/bipbop_adv_example_hevc/a2/main.mp4' for reading
[hls,applehttp @ 0x2493600] Opening 'https://tungsten.aaplimg.com/VOD/bipbop_adv_example_hevc/v9/main.mp4' for reading
[hls,applehttp @ 0x2493600] Opening 'https://tungsten.aaplimg.com/VOD/bipbop_adv_example_hevc/a2/main.mp4' for reading
[hls,applehttp @ 0x2493600] Opening 'https://tungsten.aaplimg.com/VOD/bipbop_adv_example_hevc/v9/main.mp4' for reading
[hls,applehttp @ 0x2493600] Opening 'https://tungsten.aaplimg.com/VOD/bipbop_adv_example_hevc/a2/main.mp4' for reading
frame=14516 fps=106 q=2.0 Lsize=  590166kB time=00:04:02.11 bitrate=19968.6kbits/s speed=1.76x
video:576393kB audio:13239kB subtitle:0kB other streams:0kB global headers:0kB muxing overhead: 0.090653%

The output file plays perfectly in sync with MPlayer, FFplay and vlc.

comment:10 Changed 3 weeks ago by BasiC007

Attaching my logs as the tracker refuses to take the logs due to spam protection (too many external links).
Edit: Can't attach the file either... Apparently it also blacklisted my IP. I built using msvc on Windows though...

The application just hangs at time=00:00:07.80...

Last edited 3 weeks ago by BasiC007 (previous) (diff)
Note: See TracTickets for help on using tickets.