Opened 6 months ago

Last modified 6 months ago

#7157 new defect

Fieild Order isn't recognized

Reported by: ponpon Owned by:
Priority: normal Component: undetermined
Version: unspecified Keywords:
Cc: Blocked By:
Blocking: Reproduced by developer: no
Analyzed by developer: no

Description

Fieild Order isn't recognized
Source

ffmpeg -f lavfi -i yuvtestsrc=r=50 -vf tinterlace=interleave_top,setfield=mode=tff -x264opts tff=1 -t 1 -field_order tt -pix_fmt yuv420p -y tff.mp4
ffmpeg -i tff.mp4
ffmpeg version N-90810-g153e920892 Copyright (c) 2000-2018 the FFmpeg developers
  built with clang version 5.0.1 (tags/RELEASE_501/final)
  configuration: --prefix=/sw --cc=clang-mp-5.0 --cxx=clang++-mp-5.0 --disable-shared --enable-static --enable-gpl --enable-version3 --enable-nonfree --enable-pthreads --optflags=-Ofast --extra-cflags='-I/sw/include -I/opt/local/include ' --extra-ldflags=' -L/sw/lib -L/opt/local/lib -fopenmp' --extra-ldsoflags='-L/sw/lib -L/opt/local/lib -static--target-os=darwin' --arch=x86_64 --cpu=kabylake --enable-avresample --enable-libfdk-aac --enable-libmp3lame --enable-libopencore_amrnb --enable-libopencore_amrwb --enable-libopenjpeg --enable-libopus --enable-libspeex --enable-libtheora --enable-libvorbis --enable-libvpx --enable-libwavpack --enable-libwebp --enable-libxvid --enable-libfreetype --enable-gcrypt --enable-gmp --enable-openssl --enable-librtmp --enable-libass --enable-fontconfig --enable-libfribidi --enable-libbluray --enable-libdc1394 --enable-libmodplug --enable-lzma --enable-libx264 --enable-libx265 --enable-libzimg --enable-libvidstab --enable-libsoxr --enable-libsmbclient --enable-libcdio --enable-libtesseract --enable-opengl --enable-opencl --pkg-config-flags=' --libs --static'
  libavutil      56. 15.100 / 56. 15.100
  libavcodec     58. 19.100 / 58. 19.100
  libavformat    58. 13.100 / 58. 13.100
  libavdevice    58.  4.100 / 58.  4.100
  libavfilter     7. 19.100 /  7. 19.100
  libavresample   4.  0.  0 /  4.  0.  0
  libswscale      5.  2.100 /  5.  2.100
  libswresample   3.  2.100 /  3.  2.100
  libpostproc    55.  2.100 / 55.  2.100
Input #0, mov,mp4,m4a,3gp,3g2,mj2, from 'tff.mp4':
  Metadata:
    major_brand     : isom
    minor_version   : 512
    compatible_brands: isomiso2avc1mp41
    encoder         : Lavf58.13.100
  Duration: 00:00:01.00, start: 0.000000, bitrate: 24 kb/s
    Stream #0:0(und): Video: h264 (High) (avc1 / 0x31637661), yuv420p, 320x240 [SAR 1:1 DAR 4:3], 14 kb/s, 25 fps, 25 tbr, 12800 tbn, 50 tbc (default)
    Metadata:
      handler_name    : VideoHandler
At least one output file must be specified
ffprobe -select_streams v:0 -show_entries stream=field_order tff.mp4
ffprobe version N-90810-g153e920892 Copyright (c) 2007-2018 the FFmpeg developers
  built with clang version 5.0.1 (tags/RELEASE_501/final)
  configuration: --prefix=/sw --cc=clang-mp-5.0 --cxx=clang++-mp-5.0 --disable-shared --enable-static --enable-gpl --enable-version3 --enable-nonfree --enable-pthreads --optflags=-Ofast --extra-cflags='-I/sw/include -I/opt/local/include ' --extra-ldflags=' -L/sw/lib -L/opt/local/lib -fopenmp' --extra-ldsoflags='-L/sw/lib -L/opt/local/lib -static--target-os=darwin' --arch=x86_64 --cpu=kabylake --enable-avresample --enable-libfdk-aac --enable-libmp3lame --enable-libopencore_amrnb --enable-libopencore_amrwb --enable-libopenjpeg --enable-libopus --enable-libspeex --enable-libtheora --enable-libvorbis --enable-libvpx --enable-libwavpack --enable-libwebp --enable-libxvid --enable-libfreetype --enable-gcrypt --enable-gmp --enable-openssl --enable-librtmp --enable-libass --enable-fontconfig --enable-libfribidi --enable-libbluray --enable-libdc1394 --enable-libmodplug --enable-lzma --enable-libx264 --enable-libx265 --enable-libzimg --enable-libvidstab --enable-libsoxr --enable-libsmbclient --enable-libcdio --enable-libtesseract --enable-opengl --enable-opencl --pkg-config-flags=' --libs --static'
  libavutil      56. 15.100 / 56. 15.100
  libavcodec     58. 19.100 / 58. 19.100
  libavformat    58. 13.100 / 58. 13.100
  libavdevice    58.  4.100 / 58.  4.100
  libavfilter     7. 19.100 /  7. 19.100
  libavresample   4.  0.  0 /  4.  0.  0
  libswscale      5.  2.100 /  5.  2.100
  libswresample   3.  2.100 /  3.  2.100
  libpostproc    55.  2.100 / 55.  2.100
Input #0, mov,mp4,m4a,3gp,3g2,mj2, from 'tff.mp4':
  Metadata:
    major_brand     : isom
    minor_version   : 512
    compatible_brands: isomiso2avc1mp41
    encoder         : Lavf58.13.100
  Duration: 00:00:01.00, start: 0.000000, bitrate: 24 kb/s
    Stream #0:0(und): Video: h264 (High) (avc1 / 0x31637661), yuv420p, 320x240 [SAR 1:1 DAR 4:3], 14 kb/s, 25 fps, 25 tbr, 12800 tbn, 50 tbc (default)
    Metadata:
      handler_name    : VideoHandler
[STREAM]
field_order=unknown
[/STREAM]

Attachments (1)

tff.mp4 (3.0 KB) - added by ponpon 6 months ago.

Download all attachments as: .zip

Change History (2)

Changed 6 months ago by ponpon

comment:1 Changed 6 months ago by richardpl

It is written in frames, use -show_frames with ffprobe.

Note: See TracTickets for help on using tickets.